osu file format v13

[General]
AudioFilename: Nightcore - Blue.mp3
AudioLeadIn: 0
PreviewTime: -1
Countdown: 1
SampleSet: Normal
StackLeniency: 0.7
Mode: 0
LetterboxInBreaks: 1
WidescreenStoryboard: 0

[Editor]
Bookmarks: 14429,27821,54605,66323
DistanceSpacing: 1
BeatDivisor: 2
GridSize: 4
TimelineZoom: 1

[Metadata]
Title:Blue (Nightcore Mix)
TitleUnicode:Blue (Nightcore Mix)
Artist:Michael Mind Project ft ante Thomas
ArtistUnicode:Michael Mind Project ft ante Thomas
Creator:Thor
Version:Insane
Source:
Tags:Blue Michael Mind Thor Thomas
BeatmapID:474632
BeatmapSetID:200211

[Difficulty]
HPDrainRate:7
CircleSize:4
OverallDifficulty:7
ApproachRate:9
SliderMultiplier:1.7
SliderTickRate:2

[Events]
//Background and Video events
0,0,"blue-abstract-wide-wallpaper-1920x1080-008.jpg",0,0
//Break Periods
//Storyboard Layer 0 (Background)
//Storyboard Layer 1 (Fail)
//Storyboard Layer 2 (Pass)
//Storyboard Layer 3 (Foreground)
//Storyboard Sound Samples
//Background Colour Transformations
3,100,163,162,255

[TimingPoints]
1038,418.497593638837,4,1,0,100,1,0
14429,-83.3333333333333,4,1,0,100,0,0
27821,-125,4,1,0,100,0,0
54605,-125,4,1,0,100,0,1
66323,-125,4,1,0,100,0,0

[Colours]
Combo1 : 202,133,224
Combo2 : 56,40,255
Combo3 : 255,28,28
Combo4 : 157,231,126

[HitObjects]
176,284,1038,6,0,P|148:260|168:128,1,170
312,208,1665,1,0,0:0:0:0:
156,139,1874,1,0,0:0:0:0:
312,208,2084,1,0,0:0:0:0:
168,120,2293,6,0,P|200:96|344:120,1,170
152,232,2921,1,0,0:0:0:0:
256,168,3130,2,0,P|336:187|411:150,1,170
268,292,3758,1,0,0:0:0:0:
323,103,3967,1,0,0:0:0:0:
228,272,4176,1,0,0:0:0:0:
280,88,4385,6,0,B|248:88|200:64|200:64|152:88|108:88,1,170
196,192,5013,1,0,0:0:0:0:
116,300,5222,2,0,B|156:300|200:320|200:320|248:300|284:300,1,170
408,192,5850,5,0,0:0:0:0:
280,88,6059,1,0,0:0:0:0:
281,300,6269,1,0,0:0:0:0:
488,196,6478,6,0,P|480:160|360:128,1,170
256,240,7106,1,0,0:0:0:0:
24,196,7315,2,0,P|32:160|152:128,1,170
256,172,7943,5,0,0:0:0:0:
256,36,8152,1,0,0:0:0:0:
212,152,8361,1,0,0:0:0:0:
300,60,8570,1,0,0:0:0:0:
140,276,8780,6,0,P|168:304|304:288,1,170
376,192,9407,1,0,0:0:0:0:
290,301,9617,1,0,0:0:0:0:
376,192,9826,1,0,0:0:0:0:
290,83,10035,1,0,0:0:0:0:
44,188,10244,6,0,L|228:188,1,170
214,188,10872,1,0,0:0:0:0:
40,120,11081,1,0,0:0:0:0:
216,120,11291,1,0,0:0:0:0:
80,56,11500,5,0,0:0:0:0:
176,56,11709,1,0,0:0:0:0:
128,272,11918,2,0,L|128:92,1,170
128,12,12546,1,0,0:0:0:0:
128,12,12755,1,0,0:0:0:0:
254,64,12965,5,0,1:0:0:0:
312,306,13174,1,0,1:0:0:0:
201,307,13383,1,0,1:0:0:0:
354,111,13592,1,0,1:0:0:0:
155,113,13802,1,0,1:0:0:0:
380,219,14011,1,0,1:0:0:0:
132,221,14220,1,0,1:0:0:0:
254,64,14429,6,0,L|256:200,1,101.999996887207
256,344,14848,1,0,0:0:0:0:
332,120,15266,5,0,0:0:0:0:
180,264,15476,1,0,0:0:0:0:
392,68,15685,1,0,0:0:0:0:
236,208,15894,2,0,B|264:208|332:240|332:240|400:208|436:208,1,203.999993774414
332,56,16522,5,0,0:0:0:0:
332,328,16731,1,0,0:0:0:0:
332,188,16940,1,0,0:0:0:0:
176,188,17150,1,0,0:0:0:0:
496,188,17359,1,0,0:0:0:0:
332,264,17568,2,0,B|332:216|292:172|292:172|332:120|332:64,1,203.999993774414
331,80,18196,1,0,0:0:0:0:
216,276,18614,6,0,P|168:276|120:216,1,101.999996887207
383,141,19033,2,0,P|345:108|296:108,1,101.999996887207
383,242,19451,2,0,P|345:275|296:276,1,101.999996887207
216,108,19870,2,0,P|166:108|128:141,1,101.999996887207
256,192,20288,5,0,0:0:0:0:
360,96,20498,1,0,0:0:0:0:
152,288,20707,1,0,0:0:0:0:
256,192,20916,2,0,L|152:120,1,101.999996887207
256,192,21335,2,0,L|360:264,1,101.999996887207
112,84,21962,5,0,0:0:0:0:
400,84,22172,1,0,0:0:0:0:
164,120,22381,1,0,0:0:0:0:
348,120,22590,1,0,0:0:0:0:
252,284,22799,2,0,B|252:236|284:204|284:204|252:172|252:92,1,203.999993774414
132,200,23427,6,0,L|176:96,1,101.999996887207
380,200,23846,2,0,L|336:96,1,101.999996887207
256,232,24264,1,0,0:0:0:0:
256,232,24473,1,0,0:0:0:0:
256,56,24683,2,0,L|256:168,1,101.999996887207
184,263,25310,5,0,0:0:0:0:
184,120,25520,1,0,0:0:0:0:
327,120,25729,1,0,0:0:0:0:
327,263,25938,2,0,B|277:253|255:192|255:192|205:178|184:117,1,203.999993774414
264,112,26566,5,0,0:0:0:0:
344,184,26775,1,0,0:0:0:0:
204,112,26984,1,0,0:0:0:0:
352,244,27194,1,0,0:0:0:0:
172,288,27403,1,0,0:0:0:0:
92,188,27612,1,0,0:0:0:0:
172,288,27821,6,0,P|204:304|264:304,1,68
256,188,28240,1,0,0:0:0:0:
256,188,28449,1,0,0:0:0:0:
340,96,28658,2,0,P|308:80|248:80,1,68
136,136,29077,5,0,0:0:0:0:
256,188,29286,1,0,0:0:0:0:
376,248,29495,1,0,0:0:0:0:
256,188,29705,2,0,L|256:100,1,68
256,332,30123,2,0,L|256:256,1,68
256,76,30542,5,0,0:0:0:0:
256,308,30751,1,0,0:0:0:0:
144,192,30960,2,0,L|40:192,1,68
368,192,31379,2,0,L|472:192,1,68
144,192,31797,2,0,L|40:192,1,68
368,192,32216,2,0,L|472:192,1,68
144,192,32634,2,0,L|40:192,1,68
368,192,33053,2,0,L|472:192,1,68
256,192,33471,5,0,0:0:0:0:
256,48,33680,1,0,0:0:0:0:
256,336,33890,1,0,0:0:0:0:
256,192,34099,1,0,0:0:0:0:
256,92,34308,1,0,0:0:0:0:
256,292,34517,1,0,0:0:0:0:
212,192,34727,6,0,L|144:192,1,68
300,192,35145,2,0,L|368:192,1,68
72,192,35564,1,0,0:0:0:0:
208,120,35773,1,0,0:0:0:0:
304,120,35982,1,0,0:0:0:0:
440,192,36191,1,0,0:0:0:0:
256,304,36401,5,0,0:0:0:0:
256,304,36610,1,0,0:0:0:0:
256,196,36819,1,0,0:0:0:0:
256,196,37238,5,0,0:0:0:0:
256,68,37447,1,0,0:0:0:0:
120,136,37656,2,0,L|120:216,1,68
392,248,38075,2,0,L|392:168,1,68
120,136,38493,2,0,L|120:216,1,68
392,248,38912,2,0,L|392:168,1,68
120,136,39330,2,0,L|120:216,1,68
392,248,39749,2,0,L|392:168,1,68
256,92,40167,5,0,0:0:0:0:
256,192,40376,1,0,0:0:0:0:
256,292,40586,1,0,0:0:0:0:
128,120,40795,2,0,P|136:156|200:252,1,136
384,120,41423,2,0,P|376:156|312:252,1,136
256,28,42050,5,0,0:0:0:0:
260,348,42260,1,0,0:0:0:0:
384,120,42469,1,0,0:0:0:0:
128,264,42678,1,0,0:0:0:0:
196,132,42887,1,0,0:0:0:0:
316,252,43097,1,0,0:0:0:0:
256,192,43306,1,0,0:0:0:0:
256,192,43515,1,0,0:0:0:0:
88,192,43724,6,0,L|144:124,1,68
424,192,44143,2,0,L|368:260,1,68
256,56,44561,2,0,L|304:4,1,68
256,328,44980,2,0,L|208:380,1,68
160,128,45398,5,0,0:0:0:0:
352,256,45607,1,0,0:0:0:0:
160,256,45817,1,0,0:0:0:0:
352,128,46026,1,0,0:0:0:0:
256,48,46235,2,0,L|256:196,1,136
264,340,46863,5,0,0:0:0:0:
160,128,47072,1,0,0:0:0:0:
352,128,47281,1,0,0:0:0:0:
160,288,47491,1,0,0:0:0:0:
260,80,47700,1,0,0:0:0:0:
352,288,47909,6,0,P|320:264|304:200,1,68
160,96,48328,2,0,P|192:120|208:184,1,68
376,312,48746,2,0,P|344:288|328:224,1,68
136,72,49165,2,0,P|168:96|184:160,1,68
396,336,49583,2,0,P|364:312|348:248,1,68
116,48,50002,2,0,P|148:72|164:136,1,68
256,192,50420,5,0,0:0:0:0:
256,168,50629,1,0,0:0:0:0:
360,72,50839,1,0,0:0:0:0:
360,96,51048,1,0,0:0:0:0:
152,312,51257,1,0,0:0:0:0:
152,288,51466,1,0,0:0:0:0:
88,112,51676,6,0,P|148:152|216:116,1,136
156,60,52303,1,0,0:0:0:0:
156,324,52513,1,0,0:0:0:0:
88,272,52722,2,0,P|148:232|216:268,1,136
424,296,54187,6,0,P|440:268|428:196,1,68
256,80,54605,1,0,0:0:0:0:
188,296,54814,1,0,0:0:0:0:
356,160,55024,1,0,0:0:0:0:
156,160,55233,1,0,0:0:0:0:
324,296,55442,1,0,0:0:0:0:
256,80,55651,6,0,L|256:0,1,68
324,296,56070,2,0,P|344:328|384:356,1,68
156,160,56488,2,0,P|176:128|216:100,1,68
356,160,56907,2,0,P|336:128|296:100,1,68
188,296,57325,2,0,P|168:328|128:356,1,68
256,192,57744,5,0,0:0:0:0:
256,192,57953,1,0,0:0:0:0:
460,192,58162,1,0,0:0:0:0:
256,52,58372,1,0,0:0:0:0:
460,192,58581,5,0,0:0:0:0:
256,192,58790,1,0,0:0:0:0:
52,192,58999,1,0,0:0:0:0:
256,52,59209,1,0,0:0:0:0:
256,192,59418,2,0,L|256:344,2,136,0|0|0,0:0|0:0|0:0,0:0:0:0:
80,40,60464,6,0,P|92:112|164:152,1,136
256,44,61092,1,0,0:0:0:0:
256,44,61301,1,0,0:0:0:0:
432,40,61510,2,0,P|420:112|348:152,1,136
256,204,62138,1,0,0:0:0:0:
256,204,62347,2,0,L|256:296,1,68
256,44,62766,6,0,P|324:44|368:140,1,136
196,288,63394,1,0,0:0:0:0:
196,288,63603,1,0,0:0:0:0:
196,288,63812,1,0,0:0:0:0:
256,44,64021,2,0,P|324:44|368:140,1,136
276,132,64649,6,0,P|320:188|392:188,1,136
196,132,65277,1,0,0:0:0:0:
11,192,65486,2,0,P|76:185|116:132,1,136
196,24,66114,1,0,0:0:0:0:
196,24,66323,1,0,0:0:0:0:
324,160,66532,6,0,L|384:112,1,68
216,160,66951,1,0,0:0:0:0:
264,252,67160,1,0,0:0:0:0:
52,192,67997,5,0,0:0:0:0:
152,92,68206,1,0,0:0:0:0:
88,224,68416,2,0,L|144:276,1,68
192,120,68834,1,0,0:0:0:0:
16,160,69043,1,0,0:0:0:0:
232,148,69253,2,0,L|296:200,1,68
284,190,69671,5,0,0:0:0:0:
388,52,69880,1,0,0:0:0:0:
388,192,70090,1,0,0:0:0:0:
284,52,70299,1,0,0:0:0:0:
172,120,70508,2,0,L|260:120,1,68
240,120,70927,5,0,0:0:0:0:
240,308,71136,1,0,0:0:0:0:
240,120,71345,2,0,L|240:216,1,68
240,360,71764,5,0,0:0:0:0:
240,68,72182,1,0,0:0:0:0:
76,200,72391,2,0,L|160:200,1,68
252,200,72810,5,0,0:0:0:0:
76,200,73019,1,0,0:0:0:0:
252,160,73228,1,0,0:0:0:0:
76,164,73438,1,0,0:0:0:0:
252,84,73647,1,0,0:0:0:0:
76,88,73856,1,0,0:0:0:0:
252,4,74065,1,0,0:0:0:0:
76,4,74275,1,0,0:0:0:0:
164,116,74484,6,0,P|164:196|204:264,1,136
256,344,75112,1,0,0:0:0:0:
348,116,75321,2,0,P|348:196|308:264,1,136
256,68,75949,5,0,0:0:0:0:
256,180,76158,1,0,0:0:0:0:
348,116,76367,1,0,0:0:0:0:
256,68,76576,1,0,0:0:0:0:
156,68,76786,5,0,0:0:0:0:
212,248,76995,1,0,0:0:0:0:
348,116,77204,1,0,0:0:0:0:
184,116,77413,6,0,L|104:116,1,68,0|0,0:0|0:0,1:0:0:0:
328,268,77832,6,0,L|408:268,1,68,0|0,0:0|0:0,1:0:0:0:
151,194,78250,6,0,L|97:254,1,68,0|0,0:0|0:0,1:0:0:0:
360,189,78669,6,0,L|414:129,1,68,0|0,0:0|0:0,1:0:0:0:
177,261,79087,6,0,L|174:341,1,68,0|0,0:0|0:0,1:0:0:0:
334,122,79506,6,0,L|337:42,1,68,0|0,0:0|0:0,1:0:0:0:
256,144,79924,1,0,0:0:0:0:
256,172,80134,1,0,0:0:0:0:
256,296,80343,1,0,0:0:0:0:
256,268,80552,6,0,P|216:268|140:184,1,136
296,80,81180,1,0,0:0:0:0:
256,268,81389,2,0,P|216:268|140:184,1,136
212,136,82017,1,0,0:0:0:0:
304,136,82226,1,0,0:0:0:0:
256,268,82435,2,0,P|296:268|372:184,1,136
256,40,83063,6,0,L|256:120,1,68
256,192,83482,1,0,0:0:0:0:
256,192,83691,1,0,0:0:0:0:
256,192,84109,6,0,L|256:288,1,68
144,124,84528,1,0,0:0:0:0:
256,192,84737,1,0,0:0:0:0:
144,124,85156,2,0,P|160:92|256:60,1,136
256,328,86411,5,0,0:0:0:0:
376,192,86620,1,0,0:0:0:0:
256,56,86830,1,0,0:0:0:0:
136,192,87039,2,0,L|232:192,1,68
376,192,87457,5,0,0:0:0:0:
204,192,87667,1,0,0:0:0:0:
360,152,87876,1,0,0:0:0:0:
220,152,88085,2,0,L|264:96,1,68
360,152,88503,2,0,L|316:96,1,68
290,323,88922,2,0,L|290:175,1,136
216,40,89550,5,0,0:0:0:0:
216,92,89759,1,0,0:0:0:0:
288,172,89968,1,0,0:0:0:0:
288,120,90177,1,0,0:0:0:0:
216,40,90387,2,0,L|216:200,1,136
