osu file format v7

[General]
AudioFilename: 06 - You Rock My World.mp3
AudioLeadIn: 3000
PreviewTime: 83652
Countdown: 0
SampleSet: Soft
StackLeniency: 0.8
Mode: 0
LetterboxInBreaks: 1

[Editor]
DistanceSpacing: 0.899999976158142
BeatDivisor: 2
GridSize: 8

[Metadata]
Title:You Rock My World
Artist:Michael Jackson
Creator:termerys
Version:Normal
Source:Invincible
Tags:chris tucker

[Difficulty]
HPDrainRate:4
CircleSize:4
OverallDifficulty:4
SliderMultiplier:2
SliderTickRate:2

[Events]
//Background and Video events
0,0,"Michael-Jackson-michael-jackson-41266_1024_768.jpg"
//Break Periods
2,13116,21069
//Storyboard Layer 0 (Background)
//Storyboard Layer 1 (Fail)
//Storyboard Layer 2 (Pass)
//Storyboard Layer 3 (Foreground)
//Storyboard Sound Samples
//Background Colour Transformations
3,100,255,128,0

[TimingPoints]
916,631.578947368421,4,2,0,51,1,0
84584,-100,4,2,0,50,0,0
85531,-100,4,1,0,51,0,1
104478,-100,4,2,0,50,0,0

[Colours]
Combo1 : 255,150,0
Combo2 : 200,0,0
Combo3 : 0,0,200
Combo4 : 0,200,0

[HitObjects]
72,56,916,1,0
160,56,1231,1,0
248,56,1547,1,0
248,144,1863,1,0
160,144,2179,5,0
72,144,2494,1,0
72,232,2810,1,0
160,232,3126,1,0
248,232,3442,5,0
248,144,3758,1,0
328,184,4073,2,0,B|424:88,2,100,8|0|0
432,40,5337,1,8
256,40,5968,5,0
256,128,6284,1,0
176,80,6600,2,0,B|176:248,2,100,8|0|0
296,232,7863,1,8
120,192,8494,5,0
208,192,8810,1,0
296,192,9126,2,0,B|296:32,1,100,8|0
384,64,9758,1,0
384,248,10389,1,8
166,192,11021,5,0
256,192,11337,1,0
344,192,11652,2,0,B|384:112|304:56,2,100,8|0|0
160,192,12915,1,8
256,192,22389,6,2,B|96:192,4,100
440,192,24284,1,0
352,192,24600,1,0
256,192,24915,6,2,B|96:192,1,100
64,192,25547,1,0
32,272,25863,1,0
120,272,26179,6,2,B|184:312|256:264,1,100
304,272,26810,1,0
336,192,27126,2,0,B|216:104|88:200,1,200
176,248,28073,6,2,B|56:192,2,100
176,248,29021,1,0
264,248,29337,1,0
352,248,29652,1,0
352,160,29968,6,2,B|88:160,1,200
96,256,30915,1,0
96,256,31231,2,2,B|360:256,1,200
360,168,32179,6,2,B|224:168,1,100
192,80,32810,2,2,B|336:80,3,100
464,192,34389,5,0
384,232,34705,1,0
304,192,35021,2,2,B|160:192,1,100
120,168,35652,1,2
264,64,36284,6,2,B|112:64,1,100
136,152,36916,1,2
136,240,37231,2,0,B|248:320,1,100
320,280,37863,1,0
320,280,38179,6,2,B|320:144,2,100
408,280,39126,1,0
408,280,39442,1,0
320,280,39758,1,0
320,280,40073,6,2,B|320:144|120:144,2,200
232,280,41652,2,2,B|88:280,1,100
104,192,42284,2,2,B|240:192,4,100
104,96,43863,5,4
272,24,44494,2,0,B|320:160|160:240,1,200,0|0
144,152,45442,1,0
88,216,45758,1,0
120,304,46073,1,0
170,233,46389,2,0,B|362:241|306:65,1,200
232,136,47337,1,0
144,136,47652,5,0
80,192,47968,2,0,B|80:48,1,100
168,64,48600,2,0,B|272:64,2,100
232,136,49547,1,0
320,136,49863,1,0
400,88,50179,6,0,B|400:360,1,200
320,352,51126,1,0
224,352,51442,2,0,B|224:80,1,200
136,96,52389,1,0
136,184,52705,5,0
136,272,53021,2,0,B|216:224|280:304,1,100
328,280,53652,1,0
344,192,53968,2,0,B|264:64|176:224,1,200
152,264,54916,1,0
224,320,55231,5,0
296,264,55547,2,0,B|296:120,1,100
208,136,56179,2,0,B|208:304,2,100
297,135,57126,2,0,L|401:215|273:295,1,200
256,224,58073,6,0,B|256:360,2,100
168,248,59021,1,0
208,168,59337,2,0,B|352:168,1,100
336,256,59968,1,0
248,256,60284,5,0
160,256,60600,2,0,B|64:160,2,100
248,256,61547,5,0
336,256,61863,2,0,B|432:160,2,100
248,256,62810,5,0
160,256,63126,1,0
160,168,63442,1,0
160,256,63758,1,0
248,256,64073,6,0,B|248:112,2,100
336,256,65021,2,0,B|336:136,2,100
424,256,65968,2,0,B|424:128,2,100
256,320,67231,1,0
80,320,67863,6,0,B|80:208,3,100
80,128,69126,1,0
264,128,69758,1,0
440,128,70389,1,0
264,128,71021,2,0,B|264:248,2,100
80,128,72284,2,0,B|80:240,1,100
168,224,72916,5,0
256,224,73231,1,0
344,224,73547,1,0
296,304,73863,1,0
208,304,74179,2,0,B|208:72,1,200
248,24,75126,1,0
296,104,75442,6,0,B|296:320,1,200
384,304,76389,1,0
384,216,76705,2,0,B|384:96,2,100
472,216,77652,1,0
472,128,77968,1,0
296,120,78600,5,0
200,120,78916,1,0
112,120,79231,2,0,B|112:288|264:288,1,200
384,280,80494,2,0,B|488:232|416:80,1,200
248,128,81758,5,0
72,128,82389,1,0
168,280,83021,1,0
352,280,83652,1,0
296,112,84284,1,0
152,224,84916,6,0,B|200:320,1,100,8|0
280,256,85547,1,0
312,160,85863,1,0
224,152,86179,2,0,B|128:256,1,100,8|0
232,280,86810,1,0
384,184,87442,5,8
296,184,87758,2,0,B|160:184,1,100
104,184,88389,1,0
72,272,88705,1,8
160,272,89021,2,0,B|288:272,1,100
416,184,89968,5,8
328,184,90284,2,0,B|224:184,1,100,0|0
136,184,90916,1,0
136,272,91231,1,8
224,272,91547,2,0,B|352:272,1,100,0|0
360,184,92179,2,0,B|240:184,2,100,0|8|0
256,192,93126,12,0,94389
256,192,95021,5,8
168,192,95337,2,0,B|64:88,1,100
168,64,95968,1,0
256,104,96284,1,8
344,104,96600,2,0,B|248:208,1,100
96,176,97547,5,8
184,176,97863,2,0,B|312:176,1,100
384,192,98494,1,0
384,280,98810,1,8
296,280,99126,2,0,B|152:280,1,100
192,96,100073,5,8
280,96,100389,2,0,B|408:96,1,100
336,176,101021,1,0
248,176,101337,2,0,B|120:176,1,100,8|0
120,264,101968,1,0
208,264,102284,2,0,B|336:264,2,100,0|8|0
256,192,103231,12,4,104494
