osu file format v4

[General]
AudioFilename: Michael Jackson - Smooth Criminal.mp3
AudioLeadIn: 0
AudioHash: b9d7638119890ec6709fdf71c94f8b5e
PreviewTime: 94209
SampleSet: Normal

[Metadata]
Title:Smooth Criminal
Artist:Michael Jackson
Creator:Loginer
Version:Normal

[Difficulty]
HPDrainRate:4
CircleSize:3
OverallDifficulty:2
SliderMultiplier: 1.4
SliderTickRate: 2

[Events]
2,85906,92896
2,142759,145567
2,146820,150136
3,0,163,162,255

[TimingPoints]
5250,507.612708740218,4,1,1

[HitObjects]
256,192,4425,5,4,
192,224,5250,5,0,
192,224,5503,1,0,
160,224,5757,1,0,
160,224,6011,1,0,
64,224,6518,1,0,
128,160,7025,1,0,
128,160,7279,1,0,
160,160,7534,1,0,
160,160,7787,1,0,
160,160,8041,1,0,
224,128,8549,1,0,
288,192,9310,5,0,
288,192,9563,1,0,
320,192,9817,1,0,
320,192,10071,1,0,
352,192,10324,1,0,
352,192,10578,1,0,
384,192,10832,1,0,
384,192,11085,1,0,
384,160,11339,1,0,
384,160,11594,1,0,
352,160,11847,1,0,
352,160,12102,1,0,
320,160,12355,1,0,
320,160,12608,1,0,
192,160,13371,5,0,
192,160,13624,1,0,
160,160,13878,1,0,
160,160,14132,1,0,
64,160,14639,1,0,
128,224,15146,1,0,
128,224,15400,1,0,
160,224,15655,1,0,
160,224,15908,1,0,
160,224,16162,1,0,
224,256,16670,1,0,
288,192,17431,5,0,
288,192,17684,1,0,
320,192,17938,1,0,
320,192,18192,1,0,
352,192,18445,1,0,
352,192,18699,1,0,
384,192,18953,1,0,
384,192,19206,1,0,
384,224,19460,1,0,
384,224,19715,1,0,
352,224,19968,1,0,
352,224,20223,1,0,
320,224,20476,1,0,
320,224,20732,1,0,
256,192,21239,6,0,B|256:192|192:224,1,70
193,223,21747,2,0,B|193:223|224:288,1,70
223,286,22255,1,0,
288,288,22762,2,0,B|288:288|320:224,2,70
224,288,23777,1,0,
192,224,24031,1,0,
256,192,24285,1,0,
256,192,25300,6,0,B|256:192|192:160,1,70
193,161,25808,2,0,B|193:161|224:96,1,70
223,98,26316,1,0,
288,96,26823,2,0,B|288:96|320:160,2,70
224,96,27838,1,0,
192,160,28092,1,0,
256,192,28346,1,0,
256,192,29361,6,0,B|256:192|224:128,1,70
225,129,29869,2,0,B|225:129|160:160,1,70
162,159,30377,1,0,
160,224,30884,2,0,B|160:224|224:256,2,70
160,160,31899,1,0,
224,128,32153,1,0,
256,192,32407,1,0,
256,192,33422,6,0,B|256:192|288:128,1,70
287,129,33930,2,0,B|287:129|352:160,1,70
350,159,34438,1,0,
352,224,34945,2,0,B|352:224|288:256,2,70
352,160,35960,1,0,
288,128,36214,1,0,
256,192,36468,1,0,
96,64,37229,6,0,B|96:64|384:64,1,280
384,64,38752,2,0,B|384:64|384:352,1,280
384,344,40021,2,0,B|384:344|384:288,7,35
384,320,41290,6,0,B|384:320|96:320,1,280
96,320,42813,2,0,B|96:320|96:32,1,280
96,40,44082,2,0,B|96:40|96:96,7,35
96,64,45351,6,0,B|96:64|384:64,1,280
384,64,46874,2,0,B|384:64|384:352,1,280
384,344,48143,2,0,B|384:344|384:288,7,35
384,320,49412,6,0,B|384:320|96:320,1,280
96,320,50935,2,0,B|96:320|96:32,1,280
96,32,52204,2,0,B|96:32|128:32,2,35
96,32,52711,1,0,
160,32,52965,2,0,B|160:32|256:32,1,70
192,128,53980,6,0,B|192:128|352:128,1,140
352,192,54996,2,0,B|352:192|192:192,1,140
192,256,56011,2,0,B|192:256|352:256,1,140
288,320,57026,1,0,
224,320,57280,1,0,
192,256,58041,6,0,B|192:256|352:256,1,140
352,192,59057,2,0,B|352:192|192:192,1,140
192,128,60072,2,0,B|192:128|352:128,1,140
288,64,61087,1,0,
224,64,61341,1,0,
96,32,62102,6,0,B|96:32|96:192,1,140
224,224,63117,5,2,
416,352,64133,2,0,B|416:352|416:192,1,140
256,288,65148,5,4,
256,288,65402,1,4,
96,352,66163,6,0,B|96:352|96:192,1,140
224,224,67178,5,2,
416,32,68194,2,0,B|416:32|416:192,1,140
224,192,69970,6,0,B|224:192|128:192,2,70
288,192,70985,2,0,B|288:192|384:192,4,70
256,192,72508,1,0,
256,192,72762,1,0,
256,192,73016,1,0,
256,128,73270,2,0,B|256:128|256:288,1,140
320,288,74031,6,0,B|320:288|416:288,2,70
192,288,75046,2,0,B|192:288|96:288,4,70
256,320,76569,1,0,
256,320,76823,1,0,
256,320,77077,1,0,
256,256,77331,2,0,B|256:256|256:96,1,140
192,96,78092,6,0,B|192:96|96:96,2,70
320,96,79107,2,0,B|320:96|416:96,4,70
256,64,80630,1,0,
256,64,80884,1,0,
256,64,81138,1,0,
256,128,81391,2,0,B|256:128|256:160,1,35
256,192,81899,6,0,B|256:192|320:256,2,70
256,192,82660,1,0,
256,192,83422,2,0,B|256:192|192:256,2,70
256,192,84183,1,0,
256,160,84691,5,0,
256,160,84945,2,0,B|256:160|96:96,1,140
160,64,85706,1,0,
256,192,94336,6,0,B|256:192|192:160,1,70
193,161,94844,2,0,B|193:161|224:96,1,70
223,98,95352,1,0,
288,96,95859,2,0,B|288:96|320:160,2,70
224,96,96874,1,0,
192,160,97128,1,0,
256,192,97382,1,0,
256,192,98397,6,0,B|256:192|192:224,1,70
193,223,98905,2,0,B|193:223|224:288,1,70
223,286,99413,1,0,
288,288,99920,2,0,B|288:288|320:224,2,70
224,288,100935,1,0,
192,224,101189,1,0,
256,192,101443,1,0,
96,320,102204,6,0,B|96:320|384:320,1,280
384,320,103727,2,0,B|384:320|384:32,1,280
384,40,104996,2,0,B|384:40|384:96,7,35
384,64,106265,6,0,B|384:64|96:64,1,280
96,64,107788,2,0,B|96:64|96:352,1,280
96,344,109057,2,0,B|96:344|96:288,7,35
96,320,110326,6,0,B|96:320|384:320,1,280
384,320,111849,2,0,B|384:320|384:32,1,280
384,40,113118,2,0,B|384:40|384:96,7,35
384,64,114387,6,0,B|384:64|96:64,1,280
96,64,115910,2,0,B|96:64|96:352,1,280
96,352,117179,2,0,B|96:352|128:352,2,35
96,352,117686,1,0,
160,352,117940,2,0,B|160:352|256:352,1,70
192,256,118955,6,0,B|192:256|352:256,1,140
352,192,119971,2,0,B|352:192|192:192,1,140
192,128,120986,2,0,B|192:128|352:128,1,140
288,64,122001,1,0,
224,64,122255,1,0,
192,128,123016,6,0,B|192:128|352:128,1,140
352,192,124032,2,0,B|352:192|192:192,1,140
192,256,125047,2,0,B|192:256|352:256,1,140
288,320,126062,1,0,
224,320,126316,1,0,
96,352,127077,6,0,B|96:352|96:192,1,140
224,160,128092,5,2,
416,32,129108,2,0,B|416:32|416:192,1,140
256,96,130122,5,4,
256,96,130376,1,4,
96,32,131138,6,0,B|96:32|96:192,1,140
224,160,132153,5,2,
416,352,133169,2,0,B|416:352|416:192,1,140
192,288,134945,6,0,B|192:288|96:288,2,70
320,288,135960,2,0,B|320:288|416:288,4,70
256,320,137483,1,0,
256,320,137737,1,0,
256,320,137991,1,0,
256,256,138244,2,0,B|256:256|256:224,1,35
256,192,138752,6,0,B|256:192|320:128,2,70
256,192,139513,1,0,
256,192,140275,2,0,B|256:192|192:128,2,70
256,192,141036,1,0,
256,224,141544,5,0,
256,224,141798,2,0,B|256:224|96:288,1,140
160,320,142559,1,0,
256,192,146620,5,4,
256,192,150934,12,4,158802
