osu file format v4

[General]
AudioFilename: Michael Jackson - Smooth Criminal.mp3
AudioLeadIn: 0
AudioHash: b9d7638119890ec6709fdf71c94f8b5e
PreviewTime: 94209
SampleSet: Normal

[Metadata]
Title:Smooth Criminal
Artist:Michael Jackson
Creator:Loginer
Version:Insane

[Difficulty]
HPDrainRate:2
CircleSize:4
OverallDifficulty:3
SliderMultiplier: 1.4
SliderTickRate: 2

[Events]
2,85906,88717
2,89967,93286
3,0,163,162,255

[TimingPoints]
5250,507.612708740218,4,1,1

[HitObjects]
256,192,4425,5,4,
32,96,4996,5,0,
32,32,5250,1,0,
64,32,5376,1,0,
96,32,5503,1,0,
128,32,5630,1,0,
160,32,5757,1,0,
256,32,6011,1,0,
352,32,6519,5,0,
384,32,6645,1,0,
416,32,6772,1,0,
480,32,7026,1,0,
480,96,7534,1,0,
480,128,7661,1,0,
480,160,7788,1,0,
480,224,8041,1,0,
480,288,8549,1,0,
480,352,9057,5,0,
480,352,9311,1,0,
448,352,9437,1,0,
416,352,9564,1,0,
384,352,9691,1,0,
352,352,9818,1,0,
288,352,10072,1,0,
192,352,10580,5,0,
160,352,10706,1,0,
128,352,10833,1,0,
32,352,11087,1,0,
32,288,11595,1,0,
32,256,11721,1,0,
32,224,11848,1,0,
32,160,12102,1,0,
32,96,12610,1,0,
32,32,13117,5,0,
32,32,13371,1,0,
64,32,13497,1,0,
96,32,13624,1,0,
128,32,13751,1,0,
160,32,13878,1,0,
256,32,14132,1,0,
352,32,14640,5,0,
384,32,14766,1,0,
416,32,14893,1,0,
480,32,15147,1,0,
480,96,15655,1,0,
480,128,15781,1,0,
480,160,15908,1,0,
480,224,16162,1,0,
480,288,16670,1,0,
480,352,17178,5,0,
480,352,17432,1,0,
448,352,17558,1,0,
416,352,17685,1,0,
384,352,17812,1,0,
352,352,17939,1,0,
256,352,18193,1,0,
160,352,18701,5,0,
128,352,18827,1,0,
96,352,18954,1,0,
32,352,19208,1,0,
32,288,19716,1,0,
32,256,19842,1,0,
32,224,19969,1,0,
32,160,20223,1,0,
128,128,20731,1,0,
256,96,21239,5,0,
288,96,21366,1,0,
320,96,21493,1,0,
352,96,21620,1,0,
352,128,21747,1,0,
352,160,21874,1,0,
352,192,22001,1,0,
416,224,22255,1,0,
352,224,22762,1,0,
352,256,22889,1,0,
352,288,23016,1,0,
384,352,23270,1,0,
320,352,23777,1,0,
288,352,23904,1,0,
256,352,24031,1,0,
192,352,24285,1,0,
224,288,24793,1,0,
160,288,25300,5,0,
128,288,25427,1,0,
96,288,25554,1,0,
64,288,25681,1,0,
64,256,25808,1,0,
64,224,25935,1,0,
64,192,26062,1,0,
0,160,26316,1,0,
64,160,26823,1,0,
64,128,26950,1,0,
64,96,27077,1,0,
32,32,27331,1,0,
96,32,27838,1,0,
128,32,27965,1,0,
160,32,28092,1,0,
224,32,28346,1,0,
192,96,28854,1,0,
256,288,29361,5,0,
224,288,29488,1,0,
192,288,29615,1,0,
160,288,29742,1,0,
160,256,29869,1,0,
160,224,29996,1,0,
96,224,30123,2,0,L|96:224|192:224,3,70
160,192,31011,1,0,
160,160,31138,1,0,
160,128,31392,1,0,
160,96,31646,1,0,
192,96,31899,1,0,
224,96,32026,1,0,
256,96,32153,1,0,
288,96,32407,1,0,
320,96,32661,1,0,
352,96,32915,5,0,
352,128,33422,1,0,
352,160,33549,1,0,
352,192,33676,2,0,L|352:192|416:192,2,35
352,224,34057,2,0,L|352:224|352:256,1,35
352,259,34437,1,0,
320,288,34945,1,0,
288,288,35072,1,0,
256,288,35199,1,0,
192,288,35453,1,0,
160,288,35706,1,0,
160,256,35960,1,0,
160,224,36087,1,0,
192,192,36214,1,0,
224,160,36468,2,0,L|224:160|352:64,1,140
384,96,37229,5,0,
352,128,37356,1,0,
320,160,37483,1,0,
288,192,37610,1,0,
256,192,37737,1,0,
224,160,37991,1,0,
192,128,38244,1,0,
160,96,38498,2,0,L|160:96|96:96,2,35
192,128,38879,1,0,
224,160,39006,1,0,
256,192,39133,1,0,
288,192,39260,1,0,
320,160,39513,1,0,
352,128,39767,1,0,
384,96,40021,1,0,
352,96,40148,1,0,
320,96,40275,1,0,
288,96,40529,1,0,
256,96,40782,1,0,
256,96,40909,1,0,
352,256,41290,5,0,
352,256,41417,1,0,
320,224,41544,1,0,
288,192,41671,1,0,
256,192,41798,1,0,
224,224,42052,1,0,
192,256,42305,1,0,
160,288,42559,2,0,L|160:288|96:288,2,35
192,256,42940,1,0,
224,224,43067,1,0,
256,192,43194,1,0,
288,192,43321,1,0,
320,224,43574,1,0,
352,256,43828,1,0,
384,288,44082,1,0,
352,288,44209,1,0,
320,288,44336,1,0,
288,288,44590,1,0,
256,288,44843,1,0,
256,288,44970,1,0,
160,320,45351,5,0,
192,288,45478,1,0,
224,256,45605,1,0,
256,224,45732,1,0,
256,192,45859,1,0,
224,160,46113,1,0,
192,128,46366,1,0,
160,96,46620,2,0,L|160:96|160:32,2,35
192,128,47001,1,0,
224,160,47128,1,0,
256,192,47255,1,0,
256,224,47382,1,0,
224,256,47635,1,0,
192,288,47889,1,0,
160,320,48143,1,0,
160,288,48270,1,0,
160,256,48397,1,0,
160,224,48651,1,0,
160,192,48904,1,0,
160,192,49031,1,0,
320,288,49412,5,0,
320,288,49539,1,0,
288,256,49666,1,0,
256,224,49793,1,0,
256,192,49920,1,0,
288,160,50174,1,0,
320,128,50427,1,0,
352,96,50681,2,0,L|352:96|352:32,2,35
320,128,51062,1,0,
288,160,51189,1,0,
256,192,51316,1,0,
256,224,51443,1,0,
288,256,51696,1,0,
320,288,51950,1,0,
352,320,52204,1,0,
352,288,52331,1,0,
352,256,52458,1,0,
352,224,52712,1,0,
352,192,52965,1,0,
352,192,53219,1,0,
320,192,53980,5,0,
288,192,54107,1,0,
256,192,54234,1,0,
224,192,54361,1,0,
192,192,54488,1,0,
96,192,54742,1,0,
96,128,55249,1,0,
128,128,55376,1,0,
160,128,55503,1,0,
224,128,55757,1,0,
288,128,56265,1,0,
320,128,56391,1,0,
352,128,56518,1,0,
448,128,56772,1,0,
448,64,57661,5,0,
416,64,57787,1,0,
384,64,57914,1,0,
352,64,58041,1,0,
320,64,58168,1,0,
288,64,58295,1,0,
256,64,58422,1,0,
224,64,58549,1,0,
192,64,58803,1,0,
64,128,59310,1,0,
96,128,59437,1,0,
128,128,59564,1,0,
224,128,59818,1,0,
288,192,60325,1,0,
288,256,60452,1,0,
224,256,60579,1,0,
224,192,60833,1,0,
160,192,61087,2,0,L|160:192|160:288,1,70
256,256,61848,6,0,L|256:256|288:224,1,35
320,192,62102,1,0,
288,192,62229,1,0,
256,192,62356,1,0,
224,192,62483,1,0,
192,192,62610,1,0,
96,192,62864,1,0,
96,256,63371,1,0,
128,256,63498,1,0,
160,256,63625,1,0,
224,256,63879,1,0,
288,256,64387,1,0,
320,256,64513,1,0,
352,256,64640,1,0,
448,256,64894,1,0,
448,320,65783,5,0,
416,320,65909,1,0,
384,320,66036,1,0,
352,320,66163,1,0,
320,320,66290,1,0,
288,320,66417,1,0,
256,320,66544,1,0,
224,320,66671,1,0,
192,320,66925,1,0,
64,256,67432,1,0,
96,256,67559,1,0,
128,256,67686,1,0,
224,256,67940,1,0,
288,192,68447,1,0,
288,128,68574,1,0,
224,128,68701,1,0,
224,192,68955,1,0,
160,192,69209,1,0,
160,128,69463,1,0,
96,64,69716,6,0,L|96:64|64:96,1,35
71,88,69970,1,0,
64,128,70097,1,0,
64,160,70224,1,0,
64,192,70478,1,0,
64,224,70732,2,0,L|64:224|128:256,1,70
160,256,71239,2,0,L|160:256|192:224,1,35
192,192,71493,1,0,
192,160,71620,1,0,
192,128,71747,1,0,
192,96,72001,1,0,
192,64,72508,2,0,L|192:64|128:64,1,35
157,64,72762,1,0,
96,64,73016,1,0,
96,128,73270,1,0,
96,160,73397,1,0,
416,64,73777,6,0,L|416:64|448:96,1,35
441,88,74031,1,0,
448,128,74158,1,0,
448,160,74285,1,0,
448,192,74539,1,0,
448,224,74793,2,0,L|448:224|384:256,1,70
352,256,75300,2,0,L|352:256|320:224,1,35
320,192,75554,1,0,
320,160,75681,1,0,
320,128,75808,1,0,
320,96,76062,1,0,
320,64,76569,2,0,L|320:64|384:64,1,35
355,64,76823,1,0,
416,64,77077,1,0,
416,128,77331,1,0,
416,160,77458,1,0,
384,320,77838,6,0,L|384:320|352:352,1,35
360,345,78092,1,0,
320,352,78219,1,0,
288,352,78346,1,0,
256,352,78600,1,0,
224,352,78854,2,0,L|224:352|192:288,1,70
192,256,79361,2,0,L|192:256|224:224,1,35
256,224,79615,1,0,
288,224,79742,1,0,
320,224,79869,1,0,
352,224,80123,1,0,
384,224,80630,2,0,L|384:224|384:288,1,35
384,259,80884,1,0,
384,320,81138,1,0,
320,320,81392,1,0,
288,320,81519,1,0,
256,320,81899,6,0,L|256:320|224:224,1,70
160,224,82407,1,0,
288,192,82660,1,0,
128,96,82914,1,0,
256,64,83168,1,0,
288,128,83422,2,0,L|288:128|192:160,1,70
192,64,83929,1,0,
224,224,84183,1,0,
128,160,84437,1,0,
64,160,84691,1,0,
64,224,84945,2,0,L|64:224|192:320,1,140
256,320,85579,1,0,
320,320,85706,1,0,
256,192,89767,5,4,
256,96,94336,5,0,
224,96,94463,1,0,
192,96,94590,1,0,
160,96,94717,1,0,
160,128,94844,1,0,
160,160,94971,1,0,
160,192,95098,1,0,
96,224,95352,1,0,
160,224,95859,1,0,
160,256,95986,1,0,
160,288,96113,1,0,
128,352,96367,1,0,
192,352,96874,1,0,
224,352,97001,1,0,
256,352,97128,1,0,
320,352,97382,1,0,
288,288,97890,1,0,
352,288,98397,5,0,
384,288,98524,1,0,
416,288,98651,1,0,
448,288,98778,1,0,
448,256,98905,1,0,
448,224,99032,1,0,
448,192,99159,1,0,
512,160,99413,1,0,
448,160,99920,1,0,
448,128,100047,1,0,
448,96,100174,1,0,
448,32,100428,1,0,
352,32,100808,1,0,
320,32,100935,1,0,
288,32,101062,1,0,
256,32,101189,1,0,
192,32,101443,1,0,
384,288,102204,5,0,
352,256,102331,1,0,
320,224,102458,1,0,
288,192,102585,1,0,
256,192,102712,1,0,
224,224,102966,1,0,
192,256,103219,1,0,
160,288,103473,2,0,L|160:288|96:288,2,35
192,256,103854,1,0,
224,224,103981,1,0,
256,192,104108,1,0,
288,192,104235,1,0,
320,224,104488,1,0,
352,256,104742,1,0,
384,288,104996,1,0,
352,288,105123,1,0,
320,288,105250,1,0,
288,288,105504,1,0,
256,288,105757,1,0,
256,288,105884,1,0,
352,128,106265,5,0,
352,128,106392,1,0,
320,160,106519,1,0,
288,192,106646,1,0,
256,192,106773,1,0,
224,160,107027,1,0,
192,128,107280,1,0,
160,96,107534,2,0,L|160:96|96:96,2,35
192,128,107915,1,0,
224,160,108042,1,0,
256,192,108169,1,0,
288,192,108296,1,0,
320,160,108549,1,0,
352,128,108803,1,0,
384,96,109057,1,0,
352,96,109184,1,0,
320,96,109311,1,0,
288,96,109565,1,0,
256,96,109818,1,0,
256,96,109945,1,0,
160,64,110326,5,0,
192,96,110453,1,0,
224,128,110580,1,0,
256,160,110707,1,0,
256,192,110834,1,0,
224,224,111088,1,0,
192,256,111341,1,0,
160,288,111595,2,0,L|160:288|160:352,2,35
192,256,111976,1,0,
224,224,112103,1,0,
256,192,112230,1,0,
256,160,112357,1,0,
224,128,112610,1,0,
192,96,112864,1,0,
160,64,113118,1,0,
160,96,113245,1,0,
160,128,113372,1,0,
160,160,113626,1,0,
160,192,113879,1,0,
160,192,114006,1,0,
320,96,114387,5,0,
320,96,114514,1,0,
288,128,114641,1,0,
256,160,114768,1,0,
256,192,114895,1,0,
288,224,115149,1,0,
320,256,115402,1,0,
352,288,115656,2,0,L|352:288|352:352,2,35
320,256,116037,1,0,
288,224,116164,1,0,
256,192,116291,1,0,
256,160,116418,1,0,
288,128,116671,1,0,
320,96,116925,1,0,
352,64,117179,1,0,
352,96,117306,1,0,
352,128,117433,1,0,
352,160,117687,1,0,
352,192,117940,1,0,
352,192,118194,1,0,
320,192,118955,5,0,
288,192,119082,1,0,
256,192,119209,1,0,
224,192,119336,1,0,
192,192,119463,1,0,
96,192,119717,1,0,
96,256,120224,1,0,
128,256,120351,1,0,
160,256,120478,1,0,
224,256,120732,1,0,
288,256,121240,1,0,
320,256,121366,1,0,
352,256,121493,1,0,
448,256,121747,1,0,
448,320,122636,5,0,
416,320,122762,1,0,
384,320,122889,1,0,
352,320,123016,1,0,
320,320,123143,1,0,
288,320,123270,1,0,
256,320,123397,1,0,
224,320,123524,1,0,
192,320,123778,1,0,
64,256,124285,1,0,
96,256,124412,1,0,
128,256,124539,1,0,
224,256,124793,1,0,
288,192,125300,1,0,
288,128,125427,1,0,
224,128,125554,1,0,
224,192,125808,1,0,
160,192,126062,2,0,L|160:192|160:96,1,70
256,128,126823,6,0,L|256:128|288:160,1,35
320,192,127077,1,0,
288,192,127204,1,0,
256,192,127331,1,0,
224,192,127458,1,0,
192,192,127585,1,0,
96,192,127839,1,0,
96,128,128346,1,0,
128,128,128473,1,0,
160,128,128600,1,0,
224,128,128854,1,0,
288,128,129362,1,0,
320,128,129488,1,0,
352,128,129615,1,0,
448,128,129869,1,0,
448,64,130758,5,0,
416,64,130884,1,0,
384,64,131011,1,0,
352,64,131138,1,0,
320,64,131265,1,0,
288,64,131392,1,0,
256,64,131519,1,0,
224,64,131646,1,0,
192,64,131900,1,0,
64,128,132407,1,0,
96,128,132534,1,0,
128,128,132661,1,0,
224,128,132915,1,0,
288,192,133422,1,0,
288,256,133549,1,0,
224,256,133676,1,0,
224,192,133930,1,0,
160,192,134184,1,0,
160,256,134438,1,0,
96,320,134691,6,0,L|96:320|64:288,1,35
71,296,134945,1,0,
64,256,135072,1,0,
64,224,135199,1,0,
64,192,135453,1,0,
64,160,135707,2,0,L|64:160|128:128,1,70
160,128,136214,2,0,L|160:128|192:160,1,35
192,192,136468,1,0,
192,224,136595,1,0,
192,256,136722,1,0,
192,288,136976,1,0,
192,320,137483,2,0,L|192:320|128:320,1,35
157,320,137737,1,0,
96,320,137991,1,0,
96,256,138245,1,0,
96,224,138372,1,0,
128,192,138752,6,0,L|128:192|224:224,1,70
224,288,139260,1,0,
256,160,139513,1,0,
352,320,139767,1,0,
384,192,140021,1,0,
320,160,140275,2,0,L|320:160|288:256,1,70
384,256,140782,1,0,
224,224,141036,1,0,
288,320,141290,1,0,
288,384,141544,1,0,
224,384,141798,2,0,L|224:384|128:256,1,140
128,192,142432,1,0,
128,128,142559,1,0,
256,192,146620,5,4,
256,192,150934,12,4,158802
256,192,152965,12,4,158802
256,192,154995,12,4,158802
