osu file format v12

[General]
AudioFilename: Michael Jackson - Black And White.mp3
AudioLeadIn: 0
PreviewTime: 92640
Countdown: 1
SampleSet: Normal
StackLeniency: 0.7
Mode: 0
LetterboxInBreaks: 1
SkinPreference:ouendan2
CountdownOffset: 1

[Editor]
DistanceSpacing: 0.8
BeatDivisor: 4
GridSize: 32

[Metadata]
Title:Black Or White
TitleUnicode:Black Or White
Artist:Michael Jackson
ArtistUnicode:Michael Jackson
Creator:YOURS
Version:Normal
Source:
Tags:
BeatmapID:276441
BeatmapSetID:105285

[Difficulty]
HPDrainRate:3
CircleSize:3
OverallDifficulty:3
ApproachRate:2
SliderMultiplier:1.4
SliderTickRate:1

[Events]
//Background and Video events
0,0,"black or white.png",0,0
//Break Periods
2,97203,104254
2,126377,141434
2,162146,176818
2,207659,230921
//Storyboard Layer 0 (Background)
//Storyboard Layer 1 (Fail)
//Storyboard Layer 2 (Pass)
//Storyboard Layer 3 (Foreground)
//Storyboard Sound Samples
//Background Colour Transformations
3,100,163,162,255

[TimingPoints]
59895.5960396961,512.820512820513,4,1,0,50,1,0

[HitObjects]
79,156,76818,1,8,0:0:0:0:
51,205,77075,1,8,0:0:0:0:
106,205,77331,1,2,0:0:0:0:
162,205,77588,1,8,0:0:0:0:
217,205,77844,1,4,0:0:0:0:
328,197,78357,2,10,P|263:62|223:54,1,175
197,62,79254,1,4,0:0:0:0:
471,342,81049,5,8,0:0:0:0:
435,299,81305,1,8,0:0:0:0:
397,340,81562,1,2,0:0:0:0:
341,336,81818,1,8,0:0:0:0:
284,334,82075,1,4,0:0:0:0:
172,326,82587,2,10,P|232:227|270:210,1,140
306,214,83357,1,4,0:0:0:0:
44,50,84767,5,8,0:0:0:0:
128,53,85152,1,8,0:0:0:0:
211,58,85536,2,2,P|300:98|304:125,1,105
343,285,86818,5,8,0:0:0:0:
231,281,87331,1,2,0:0:0:0:
273,177,87844,1,8,0:0:0:0:
217,181,88100,1,8,0:0:0:0:
160,181,88357,1,8,0:0:0:0:
104,177,88613,1,4,0:0:0:0:
92,195,92972,6,2,P|158:85|180:84,3,140
264,82,95023,2,4,P|372:127|394:158,1,140
257,202,96177,5,8,0:0:0:0:
257,203,96434,1,2,0:0:0:0:
257,314,96946,1,4,0:0:0:0:
108,139,106177,5,8,0:0:0:0:
84,189,106434,1,8,0:0:0:0:
139,192,106690,1,2,0:0:0:0:
194,190,106946,1,8,0:0:0:0:
250,190,107203,1,4,0:0:0:0:
361,180,107716,2,8,P|302:63|229:59,2,210,8|14|12,0:0|0:0|0:0,0:0:0:0:
280,327,110023,5,2,0:0:0:0:
223,330,110280,1,8,0:0:0:0:
182,291,110536,1,8,0:0:0:0:
146,240,110793,1,2,0:0:0:0:
201,238,111049,1,8,0:0:0:0:
256,236,111305,1,4,0:0:0:0:
367,231,111818,2,8,P|292:103|249:113,2,210,8|14|12,0:0|0:0|0:0,0:0:0:0:
271,334,113998,5,8,0:0:0:0:
187,327,114382,1,8,0:0:0:0:
103,314,114767,2,2,P|34:281|35:271,1,105
90,82,116049,5,8,0:0:0:0:
202,84,116562,1,2,0:0:0:0:
199,195,117075,1,8,0:0:0:0:
254,198,117331,1,8,0:0:0:0:
309,196,117587,1,8,0:0:0:0:
365,198,117844,1,4,0:0:0:0:
429,149,122331,6,2,P|342:74|291:68,3,140
208,61,124382,2,4,P|68:105|60:115,1,140
175,150,125408,5,8,0:0:0:0:
175,148,125664,1,2,0:0:0:0:
286,151,126177,1,4,0:0:0:0:
320,64,143100,6,4,L|448:64,2,105
276,98,144126,1,8,0:0:0:0:
276,98,144382,1,2,0:0:0:0:
193,244,145152,6,4,L|65:244,2,105
228,287,146177,2,2,P|326:283|320:153,1,245
276,138,147331,6,4,L|148:138,2,105
295,190,148357,1,8,0:0:0:0:
297,193,148613,1,2,0:0:0:0:
398,146,149126,6,10,P|156:93|131:108,1,280
111,143,150408,1,4,0:0:0:0:
240,326,151434,6,4,L|112:326,2,105
255,272,152459,6,2,L|383:272,2,105
222,225,153485,6,4,L|94:225,2,105
247,174,154510,6,2,L|375:174,2,105
256,192,155793,12,14,161946,0:0:0:0:
64,64,178613,5,8,0:0:0:0:
148,66,178998,1,8,0:0:0:0:
231,66,179382,2,2,P|295:98|295:130,1,105
372,304,180664,5,8,0:0:0:0:
372,191,181177,1,2,0:0:0:0:
278,252,181690,1,8,0:0:0:0:
222,254,181946,1,8,0:0:0:0:
165,256,182203,1,8,0:0:0:0:
109,257,182459,1,4,0:0:0:0:
83,136,186946,6,2,P|170:47|192:47,3,140
287,53,188998,2,4,P|376:103|401:146,1,140
285,153,190023,5,8,0:0:0:0:
228,152,190280,1,2,0:0:0:0:
253,261,190793,1,4,0:0:0:0:
432,150,195280,6,2,P|329:67|316:65,3,140
205,65,197331,2,4,P|98:110|88:127,1,140
224,159,198485,5,8,0:0:0:0:
279,160,198741,1,2,0:0:0:0:
254,269,199254,1,4,0:0:0:0:
73,118,203613,6,2,P|150:62|198:55,3,140
303,67,205664,2,4,P|415:116|426:135,1,140
312,154,206690,5,8,0:0:0:0:
256,157,206946,1,2,0:0:0:0:
143,156,207459,1,4,0:0:0:0:
253,66,232588,5,8,0:0:0:0:
253,66,232844,1,6,0:0:0:0:
370,186,233613,1,8,0:0:0:0:
370,186,233870,1,6,0:0:0:0:
249,302,234639,1,8,0:0:0:0:
249,302,234895,1,6,0:0:0:0:
135,177,235664,1,8,0:0:0:0:
135,177,235921,1,6,0:0:0:0:
306,83,236818,5,8,0:0:0:0:
308,139,237075,1,6,0:0:0:0:
140,68,237844,1,8,0:0:0:0:
141,127,238100,1,6,0:0:0:0:
222,199,238613,5,4,0:0:0:0:
130,263,239126,2,8,P|327:258|329:250,1,245
117,178,241049,5,8,0:0:0:0:
117,178,241305,1,2,0:0:0:0:
176,82,241818,1,4,0:0:0:0:
231,82,242074,5,8,0:0:0:0:
286,82,242330,1,2,0:0:0:0:
326,186,242844,1,4,0:0:0:0:
332,240,243100,5,8,0:0:0:0:
294,281,243357,2,2,L|181:282,2,105
263,233,244382,5,8,0:0:0:0:
263,234,244639,1,2,0:0:0:0:
263,121,245152,1,4,0:0:0:0:
256,192,245536,12,14,248357,0:0:0:0:
