osu file format v12

[General]
AudioFilename: Michael Jackson - Black And White.mp3
AudioLeadIn: 0
PreviewTime: 92640
Countdown: 1
SampleSet: Normal
StackLeniency: 0.7
Mode: 0
LetterboxInBreaks: 1
SkinPreference:ouendan2

[Editor]
DistanceSpacing: 0.8
BeatDivisor: 4
GridSize: 32

[Metadata]
Title:Black Or White
TitleUnicode:Black Or White
Artist:Michael Jackson
ArtistUnicode:Michael Jackson
Creator:YOURS
Version:Insane
Source:
Tags:
BeatmapID:276440
BeatmapSetID:105285

[Difficulty]
HPDrainRate:5
CircleSize:4
OverallDifficulty:5
ApproachRate:4
SliderMultiplier:1.4
SliderTickRate:1

[Events]
//Background and Video events
0,0,"black or white.png",0,0
//Break Periods
2,97203,104254
2,126376,141434
2,162146,176818
2,207658,230921
//Storyboard Layer 0 (Background)
//Storyboard Layer 1 (Fail)
//Storyboard Layer 2 (Pass)
//Storyboard Layer 3 (Foreground)
//Storyboard Sound Samples
//Background Colour Transformations
3,100,163,162,255

[TimingPoints]
59895.5960396961,512.820512820513,4,1,0,50,1,0

[HitObjects]
447,283,76562,1,2,0:0:0:0:
447,227,76818,1,8,0:0:0:0:
431,172,77075,1,8,0:0:0:0:
388,135,77331,1,4,0:0:0:0:
332,127,77587,1,8,0:0:0:0:
275,126,77844,1,8,0:0:0:0:
219,129,78100,1,8,0:0:0:0:
167,151,78357,1,8,0:0:0:0:
131,194,78613,1,8,0:0:0:0:
152,245,78869,1,2,0:0:0:0:
205,262,79126,2,2,P|301:198|301:166,1,140
379,65,80793,5,2,0:0:0:0:
415,107,81049,1,8,0:0:0:0:
422,162,81305,1,8,0:0:0:0:
412,217,81562,1,4,0:0:0:0:
381,264,81818,1,8,0:0:0:0:
336,297,82075,1,8,0:0:0:0:
280,304,82331,1,8,0:0:0:0:
224,300,82587,1,8,0:0:0:0:
174,273,82844,1,8,0:0:0:0:
139,229,83100,1,8,0:0:0:0:
134,173,83357,2,2,P|198:141|265:191,1,140,2|0,0:0|0:0,0:0:0:0:
364,150,84382,5,8,0:0:0:0:
364,150,84639,1,4,0:0:0:0:
363,205,84895,1,8,0:0:0:0:
363,205,85023,1,8,0:0:0:0:
358,260,85280,1,8,0:0:0:0:
358,260,85408,2,2,L|230:260,2,105
301,197,86562,5,2,0:0:0:0:
301,197,86690,1,2,0:0:0:0:
301,197,86818,1,4,0:0:0:0:
253,167,87074,1,8,0:0:0:0:
202,191,87331,1,8,0:0:0:0:
153,162,87587,1,8,0:0:0:0:
109,126,87844,1,2,0:0:0:0:
112,70,88100,1,8,0:0:0:0:
160,41,88356,1,8,0:0:0:0:
211,63,88613,1,4,0:0:0:0:
340,170,89382,6,2,P|180:138|148:170,1,210
241,232,90664,1,8,0:0:0:0:
285,265,90921,2,2,P|159:305|123:244,2,210
311,185,92844,5,8,0:0:0:0:
289,133,93100,1,2,0:0:0:0:
243,101,93356,1,8,0:0:0:0:
187,107,93613,1,8,0:0:0:0:
135,128,93869,1,8,0:0:0:0:
92,164,94126,1,2,0:0:0:0:
78,218,94382,1,8,0:0:0:0:
112,262,94639,5,4,0:0:0:0:
168,261,94896,1,8,0:0:0:0:
223,259,95152,1,2,0:0:0:0:
279,261,95409,1,8,0:0:0:0:
334,263,95664,1,2,0:0:0:0:
364,215,95921,1,8,0:0:0:0:
386,163,96177,5,2,0:0:0:0:
404,109,96434,2,8,P|301:98|295:129,1,140,8|12,0:0|0:0,0:0:0:0:
154,322,105793,5,2,0:0:0:0:
107,290,106049,1,8,0:0:0:0:
76,243,106305,1,8,0:0:0:0:
67,187,106562,1,4,0:0:0:0:
92,137,106818,1,8,0:0:0:0:
141,110,107075,1,2,0:0:0:0:
196,109,107331,1,8,0:0:0:0:
251,110,107587,1,8,0:0:0:0:
305,123,107844,1,8,0:0:0:0:
350,155,108100,1,8,0:0:0:0:
382,200,108357,2,2,P|286:264|222:262,1,175
174,267,109254,1,8,0:0:0:0:
175,267,109510,1,2,0:0:0:0:
172,266,109767,1,4,0:0:0:0:
118,249,110023,5,2,0:0:0:0:
81,206,110280,1,8,0:0:0:0:
67,151,110536,1,8,0:0:0:0:
82,96,110793,1,4,0:0:0:0:
128,64,111049,1,8,0:0:0:0:
183,54,111305,1,2,0:0:0:0:
237,65,111562,1,8,0:0:0:0:
291,79,111818,1,8,0:0:0:0:
341,102,112075,1,8,0:0:0:0:
379,142,112331,1,8,0:0:0:0:
381,197,112587,2,2,B|317:293|253:229|253:229,1,140
182,314,113613,5,8,0:0:0:0:
181,316,113741,1,2,0:0:0:0:
178,314,113869,1,4,0:0:0:0:
142,270,114126,1,8,0:0:0:0:
143,269,114254,1,8,0:0:0:0:
119,218,114510,1,8,0:0:0:0:
117,215,114639,2,2,L|245:215,2,105
176,172,115743,5,2,0:0:0:0:
176,172,115879,1,2,0:0:0:0:
176,172,116000,1,4,0:0:0:0:
231,170,116256,1,8,0:0:0:0:
267,212,116513,1,8,0:0:0:0:
317,236,116769,1,8,0:0:0:0:
372,226,117025,1,2,0:0:0:0:
411,185,117282,1,8,0:0:0:0:
394,131,117538,2,8,L|298:131,1,70,8|12,0:0|0:0,0:0:0:0:
299,308,118613,6,2,P|197:185|201:140,1,210
320,112,119895,1,8,0:0:0:0:
376,113,120152,2,2,P|440:177|376:273,2,210
355,194,122075,5,8,0:0:0:0:
355,194,122331,1,2,0:0:0:0:
355,194,122587,1,8,0:0:0:0:
309,227,122844,1,8,0:0:0:0:
261,256,123100,1,8,0:0:0:0:
212,228,123357,1,8,0:0:0:0:
161,204,123613,1,8,0:0:0:0:
111,230,123869,5,4,0:0:0:0:
68,266,124126,1,2,0:0:0:0:
99,312,124382,1,8,0:0:0:0:
142,346,124639,1,8,0:0:0:0:
192,322,124895,1,8,0:0:0:0:
242,296,125152,1,8,0:0:0:0:
252,241,125408,5,2,0:0:0:0:
202,215,125664,2,8,P|311:214|314:246,1,140,8|12,0:0|0:0,0:0:0:0:
299,319,143100,5,2,0:0:0:0:
299,319,143228,1,2,0:0:0:0:
353,304,143485,2,8,P|400:261|400:229,1,70
404,202,143998,1,8,0:0:0:0:
351,181,144254,1,8,0:0:0:0:
300,205,144510,1,4,0:0:0:0:
249,179,144767,1,8,0:0:0:0:
202,209,145023,1,4,0:0:0:0:
159,172,145280,5,2,0:0:0:0:
159,172,145408,1,2,0:0:0:0:
104,157,145664,2,8,P|164:111|186:83,1,105
238,86,146305,1,4,0:0:0:0:
279,123,146562,1,8,0:0:0:0:
326,92,146818,1,2,0:0:0:0:
375,118,147075,1,4,0:0:0:0:
256,192,147331,12,14,150408,0:0:0:0:
380,315,151562,6,2,P|444:251|444:219,2,105
329,291,152587,1,8,0:0:0:0:
290,250,152844,1,12,0:0:0:0:
258,203,153100,1,8,0:0:0:0:
219,162,153357,1,4,0:0:0:0:
178,123,153613,6,2,P|114:219|114:251,1,140
109,295,154382,1,8,0:0:0:0:
164,305,154639,1,4,0:0:0:0:
219,309,154895,1,8,0:0:0:0:
275,308,155152,1,8,0:0:0:0:
327,290,155408,1,2,0:0:0:0:
355,241,155664,6,2,P|291:177|259:209,1,140
211,188,156434,1,8,0:0:0:0:
211,188,156690,1,8,0:0:0:0:
211,188,156946,1,4,0:0:0:0:
113,242,157459,6,2,P|209:306|241:306,1,140
285,303,158228,1,8,0:0:0:0:
340,292,158485,1,8,0:0:0:0:
379,252,158741,2,2,P|437:152|451:109,1,140
332,122,159767,2,4,P|338:303|211:103,1,595
448,320,178613,5,2,0:0:0:0:
392,321,178869,1,8,0:0:0:0:
392,321,178998,1,4,0:0:0:0:
336,321,179254,1,8,0:0:0:0:
336,321,179382,1,4,0:0:0:0:
279,319,179639,1,2,0:0:0:0:
279,319,179767,1,4,0:0:0:0:
141,294,180408,5,8,0:0:0:0:
141,294,180536,1,2,0:0:0:0:
141,292,180664,1,6,0:0:0:0:
118,240,180921,1,8,0:0:0:0:
117,184,181177,1,8,0:0:0:0:
130,129,181434,1,8,0:0:0:0:
161,82,181690,1,2,0:0:0:0:
214,64,181946,1,8,0:0:0:0:
268,75,182203,1,8,0:0:0:0:
318,100,182459,1,4,0:0:0:0:
337,253,183228,6,2,P|177:221|145:253,1,210
181,130,184510,1,8,0:0:0:0:
124,126,184767,2,2,P|250:86|286:147,2,210
123,210,186690,5,8,0:0:0:0:
165,246,186946,1,4,0:0:0:0:
212,276,187203,1,8,0:0:0:0:
264,294,187459,1,8,0:0:0:0:
318,282,187716,1,2,0:0:0:0:
366,254,187972,1,2,0:0:0:0:
418,234,188228,1,2,0:0:0:0:
434,180,188485,5,2,0:0:0:0:
399,135,188741,1,8,0:0:0:0:
347,158,188998,1,8,0:0:0:0:
293,143,189254,1,8,0:0:0:0:
238,155,189510,1,8,0:0:0:0:
183,142,189767,1,2,0:0:0:0:
127,149,190023,5,2,0:0:0:0:
102,199,190280,2,8,P|210:205|219:175,1,140,8|12,0:0|0:0,0:0:0:0:
357,285,191562,6,2,P|389:125|357:93,1,210
265,143,192844,1,8,0:0:0:0:
218,112,193100,2,2,P|178:238|239:274,2,210
139,80,195023,5,8,0:0:0:0:
98,118,195280,1,2,0:0:0:0:
96,173,195536,1,8,0:0:0:0:
118,224,195793,1,8,0:0:0:0:
162,257,196049,1,2,0:0:0:0:
209,286,196305,1,8,0:0:0:0:
262,302,196562,1,8,0:0:0:0:
317,301,196818,5,4,0:0:0:0:
370,282,197075,1,8,0:0:0:0:
406,239,197331,1,8,0:0:0:0:
420,185,197587,1,2,0:0:0:0:
403,131,197844,1,8,0:0:0:0:
353,105,198100,1,8,0:0:0:0:
296,105,198357,5,2,0:0:0:0:
240,107,198613,2,8,L|80:107,1,140,8|12,0:0|0:0,0:0:0:0:
152,266,199895,6,2,P|312:298|344:266,1,210
279,181,201177,1,8,0:0:0:0:
329,155,201434,2,2,P|203:115|167:176,2,210
373,226,203357,5,8,0:0:0:0:
345,274,203613,1,2,0:0:0:0:
296,302,203869,1,8,0:0:0:0:
242,318,204126,1,10,0:0:0:0:
186,316,204382,1,8,0:0:0:0:
131,301,204639,1,8,0:0:0:0:
94,258,204895,1,0,0:0:0:0:
73,205,205152,5,4,0:0:0:0:
84,150,205408,1,8,0:0:0:0:
139,153,205664,2,2,L|299:153,1,140
267,264,206690,5,2,0:0:0:0:
217,289,206946,2,8,P|330:283|337:252,1,140,8|12,0:0|0:0,0:0:0:0:
256,64,232587,5,8,0:0:0:0:
256,64,232844,1,2,0:0:0:0:
350,123,233357,1,4,0:0:0:0:
387,164,233613,1,8,0:0:0:0:
401,217,233869,1,2,0:0:0:0:
305,275,234382,1,4,0:0:0:0:
249,267,234639,1,8,0:0:0:0:
194,254,234895,2,2,L|84:209,2,105
249,262,235921,1,8,0:0:0:0:
249,262,236177,1,4,0:0:0:0:
346,161,236818,5,8,0:0:0:0:
346,161,237074,1,2,0:0:0:0:
234,166,237587,1,4,0:0:0:0:
234,166,237844,1,8,0:0:0:0:
234,166,238100,1,2,0:0:0:0:
121,163,238613,1,4,0:0:0:0:
121,275,239126,2,2,P|189:303|212:356,2,105,2|2|2,0:0|0:0|0:0,0:0:0:0:
115,135,240536,1,8,0:0:0:0:
157,98,240793,1,8,0:0:0:0:
198,135,241049,1,8,0:0:0:0:
240,98,241305,5,8,0:0:0:0:
296,99,241562,1,8,0:0:0:0:
334,139,241818,1,4,0:0:0:0:
363,186,242075,1,2,0:0:0:0:
389,235,242331,1,8,0:0:0:0:
359,282,242587,1,8,0:0:0:0:
325,327,242844,1,4,0:0:0:0:
269,333,243100,1,2,0:0:0:0:
212,331,243357,1,8,0:0:0:0:
156,331,243613,1,8,0:0:0:0:
126,283,243869,1,4,0:0:0:0:
100,233,244126,1,2,0:0:0:0:
129,185,244382,1,8,0:0:0:0:
170,147,244639,1,8,0:0:0:0:
210,108,244895,1,4,0:0:0:0:
250,69,245152,1,2,0:0:0:0:
256,192,245536,12,14,248357,0:0:0:0:
