osu file format v12

[General]
AudioFilename: Michael Jackson - Black And White.mp3
AudioLeadIn: 0
PreviewTime: 92640
Countdown: 1
SampleSet: Normal
StackLeniency: 0.7
Mode: 0
LetterboxInBreaks: 1
SkinPreference:ouendan2
CountdownOffset: 1

[Editor]
DistanceSpacing: 0.8
BeatDivisor: 4
GridSize: 32

[Metadata]
Title:Black Or White
TitleUnicode:Black Or White
Artist:Michael Jackson
ArtistUnicode:Michael Jackson
Creator:YOURS
Version:Easy
Source:
Tags:
BeatmapID:276438
BeatmapSetID:105285

[Difficulty]
HPDrainRate:2
CircleSize:3
OverallDifficulty:2
ApproachRate:1
SliderMultiplier:1.4
SliderTickRate:1

[Events]
//Background and Video events
0,0,"black or white.png",0,0
//Break Periods
2,97203,104254
2,126433,141434
2,162183,176818
2,207717,230975
//Storyboard Layer 0 (Background)
//Storyboard Layer 1 (Fail)
//Storyboard Layer 2 (Pass)
//Storyboard Layer 3 (Foreground)
//Storyboard Sound Samples
//Background Colour Transformations
3,100,163,162,255

[TimingPoints]
59680,521.739130434783,4,1,0,50,1,0

[HitObjects]
375,232,76825,1,8,0:0:0:0:
278,231,77338,1,8,0:0:0:0:
177,229,77851,1,8,0:0:0:0:
72,227,78364,2,2,P|136:67|200:67,1,245,2|2,0:0|0:0,0:0:0:0:
462,324,81057,5,8,0:0:0:0:
351,326,81570,1,8,0:0:0:0:
240,324,82083,1,8,0:0:0:0:
130,315,82596,2,2,P|226:155|258:155,1,245
39,41,84648,6,8,L|487:41,1,420
453,173,86829,2,8,L|4:173,1,420,8|12,0:0|0:0,0:0:0:0:
145,72,92985,6,2,L|380:72,2,210
62,136,95037,2,8,P|392:201|442:116,1,490,8|12,0:0|0:0,0:0:0:0:
62,224,106067,5,8,0:0:0:0:
62,224,106323,1,8,0:0:0:0:
62,224,106580,1,2,0:0:0:0:
172,227,107093,1,8,0:0:0:0:
282,231,107606,2,2,P|218:71|186:71,2,210
89,84,110299,5,8,0:0:0:0:
89,84,110556,1,8,0:0:0:0:
89,84,110812,1,2,0:0:0:0:
199,82,111325,1,8,0:0:0:0:
309,86,111838,2,2,P|245:246|213:246,2,210
459,154,113891,6,8,L|31:154,1,420
39,286,116071,2,8,L|467:286,1,420,8|12,0:0|0:0,0:0:0:0:
156,64,122355,6,2,L|368:64,2,210
101,152,124407,2,8,P|423:133|421:109,1,490,8|12,0:0|0:0,0:0:0:0:
445,207,143261,6,10,P|370:53|339:50,1,210,14|10,0:0|0:0,0:0:0:0:
324,92,144287,1,8,0:0:0:0:
324,92,144543,1,2,0:0:0:0:
163,56,145185,6,10,P|36:150|36:189,1,210,14|10,0:0|0:0,0:0:0:0:
86,198,146211,1,8,0:0:0:0:
86,198,146467,1,2,0:0:0:0:
357,281,147365,6,10,P|177:281|172:274,1,210,14|10,0:0|0:0,0:0:0:0:
182,227,148391,1,8,0:0:0:0:
182,227,148648,1,2,0:0:0:0:
418,86,149161,2,2,B|297:-26|196:167|80:45,1,350,10|6,0:0|0:0,0:0:0:0:
70,270,151469,6,4,P|418:193|467:294,2,525
256,192,155830,12,14,161983,0:0:0:0:
358,60,178659,6,2,L|146:61,2,210
456,93,180711,2,8,B|269:368|46:82,1,490,8|12,0:0|0:0,0:0:0:0:
177,64,186996,6,10,P|308:73|317:87,3,140,4|0|0|0,0:0|0:0|0:0|0:0,0:0:0:0:
311,171,189048,2,2,P|148:204|183:163,1,490,2|6,0:0|0:0,0:0:0:0:
322,70,195333,6,2,L|156:71,2,140,6|2|2,0:0|0:0|0:0,0:0:0:0:
263,158,196872,1,4,0:0:0:0:
323,249,197385,2,2,L|174:248,2,140,6|2|2,0:0|0:0|0:0,0:0:0:0:
255,72,199245,1,4,0:0:0:0:
456,89,203669,5,8,0:0:0:0:
345,87,204182,1,8,0:0:0:0:
234,89,204695,1,8,0:0:0:0:
123,90,205208,1,4,0:0:0:0:
91,195,205721,2,2,L|401:195,1,280
450,335,207517,1,4,0:0:0:0:
98,66,232655,5,10,0:0:0:0:
98,66,232911,1,4,0:0:0:0:
177,210,233681,1,10,0:0:0:0:
177,210,233937,1,4,0:0:0:0:
342,208,234707,1,10,0:0:0:0:
342,208,234963,1,4,0:0:0:0:
430,68,235733,1,10,0:0:0:0:
430,68,235989,1,4,0:0:0:0:
378,294,237071,6,6,L|95:294,3,280
149,133,240984,5,8,0:0:0:0:
151,77,241245,2,2,L|388:77,1,210
359,133,242288,2,2,L|119:134,1,210
145,190,243332,5,8,0:0:0:0:
368,198,244375,1,6,0:0:0:0:
256,192,245027,12,14,248361,0:0:0:0:
