osu file format v5

[General]
AudioFilename: Michael Jackson - 08 - Black Or White.mp3
AudioLeadIn: 0
PreviewTime: -1
Countdown: 1
SampleSet: Normal
StackLeniency: 0.7
Mode: 0
LetterboxInBreaks: 1
EditorBookmarks: -34,3876,22129,49248,88361

[Metadata]
Title:Black Or White
Artist:Michael Jackson
Creator:LeMoonwalker
Version:White
Source:
Tags:

[Difficulty]
HPDrainRate:4
CircleSize:4
OverallDifficulty:4
SliderMultiplier:1.4
SliderTickRate:1

[Events]
//Background and Video events
1,0,"Black or White.avi"
//Break Periods
2,42414,49761
2,78926,89145
//Storyboard Layer 0 (Background)
//Storyboard Layer 1 (Failing)
//Storyboard Layer 2 (Passing)
//Storyboard Layer 3 (Foreground)
//Storyboard Sound Samples
//Background Colour Transformations
3,100,163,162,255

[TimingPoints]
4920,521.603060071286,4,1,1,100
88640,521.603060071286,4,1,1,100

[Colours]
Combo1 : 253,239,198
Combo2 : 49,43,36

[HitObjects]
128,32,5180,2,0,B|224:32,2,70
128,96,5963,1,0
128,160,6224,1,0
320,64,7006,5,0
320,128,7267,1,0
320,192,7528,1,0
320,256,7788,1,0
128,160,8571,5,2
384,64,9614,6,0,B|480:64,3,70
256,64,11179,6,0,B|160:64,3,70
384,64,12744,6,0,B|384:224,1,140
256,160,13787,5,0
256,224,14048,1,4
256,288,14308,1,0
320,288,14569,1,4
480,128,15352,5,0
416,128,15612,1,4
352,128,15873,1,2
288,128,16134,1,4
64,128,16916,5,2
352,64,17960,5,4
352,128,18220,1,2
352,192,18481,1,2
352,256,18742,1,0
448,64,19524,5,0
384,64,19785,1,4
320,64,20046,1,0
256,64,20307,1,4
320,160,21872,5,0
320,224,22132,1,0
320,288,22393,1,0
256,256,22654,1,0
192,224,22915,1,0
160,288,23176,1,0
96,256,23436,1,0
128,192,23697,2,0,B|32:192,3,70
256,32,26044,5,0
256,96,26305,1,0
256,160,26566,1,0
320,160,26827,1,0
384,160,27088,1,0
448,160,27348,1,0
448,224,27609,2,0,B|359:224,1,70
320,224,28131,1,0
256,224,28392,2,0,B|160:224,1,70
64,128,29696,5,0
128,128,29956,1,0
192,128,30217,1,0
256,128,30478,1,0
320,128,30739,1,0
384,128,31000,1,0
160,224,31782,5,0
224,224,31912,1,0
224,224,32043,1,0
288,224,32304,1,0
352,224,32564,1,0
416,224,32825,1,0
416,160,33086,2,0,B|320:160,3,70
256,192,35433,5,2
384,64,36998,5,0
384,192,37520,1,0
256,128,38041,5,0
224,192,38302,2,0,B|320:192,2,70
224,256,39085,1,0
288,256,39345,2,2,B|384:256,1,70
416,256,39867,1,0
480,256,40128,1,0
480,320,40389,2,0,B|384:320,1,70
352,320,40910,1,0
288,320,41171,1,0
224,320,41432,6,4,B|128:320,1,70
160,192,42214,5,2
224,224,51081,5,0
256,160,51342,1,0
224,96,51603,1,0
256,32,51864,1,0
320,64,52125,1,0
320,128,52385,1,0
352,192,52646,1,0
384,256,52907,2,2,B|480:256,3,70
352,192,55254,5,0
288,192,55515,1,0
224,192,55776,1,0
160,192,56037,1,0
96,192,56297,1,0
32,192,56558,1,0
32,256,56819,2,0,B|128:256,2,70
32,320,57601,1,4
96,320,57862,1,0
256,64,58905,5,0
256,64,59166,1,0
256,128,59427,1,0
256,192,59688,1,0
256,256,59949,1,0
256,320,60209,1,0
384,128,60992,5,4
320,128,61253,1,4
256,128,61513,2,4,B|160:128,1,70
128,128,62035,1,0
64,128,62296,1,2
64,192,62557,1,2
128,192,62817,1,4
192,192,63078,1,6
160,128,64643,5,2
448,64,66208,5,0
320,64,66729,1,0
416,160,67251,5,0
352,192,67512,1,0
288,160,67773,1,0
224,192,68033,1,0
160,160,68294,1,0
96,192,68555,1,2
96,256,68816,1,2
160,224,69077,1,0
224,256,69337,1,0
288,224,69598,1,0
352,256,69859,1,0
416,224,70120,5,0
480,256,70381,1,0
480,320,70641,5,2
416,288,70902,1,4
288,288,71424,5,2
416,128,72206,5,0
352,128,72467,1,2
288,128,72728,1,2
224,128,72989,1,4
416,224,73771,5,0
352,224,74032,1,0
288,224,74293,1,0
224,224,74554,1,0
96,64,75336,5,0
160,64,75597,1,0
224,64,75858,1,0
352,64,76379,6,2,B|352:160,2,70
288,64,77162,1,4
64,64,77944,2,0,B|64:160,1,70
64,192,78466,1,0
64,192,78726,1,0
64,64,90465,5,4
64,128,90726,1,2
64,192,90987,1,0
128,192,91248,1,6
192,192,91508,1,2
256,192,91769,1,0
320,192,92030,1,4
384,192,92291,2,6,B|480:192,1,70
352,64,93334,5,2
288,64,93595,1,2
224,64,93856,1,2
160,64,94116,1,2
160,288,94899,1,4
224,288,95160,1,2
288,288,95420,1,4
352,288,95681,1,4
128,128,96203,5,0
128,256,96724,5,0
192,256,96985,1,0
256,256,97246,1,0
320,256,97507,1,0
384,256,97768,1,0
384,192,98028,1,2
320,192,98289,1,2
256,192,98550,1,0
192,192,98811,1,0
128,192,99072,1,4
128,128,99332,1,4
192,128,99593,1,0
256,128,99854,1,0
320,128,100115,5,2
384,128,100376,1,4
384,256,100897,5,2
320,256,101158,5,0
256,256,101419,1,0
224,192,101680,1,0
288,192,101940,1,2
256,128,102201,1,2
192,128,102462,1,0
384,64,103244,1,4
448,64,103505,1,2
480,128,103766,1,4
416,128,104027,1,2
128,64,105070,5,4
192,96,105331,1,2
256,64,105592,1,4
320,96,105852,1,4
384,64,106113,1,2
448,96,106374,1,2
512,64,106635,1,6
448,32,106896,5,0
384,64,107156,1,0
320,96,107417,1,4
256,128,107678,1,4
192,160,107939,1,2
128,192,108200,1,0
128,256,108460,5,0
192,256,108721,1,4
320,256,109243,5,2
480,96,110025,5,0
416,96,110286,1,0
352,96,110547,1,0
288,96,110808,1,2
256,288,111590,1,0
256,224,111851,1,2
192,224,112112,1,0
192,288,112372,1,2
320,288,112894,5,0
448,288,113416,5,0
448,224,113676,1,4
448,160,113937,1,2
384,160,114198,1,2
320,160,114459,1,0
256,160,114720,1,4
256,160,114980,1,4
192,160,115241,1,0
128,160,115502,1,2
128,224,115763,1,6
160,288,116024,1,4
224,288,116284,1,2
288,288,116545,1,2
320,224,116806,1,4
352,160,117067,1,2
224,160,117588,5,4
224,224,117849,5,0
160,224,118110,1,0
96,224,118371,5,2
128,288,118632,1,4
192,288,118892,1,2
224,224,119153,1,4
64,96,119936,5,2
128,96,120196,1,4
192,96,120457,1,4
256,96,120718,1,2
224,192,121761,5,2
224,192,122022,1,0
352,96,122544,5,2
352,160,122805,1,4
352,224,123065,1,2
352,288,123326,1,4
288,96,124109,5,4
288,160,124369,1,2
288,224,124630,1,4
288,288,124891,1,4
160,288,125413,6,2,B|160:128,1,140
160,149,126195,1,0
288,256,126717,5,0
352,256,126977,1,0
352,192,127238,1,0
288,192,127499,1,0
64,192,128281,1,0
64,256,128542,1,0
128,256,128803,1,0
128,192,129064,1,0
192,192,129325,5,2
256,192,129585,1,6
384,192,130107,1,2
96,192,131150,6,2,B|192:192,1,70
384,192,132193,5,0
384,192,132454,1,0
320,192,133758,5,2
320,192,134280,1,2
256,192,135062,12,6,141843
