osu file format v14

[General]
AudioFilename: michael buble - everything.mp3
AudioLeadIn: 0
PreviewTime: 85592
Countdown: 0
SampleSet: Soft
StackLeniency: 0.7
Mode: 0
LetterboxInBreaks: 0
WidescreenStoryboard: 0

[Editor]
Bookmarks: 43655
DistanceSpacing: 0.8
BeatDivisor: 4
GridSize: 4
TimelineZoom: 1.7

[Metadata]
Title:Everything
TitleUnicode:Everything
Artist:Michael Buble
ArtistUnicode:Michael Bublé
Creator:Blizs
Version:Normal
Source:
Tags:traditional vocal jazz relaxing Call Me Irresponsible Fantastica
BeatmapID:739247
BeatmapSetID:334108

[Difficulty]
HPDrainRate:3.5
CircleSize:3.5
OverallDifficulty:3.5
ApproachRate:4
SliderMultiplier:1.2
SliderTickRate:1

[Events]
//Background and Video events
0,0,"sing_with_me_by_menstos-d5s7rbd.jpg",0,0
//Break Periods
2,63115,69397
2,117726,131323
//Storyboard Layer 0 (Background)
//Storyboard Layer 1 (Fail)
//Storyboard Layer 2 (Pass)
//Storyboard Layer 3 (Foreground)
//Storyboard Sound Samples

[TimingPoints]
502,487.606663957741,4,2,1,20,1,0
8303,-100,4,2,1,25,0,0
31708,-100,4,2,1,40,0,0
47312,-100,4,2,1,40,0,1
59014,-100,4,2,1,30,0,1
62915,-100,4,2,1,30,0,0
86320,-100,4,2,1,40,0,0
101924,-100,4,2,1,40,0,1
113626,-100,4,2,1,30,0,1
117527,-100,4,2,1,40,0,0
148734,-100,4,2,1,50,0,1
160436,-100,4,2,1,40,0,1
164337,-100,4,2,1,50,0,0
168238,-100,4,2,1,30,0,0
177990,-100,4,2,1,40,0,0
195057,535.714285714286,4,2,1,30,1,0
196664,705.882352941176,4,2,1,30,1,0
198075,571.428571428571,4,2,1,30,1,0
198360,674.157303370787,4,2,1,30,1,0
199034,810.810810810811,4,2,1,30,1,0
199439,705.882352941176,4,2,1,30,1,0
200850,937.5,4,2,1,30,1,0
201084,923.076923076923,4,2,1,30,1,0

[Colours]
Combo1 : 255,255,166
Combo2 : 128,255,217
Combo3 : 255,128,128
Combo4 : 164,255,164

[HitObjects]
97,108,502,5,0,0:0:0:0:
97,108,989,2,0,P|150:159|248:133,1,180,2|2,0:0|0:0,0:0:0:0:
311,65,2208,2,0,L|437:60,2,120,0|2|0,0:0|0:0|0:0,0:0:0:0:
246,136,3671,1,2,0:0:0:0:
307,209,4159,6,0,P|322:266|307:323,1,120,2|0,0:0|0:0,0:0:0:0:
266,348,4890,2,0,L|85:335,1,180,2|2,0:0|0:0,0:0:0:0:
33,255,6109,2,0,P|21:197|46:140,2,120,0|2|0,0:0|0:0|0:0,0:0:0:0:
99,323,7572,2,0,L|79:381,2,60,2|0|2,0:0|0:0|0:0,0:0:0:0:
136,292,8303,6,0,P|190:277|258:300,1,120,2|8,1:2|0:1,0:0:0:0:
289,321,9035,2,0,L|410:303,1,120,0|2,1:2|0:0,0:0:0:0:
433,262,9766,2,0,P|436:229|430:199,1,60,8|2,0:1|0:0,0:0:0:0:
398,167,10254,6,0,L|408:47,1,120,0|8,1:0|0:1,0:0:0:0:
367,21,10985,2,0,P|309:12|244:30,1,120,0|2,1:0|0:0,0:0:0:0:
223,66,11716,2,0,L|218:126,1,60,8|2,0:1|0:0,0:0:0:0:
232,171,12204,6,0,B|339:223|339:223|401:204,2,180,0|0|8,1:0|1:0|0:1,0:0:0:0:
168,99,14154,2,0,P|136:167|191:257,1,180,0|2,1:0|1:2,0:0:0:0:
263,305,15374,2,0,L|323:301,2,60,0|8|0,1:0|0:1|0:0,0:0:0:0:
232,342,16105,6,0,L|109:333,1,120,2|8,1:2|0:1,0:0:0:0:
74,304,16836,2,0,P|61:256|79:189,1,120,0|0,1:0|0:0,0:0:0:0:
117,160,17568,1,8,0:1:0:0:
196,214,18055,6,0,L|319:205,1,120,2|8,1:2|0:1,0:0:0:0:
341,164,18786,2,0,P|354:116|336:49,1,120,2|0,1:2|0:0,0:0:0:0:
288,40,19518,1,8,0:1:0:0:
201,80,20006,6,0,B|145:92|145:92|83:85,1,120,2|8,1:2|0:1,0:0:0:0:
43,58,20737,2,0,P|56:146|41:235,1,180,0|8,1:0|0:1,0:0:0:0:
1,322,21956,6,0,P|45:329|114:297,1,120,2|8,1:2|0:1,0:0:0:0:
146,265,22688,2,0,P|204:248|264:261,1,120,2|0,1:2|1:0,0:0:0:0:
291,297,23419,1,8,0:1:0:0:
379,319,23907,6,0,B|397:281|397:281|382:203,1,120,2|8,1:2|0:1,0:0:0:0:
345,173,24638,2,0,P|336:134|359:58,1,120,0|0,1:0|0:0,0:0:0:0:
319,30,25369,1,8,0:1:0:0:
226,55,25857,6,0,P|167:67|109:54,1,120,2|8,1:2|0:1,0:0:0:0:
70,26,26588,2,0,L|66:147,1,120,2|0,1:2|0:0,0:0:0:0:
92,186,27320,1,8,0:1:0:0:
51,272,27807,6,0,P|108:280|164:248,1,120,2|8,1:2|0:1,0:0:0:0:
196,218,28539,2,0,L|376:220,1,180,0|8,1:0|0:1,0:0:0:0:
416,193,29514,1,0,0:0:0:0:
447,156,29758,6,0,P|457:93|428:39,1,120,2|8,1:2|0:1,0:0:0:0:
386,33,30489,2,0,L|266:40,1,120,2|0,1:2|1:0,0:0:0:0:
222,59,31221,1,8,0:1:0:0:
127,76,31708,6,0,P|107:126|120:191,1,120,2|8,1:2|0:0,0:0:0:0:
148,227,32440,2,0,B|197:227|237:218|237:218|273:230|326:233,1,180,2|8,1:2|0:0,0:0:0:0:
408,282,33659,6,0,P|397:315|383:337,2,60,2|0|8,1:2|0:0|0:0,0:0:0:0:
446,253,34390,2,0,L|452:131,1,120,2|2,1:2|0:0,0:0:0:0:
437,87,35122,1,8,0:0:0:0:
354,37,35609,6,0,P|297:21|233:25,1,120,2|8,1:2|0:0,0:0:0:0:
217,68,36341,1,0,1:2:0:0:
198,112,36584,2,0,P|141:128|77:124,1,120,2|8,0:0|0:0,0:0:0:0:
30,201,37560,6,0,L|60:324,1,120,2|8,1:2|0:0,0:0:0:0:
99,342,38291,2,0,P|157:325|219:332,1,120,2|2,1:2|1:2,0:0:0:0:
257,354,39022,1,8,0:0:0:0:
343,313,39510,6,0,L|356:185,1,120,2|8,1:2|0:0,0:0:0:0:
382,154,40241,2,0,P|361:98|308:65,1,120,2|0,1:2|0:0,0:0:0:0:
270,90,40973,1,8,0:0:0:0:
180,55,41460,6,0,L|61:59,1,120,2|8,1:2|0:0,0:0:0:0:
27,94,42192,2,0,P|17:151|32:214,1,120,2|0,1:2|0:0,0:0:0:0:
67,241,42923,1,8,0:0:0:0:
21,325,43411,6,0,P|71:336|133:310,1,120,2|8,1:2|0:0,0:0:0:0:
163,273,44142,1,0,1:0:0:0:
190,233,44386,2,0,P|240:222|302:248,1,120,2|8,0:0|0:0,0:0:0:0:
370,314,45361,6,0,P|395:260|384:202,1,120,2|8,1:2|0:0,0:0:0:0:
348,170,46093,2,0,L|356:49,1,120,2|0,1:2|1:0,0:0:0:0:
320,17,46824,1,8,0:0:0:0:
245,77,47312,6,0,B|208:91|158:66|158:66|110:39|73:51,2,180,4|2|8,1:2|1:2|0:0,0:0:0:0:
320,17,49262,6,0,L|445:24,1,120,2|8,1:2|0:0,0:0:0:0:
464,65,49994,2,0,P|447:122|466:180,1,120,2|0,1:2|1:0,0:0:0:0:
488,219,50725,1,8,0:0:0:0:
429,294,51213,6,0,B|384:314|341:298|341:298|296:281|253:291,2,180,2|2|8,1:2|1:2|0:0,0:0:0:0:
488,219,53163,6,0,L|480:93,1,120,2|8,1:2|0:0,0:0:0:0:
439,74,53894,2,0,P|385:86|305:63,1,120,2|2,1:2|1:2,0:0:0:0:
283,44,54626,1,8,0:0:0:0:
214,111,55113,6,0,L|95:104,1,120,2|8,1:2|0:0,0:0:0:0:
59,137,55845,2,0,L|52:256,1,120,2|2,1:2|1:2,0:0:0:0:
82,293,56576,1,8,0:0:0:0:
170,256,57064,6,0,P|214:245|289:260,1,120,2|8,1:2|0:0,0:0:0:0:
307,301,57795,2,0,L|332:176,1,120,2|8,1:2|0:0,0:0:0:0:
378,175,58527,2,0,L|390:112,1,60,0|8,1:2|0:3,0:0:0:0:
424,83,59014,1,0,1:0:0:0:
350,21,59502,6,0,B|321:20|292:30|292:30|265:22|231:28|231:28|194:6|140:15|119:45,1,240,8|8,0:0|0:0,0:0:0:0:
185,113,60965,6,0,P|195:173|175:231,1,120,2|0,1:2|0:0,0:0:0:0:
133,249,61696,2,0,P|77:228|37:184,1,120,10|0,1:2|1:0,0:0:0:0:
41,135,62428,2,0,P|86:96|144:84,1,120,8|0,0:3|1:0,0:0:0:0:
116,95,70717,5,2,1:2:0:0:
191,154,71204,2,0,L|250:144,2,60,8|0|2,0:0|1:0|0:0,0:0:0:0:
102,191,72180,1,8,0:0:0:0:
54,274,72667,6,0,P|110:286|171:257,1,120,2|8,1:2|0:0,0:0:0:0:
213,268,73399,2,0,L|272:278,1,60,0|2,1:0|0:0,0:0:0:0:
352,331,74130,1,8,0:0:0:0:
423,267,74618,6,0,P|435:212|426:144,1,120,2|8,1:2|0:0,0:0:0:0:
393,115,75349,2,0,L|396:55,1,60,0|2,1:0|0:0,0:0:0:0:
311,9,76081,1,8,0:0:0:0:
230,61,76568,6,0,B|173:77|173:77|116:53,1,120,2|8,1:2|0:0,0:0:0:0:
77,26,77300,2,0,L|20:44,1,60,2|0,1:2|0:0,0:0:0:0:
12,139,78031,1,8,0:0:0:0:
4,234,78519,6,0,L|20:353,1,120,2|8,1:2|0:0,0:0:0:0:
61,376,79250,2,0,L|120:368,1,60,2|0,1:2|0:0,0:0:0:0:
186,298,79981,1,8,0:0:0:0:
275,332,80469,6,0,P|278:274|247:224,1,120,2|8,1:2|0:0,0:0:0:0:
206,198,81200,2,0,L|201:127,1,60,2|0,1:2|0:0,0:0:0:0:
256,59,81932,1,8,0:0:0:0:
339,106,82419,6,0,P|397:117|458:102,1,120,2|8,1:2|0:0,0:0:0:0:
482,143,83151,1,2,1:2:0:0:
507,183,83395,2,0,L|494:307,1,120,0|8,0:0|0:0,0:0:0:0:
402,331,84370,6,0,P|345:318|287:333,1,120,2|8,1:2|0:0,0:0:0:0:
246,358,85101,2,0,L|186:355,1,60,2|0,1:2|1:0,0:0:0:0:
152,321,85589,2,0,L|92:323,2,60,8|8|4,0:0|0:3|0:3,0:0:0:0:
177,279,86320,6,0,P|190:221|182:162,1,120,4|8,1:2|0:0,0:0:0:0:
161,119,87052,2,0,B|221:137|221:137|279:142|348:124,1,180,2|8,1:2|0:0,0:0:0:0:
417,73,88271,6,0,L|424:14,2,60,2|0|8,1:2|0:0|0:0,0:0:0:0:
445,111,89002,2,0,P|467:151|456:227,1,120,2|2,1:2|0:0,0:0:0:0:
419,251,89734,1,8,0:0:0:0:
357,177,90221,6,0,P|307:158|236:165,1,120,2|8,1:2|0:0,0:0:0:0:
204,194,90953,1,0,1:2:0:0:
170,227,91196,2,0,L|131:113,1,120,2|8,0:0|0:0,0:0:0:0:
191,37,92172,6,0,P|248:45|329:28,1,120,2|8,1:2|0:0,0:0:0:0:
354,19,92903,2,0,L|478:27,1,120,2|2,1:2|1:2,0:0:0:0:
505,62,93634,1,8,0:0:0:0:
468,150,94122,6,0,L|344:142,1,120,2|8,1:2|0:0,0:0:0:0:
313,175,94853,2,0,L|189:167,1,120,2|2,1:2|0:0,0:0:0:0:
153,194,95585,1,8,0:0:0:0:
70,144,96072,6,0,P|55:187|78:258,1,120,2|8,1:2|0:0,0:0:0:0:
108,291,96804,2,0,L|232:299,1,120,2|0,1:2|0:0,0:0:0:0:
269,274,97535,1,8,0:0:0:0:
343,334,98023,6,0,P|393:345|455:319,1,120,2|8,1:2|0:0,0:0:0:0:
467,272,98754,1,0,1:0:0:0:
470,224,98998,2,0,L|443:102,1,120,2|8,0:0|0:0,0:0:0:0:
358,151,99973,6,0,P|304:176|246:165,1,120,2|8,1:2|0:0,0:0:0:0:
175,99,100948,2,0,L|179:39,2,60,0|8|4,1:0|0:3|0:3,0:0:0:0:
79,111,101924,6,0,B|65:148|90:198|90:198|117:246|105:283,2,180,4|2|8,1:2|1:2|0:0,0:0:0:0:
161,60,103874,6,0,P|216:75|276:58,1,120,2|8,1:2|0:0,0:0:0:0:
307,94,104606,2,0,L|282:221,1,120,2|0,1:2|1:0,0:0:0:0:
243,237,105337,1,8,0:0:0:0:
178,308,105825,6,0,B|147:282|144:227|144:227|143:172|114:146,2,180,2|2|10,1:2|1:2|1:2,0:0:0:0:
243,237,107775,6,0,P|287:228|353:261,1,120,2|8,1:2|0:0,0:0:0:0:
383,296,108506,2,0,L|426:183,1,120,2|2,1:2|1:2,0:0:0:0:
465,156,109238,1,8,0:0:0:0:
432,65,109725,6,0,P|373:54|317:74,1,120,2|8,1:2|0:0,0:0:0:0:
289,113,110457,2,0,L|170:106,1,120,2|2,1:2|1:2,0:0:0:0:
136,70,111188,1,8,0:0:0:0:
44,98,111676,6,0,L|37:217,1,120,2|8,1:2|0:0,0:0:0:0:
4,253,112407,2,0,P|61:244|119:266,1,120,2|8,1:2|0:0,0:0:0:0:
143,306,113139,2,0,L|204:301,1,60,0|8,1:0|0:3,0:0:0:0:
237,333,113626,1,0,1:0:0:0:
312,273,114114,6,0,B|313:244|303:215|303:215|311:188|305:154|305:154|327:117|318:63|288:42,1,240,8|8,0:0|0:0,0:0:0:0:
219,109,115577,6,0,P|159:119|101:99,1,120,2|0,1:2|0:0,0:0:0:0:
69,67,116308,2,0,L|77:187,1,120,10|0,1:2|1:0,0:0:0:0:
50,227,117039,2,0,L|58:347,1,120,8|0,0:3|1:0,0:0:0:0:
117,69,132643,5,8,0:0:0:0:
90,161,133131,2,0,P|150:158|197:120,1,120,4|8,1:2|0:0,0:0:0:0:
248,41,134106,2,0,P|308:44|355:82,1,120,2|8,0:0|0:0,0:0:0:0:
389,169,135081,6,0,L|376:288,1,120,2|8,1:2|0:0,0:0:0:0:
282,313,136056,2,0,L|295:194,1,120,2|8,0:0|0:0,0:0:0:0:
227,125,137031,6,0,P|172:147|110:131,1,120,2|8,1:2|0:0,0:0:0:0:
40,71,138007,2,0,L|29:200,1,120,2|8,0:0|0:0,0:0:0:0:
86,267,138982,6,0,L|215:278,1,120,2|8,1:2|0:0,0:0:0:0:
239,310,139713,2,0,P|297:322|356:291,1,120,2|0,1:2|1:0,0:0:0:0:
377,257,140445,1,8,0:0:0:0:
286,226,140932,6,0,P|263:165|261:107,1,120,2|8,1:2|0:0,0:0:0:0:
181,56,141907,2,0,P|120:79|62:81,1,120,2|8,0:0|0:0,0:0:0:0:
11,161,142883,6,0,P|34:222|36:280,1,120,2|8,1:2|0:0,0:0:0:0:
116,331,143858,2,0,P|177:308|235:306,1,120,2|8,0:0|0:0,0:0:0:0:
286,226,144833,6,0,P|263:165|261:107,1,120,2|8,1:2|0:0,0:0:0:0:
354,91,145808,2,0,P|377:152|379:210,1,120,2|8,0:0|0:0,0:0:0:0:
375,254,146540,2,0,L|393:322,1,60,0|8,1:0|0:0,0:0:0:0:
245,307,148734,6,0,B|208:293|158:318|158:318|110:345|73:333,2,180,4|2|8,1:2|1:2|0:0,0:0:0:0:
320,367,150684,6,0,L|445:360,1,120,2|8,1:2|0:0,0:0:0:0:
464,319,151416,2,0,P|447:262|466:204,1,120,2|0,1:2|1:0,0:0:0:0:
488,165,152147,1,8,0:0:0:0:
429,90,152635,6,0,B|384:70|341:86|341:86|296:103|253:93,2,180,2|2|8,1:2|1:2|0:0,0:0:0:0:
488,165,154585,6,0,L|480:291,1,120,2|8,1:2|0:0,0:0:0:0:
439,310,155316,2,0,P|385:298|305:321,1,120,2|2,1:2|1:2,0:0:0:0:
283,340,156048,1,8,0:0:0:0:
214,273,156535,6,0,L|95:280,1,120,4|8,1:2|0:0,0:0:0:0:
59,247,157267,2,0,L|52:128,1,120,2|2,1:2|1:2,0:0:0:0:
82,91,157998,1,8,0:0:0:0:
170,128,158486,6,0,P|214:139|289:124,1,120,2|8,1:2|0:0,0:0:0:0:
307,83,159217,2,0,L|332:208,1,120,2|8,1:2|0:0,0:0:0:0:
378,209,159949,2,0,L|390:271,1,60,0|8,1:2|0:3,0:0:0:0:
424,301,160436,1,0,1:0:0:0:
350,363,160924,6,0,B|321:364|292:354|292:354|265:362|231:356|231:356|194:378|140:369|119:339,1,240,8|8,0:0|0:0,0:0:0:0:
185,271,162387,6,0,P|195:211|175:153,1,120,2|2,1:2|0:0,0:0:0:0:
136,129,163118,1,8,0:0:0:0:
95,102,163362,1,2,0:0:0:0:
22,165,163850,2,0,L|11:233,1,60,4|2,0:3|0:0,0:0:0:0:
23,271,164337,1,4,1:2:0:0:
256,192,164581,12,0,168238,1:0:0:0:
73,109,170189,6,0,L|78:50,2,60,0|2|0,1:0|0:0|0:0,0:0:0:0:
48,149,170920,2,0,P|105:136|162:153,2,120,2|2|2,0:0|0:0|0:0,0:0:0:0:
188,194,174089,6,0,L|193:253,2,60,0|2|0,1:0|0:0|0:0,0:0:0:0:
163,153,174820,2,0,P|220:166|276:149,2,120,2|2|2,0:0|0:0|0:0,0:0:0:0:
138,112,176040,1,4,1:2:0:0:
420,57,177503,5,8,0:0:0:0:
484,128,177990,6,0,P|491:184|470:242,1,120,2|8,1:2|0:0,0:0:0:0:
428,268,178722,2,0,L|302:262,1,120,2|2,1:2|0:0,0:0:0:0:
275,226,179453,1,8,0:0:0:0:
334,150,179941,6,0,P|341:94|320:36,1,120,2|8,1:2|0:0,0:0:0:0:
278,10,180673,2,0,L|152:16,1,120,2|2,1:2|0:0,0:0:0:0:
125,52,181404,1,8,0:0:0:0:
63,125,181891,6,0,L|0:122,2,60,2|2|8,1:2|0:0|0:0,0:0:0:0:
99,155,182623,2,0,P|118:210|108:269,1,120,2|2,1:2|0:0,0:0:0:0:
90,313,183354,1,8,0:0:0:0:
180,344,183842,6,0,L|300:336,1,120,2|8,1:2|0:0,0:0:0:0:
330,299,184573,2,0,L|390:303,2,60,2|0|2,0:0|1:0|0:0,0:0:0:0:
303,259,185304,1,8,0:0:0:0:
222,206,185792,6,0,P|215:146|246:94,1,120,4|8,1:2|0:0,0:0:0:0:
288,79,186523,1,0,1:0:0:0:
335,84,186767,2,0,L|456:96,1,120,2|8,0:0|0:0,0:0:0:0:
499,180,187742,6,0,P|506:240|475:292,1,120,2|8,1:2|0:0,0:0:0:0:
433,307,188473,1,0,1:0:0:0:
386,302,188717,2,0,L|265:290,1,120,2|8,0:0|0:0,0:0:0:0:
171,272,189693,6,0,P|105:286|49:274,1,120,2|8,1:2|0:0,0:0:0:0:
29,235,190424,1,0,1:0:0:0:
37,187,190668,2,0,L|55:63,1,120,2|8,0:0|0:0,0:0:0:0:
148,49,191643,6,0,P|197:82|261:87,1,120,2|8,1:2|0:0,0:0:0:0:
298,63,192375,2,0,P|347:30|411:25,1,120,2|0,1:2|1:0,0:0:0:0:
444,53,193106,1,8,0:0:0:0:
501,130,193594,6,0,L|491:249,1,120,2|8,1:2|0:0,0:0:0:0:
406,295,194569,2,0,L|411:354,2,60,0|8|4,1:0|0:3|0:3,0:0:0:0:
256,192,195592,12,2,198075,0:0:0:0:
256,192,198360,12,2,201545,0:0:0:0:
