osu file format v14

[General]
AudioFilename: My Sweet Maiden.mp3
AudioLeadIn: 0
PreviewTime: 51787
Countdown: 0
SampleSet: Normal
StackLeniency: 0.7
Mode: 1
LetterboxInBreaks: 0
WidescreenStoryboard: 0

[Editor]
DistanceSpacing: 1
BeatDivisor: 4
GridSize: 32
TimelineZoom: 1.6

[Metadata]
Title:My Sweet Maiden
TitleUnicode:My Sweet Maiden
Artist:Mia REGINA
ArtistUnicode:Mia REGINA
Creator:Nardoxyribonucleic
Version:ily4's Oni
Source:sin 七つの大罪
Tags:Taiko Nanatsu no Taizai Seven Mortal Sins Opening iloveyou4ever Unmei Muma _Gezo_
BeatmapID:1374578
BeatmapSetID:648389

[Difficulty]
HPDrainRate:6
CircleSize:5
OverallDifficulty:5.5
ApproachRate:6
SliderMultiplier:1.4
SliderTickRate:1

[Events]
//Background and Video events
0,0,"BG.jpg",0,150
//Break Periods
//Storyboard Layer 0 (Background)
//Storyboard Layer 1 (Fail)
//Storyboard Layer 2 (Pass)
//Storyboard Layer 3 (Foreground)
//Storyboard Sound Samples

[TimingPoints]
1200,294.117647058824,4,1,0,50,1,0
1200,-133.333333333333,4,1,0,50,0,0
10611,294.117647058824,3,1,0,70,1,0
10611,-111.111111111111,3,1,0,70,0,0
24434,-105.263157894737,3,1,0,70,0,0
26493,294.117647058824,4,1,0,90,1,0
31198,-100,4,1,0,85,0,0
38257,-100,4,1,0,80,0,0
42963,-100,4,1,0,90,0,0
47669,-100,4,1,0,60,0,0
47963,-111.111111111111,4,1,0,60,0,0
50022,-100,4,1,0,90,0,0
52375,-100,4,1,0,100,0,1
80610,-100,4,1,0,95,0,0
90022,-100,4,1,0,90,0,0
113551,-100,4,1,0,85,0,0
120610,-100,4,1,0,80,0,0
125316,-100,4,1,0,90,0,0
132375,-100,4,1,0,70,0,0
132669,-111.111111111111,4,1,0,70,0,0
134728,-100,4,1,0,90,0,0
137081,-100,4,1,0,100,0,1
165316,-100,4,1,0,80,0,0
166493,-125,4,1,0,80,0,0
173551,-117.647058823529,4,1,0,80,0,0
174140,-114.285714285714,4,1,0,80,0,0
174728,-111.111111111111,4,1,0,80,0,0
184140,-100,4,1,0,95,0,0
224140,-100,4,1,0,90,0,0
228845,-125,4,1,0,60,0,0
231198,-100,4,1,0,90,0,0
235169,-100,4,1,0,100,0,1
262963,-100,4,1,0,90,0,0

[HitObjects]
416,160,1200,5,8,0:0:0:0:
448,160,2082,1,8,0:0:0:0:
416,160,2376,1,0,0:0:0:0:
416,160,2964,1,0,0:0:0:0:
384,192,3552,1,8,0:0:0:0:
448,192,4729,1,0,0:0:0:0:
448,192,5317,1,8,0:0:0:0:
384,160,5905,1,8,0:0:0:0:
448,192,7082,1,8,0:0:0:0:
480,160,7670,1,0,0:0:0:0:
480,160,8258,1,8,0:0:0:0:
256,192,8405,12,0,9435,0:0:0:0:
384,160,10611,5,4,0:0:0:0:
416,160,11052,1,8,0:0:0:0:
384,128,11346,1,0,0:0:0:0:
416,160,11493,1,0,0:0:0:0:
384,160,12081,1,8,0:0:0:0:
384,160,12228,1,8,0:0:0:0:
384,160,12375,1,0,0:0:0:0:
352,160,12816,1,8,0:0:0:0:
416,288,13111,1,8,0:0:0:0:
416,224,13258,1,0,0:0:0:0:
416,224,14140,1,4,0:0:0:0:
448,192,14581,1,8,0:0:0:0:
448,192,14875,1,0,0:0:0:0:
384,192,15022,1,0,0:0:0:0:
416,192,15611,1,0,0:0:0:0:
352,192,15905,1,8,0:0:0:0:
352,192,16346,1,8,0:0:0:0:
352,160,16640,1,0,0:0:0:0:
352,160,16787,1,8,0:0:0:0:
384,160,17669,1,12,0:0:0:0:
384,160,18111,1,8,0:0:0:0:
384,160,18405,1,0,0:0:0:0:
416,160,18552,1,8,0:0:0:0:
416,160,19140,1,0,0:0:0:0:
416,160,19287,1,8,0:0:0:0:
352,160,19434,1,0,0:0:0:0:
448,160,19875,1,8,0:0:0:0:
480,192,20169,1,8,0:0:0:0:
416,160,20316,1,0,0:0:0:0:
416,160,20905,1,0,0:0:0:0:
448,160,21199,1,12,0:0:0:0:
192,192,21787,1,8,0:0:0:0:
320,192,22081,1,0,0:0:0:0:
416,192,22375,1,8,0:0:0:0:
416,192,22669,1,8,0:0:0:0:
416,160,22963,1,4,0:0:0:0:
416,160,23846,1,8,0:0:0:0:
448,192,24434,1,0,0:0:0:0:
480,192,24581,1,8,0:0:0:0:
448,160,24728,1,4,0:0:0:0:
448,192,25316,1,8,0:0:0:0:
416,192,25611,1,4,0:0:0:0:
448,192,25905,1,0,0:0:0:0:
448,160,26199,1,8,0:0:0:0:
448,192,26493,1,12,0:0:0:0:
416,192,26640,1,12,0:0:0:0:
448,160,28845,1,12,0:0:0:0:
448,160,28993,1,12,0:0:0:0:
480,192,30022,1,8,0:0:0:0:
480,192,30610,1,8,0:0:0:0:
416,160,30684,1,8,0:0:0:0:
448,192,30757,1,0,0:0:0:0:
448,192,30831,1,0,0:0:0:0:
416,160,30904,1,8,0:0:0:0:
448,192,31051,1,8,0:0:0:0:
480,224,31198,1,4,0:0:0:0:
480,192,31493,1,8,0:0:0:0:
480,192,31787,1,0,0:0:0:0:
449,255,32081,1,0,0:0:0:0:
449,255,32154,1,0,0:0:0:0:
448,160,32228,1,0,0:0:0:0:
448,160,32301,1,0,0:0:0:0:
448,160,32375,1,8,0:0:0:0:
480,224,32669,1,0,0:0:0:0:
448,160,32963,1,8,0:0:0:0:
448,160,33257,1,8,0:0:0:0:
448,160,33551,1,4,0:0:0:0:
448,160,33845,1,8,0:0:0:0:
416,160,34140,1,0,0:0:0:0:
416,160,34434,1,0,0:0:0:0:
448,160,34581,1,12,0:0:0:0:
480,160,34875,1,0,0:0:0:0:
480,160,35022,1,8,0:0:0:0:
480,192,35169,1,0,0:0:0:0:
448,192,35316,1,0,0:0:0:0:
480,160,35463,1,8,0:0:0:0:
448,192,35537,1,8,0:0:0:0:
416,160,35610,1,0,0:0:0:0:
416,160,35684,1,0,0:0:0:0:
480,160,35757,1,8,0:0:0:0:
448,160,35904,1,4,0:0:0:0:
480,224,36198,1,8,0:0:0:0:
416,160,36345,1,8,0:0:0:0:
448,192,36493,1,0,0:0:0:0:
406,175,36640,1,8,0:0:0:0:
406,175,36787,1,0,0:0:0:0:
479,213,37081,1,8,0:0:0:0:
438,175,37228,1,0,0:0:0:0:
308,177,37375,1,8,0:0:0:0:
440,186,37669,1,8,0:0:0:0:
436,185,37816,1,0,0:0:0:0:
436,185,37890,1,0,0:0:0:0:
373,182,37963,1,8,0:0:0:0:
438,175,38110,1,0,0:0:0:0:
248,207,38257,1,12,0:0:0:0:
447,247,39287,1,4,0:0:0:0:
423,176,40610,1,4,0:0:0:0:
435,178,41640,1,12,0:0:0:0:
447,177,42375,1,8,0:0:0:0:
448,160,42448,1,8,0:0:0:0:
469,200,42522,1,0,0:0:0:0:
469,200,42595,1,0,0:0:0:0:
436,165,42669,1,8,0:0:0:0:
487,170,42816,1,8,0:0:0:0:
358,197,42963,1,4,0:0:0:0:
455,186,43257,1,0,0:0:0:0:
391,179,43404,1,8,0:0:0:0:
409,160,43551,1,0,0:0:0:0:
409,160,43698,1,0,0:0:0:0:
404,165,43845,1,8,0:0:0:0:
445,170,44140,1,12,0:0:0:0:
416,160,44434,1,8,0:0:0:0:
448,160,44581,1,8,0:0:0:0:
416,160,44728,1,0,0:0:0:0:
384,160,44875,1,8,0:0:0:0:
416,192,45022,1,0,0:0:0:0:
450,158,45316,1,12,0:0:0:0:
451,166,45610,1,8,0:0:0:0:
451,166,45757,1,8,0:0:0:0:
451,166,45904,1,8,0:0:0:0:
451,166,46051,1,8,0:0:0:0:
451,166,46198,1,8,0:0:0:0:
451,166,46345,1,8,0:0:0:0:
416,192,46493,1,8,0:0:0:0:
498,180,46640,1,0,0:0:0:0:
479,198,46713,1,0,0:0:0:0:
429,169,46787,1,8,0:0:0:0:
384,160,46934,1,8,0:0:0:0:
475,170,47081,1,0,0:0:0:0:
451,166,47154,1,0,0:0:0:0:
416,192,47228,1,8,0:0:0:0:
446,190,47375,1,8,0:0:0:0:
416,192,47448,1,8,0:0:0:0:
416,192,47522,1,8,0:0:0:0:
352,160,47669,1,0,0:0:0:0:
469,173,47963,1,8,0:0:0:0:
427,154,48551,1,0,0:0:0:0:
442,158,48845,1,8,0:0:0:0:
427,154,49140,1,0,0:0:0:0:
380,161,49728,1,0,0:0:0:0:
427,156,50022,1,12,0:0:0:0:
460,158,50169,1,0,0:0:0:0:
460,158,50316,1,0,0:0:0:0:
479,167,50463,1,12,0:0:0:0:
456,164,50610,1,0,0:0:0:0:
456,164,50757,1,0,0:0:0:0:
506,160,50904,1,12,0:0:0:0:
420,165,51051,1,0,0:0:0:0:
420,165,51125,1,0,0:0:0:0:
436,158,51198,1,8,0:0:0:0:
432,142,51345,1,12,0:0:0:0:
456,164,51787,1,0,0:0:0:0:
506,187,52081,1,0,0:0:0:0:
415,179,52375,1,12,0:0:0:0:
461,196,52669,1,0,0:0:0:0:
367,173,52816,1,8,0:0:0:0:
429,175,52963,1,0,0:0:0:0:
402,155,53110,1,0,0:0:0:0:
402,155,53184,1,0,0:0:0:0:
423,162,53257,1,8,0:0:0:0:
443,168,53404,1,0,0:0:0:0:
421,166,53551,1,8,0:0:0:0:
370,178,53845,1,8,0:0:0:0:
410,157,53993,1,0,0:0:0:0:
425,177,54140,1,8,0:0:0:0:
448,192,54213,1,8,0:0:0:0:
370,178,54287,1,0,0:0:0:0:
406,173,54434,1,8,0:0:0:0:
479,201,54581,1,8,0:0:0:0:
394,188,54728,1,0,0:0:0:0:
427,173,55022,1,0,0:0:0:0:
425,141,55169,1,8,0:0:0:0:
448,224,55243,1,8,0:0:0:0:
421,168,55316,1,8,0:0:0:0:
416,192,55463,1,0,0:0:0:0:
336,163,55610,1,8,0:0:0:0:
430,163,55757,1,0,0:0:0:0:
316,150,55904,1,8,0:0:0:0:
373,185,56198,1,8,0:0:0:0:
373,185,56345,1,0,0:0:0:0:
344,173,56493,1,8,0:0:0:0:
373,195,56566,1,0,0:0:0:0:
393,167,56640,1,0,0:0:0:0:
436,175,56713,1,0,0:0:0:0:
369,177,56787,1,8,0:0:0:0:
378,177,56934,1,8,0:0:0:0:
436,161,57081,1,4,0:0:0:0:
501,184,57375,1,0,0:0:0:0:
501,184,57522,1,0,0:0:0:0:
449,179,57669,1,8,0:0:0:0:
460,190,57816,1,0,0:0:0:0:
462,197,57890,1,0,0:0:0:0:
452,203,57963,1,8,0:0:0:0:
447,218,58110,1,8,0:0:0:0:
395,160,58257,1,4,0:0:0:0:
469,184,58551,1,0,0:0:0:0:
469,184,58698,1,0,0:0:0:0:
431,155,58845,1,8,0:0:0:0:
402,190,58919,1,8,0:0:0:0:
422,174,58993,1,0,0:0:0:0:
430,177,59140,1,8,0:0:0:0:
492,177,59287,1,0,0:0:0:0:
475,175,59434,1,12,0:0:0:0:
440,180,59581,1,0,0:0:0:0:
438,181,59728,1,0,0:0:0:0:
456,163,59875,1,12,0:0:0:0:
412,172,60022,1,0,0:0:0:0:
398,175,60169,1,0,0:0:0:0:
397,192,60316,1,12,0:0:0:0:
407,187,60463,1,0,0:0:0:0:
438,167,60537,1,0,0:0:0:0:
392,151,60610,1,8,0:0:0:0:
407,156,60757,1,0,0:0:0:0:
412,160,60904,1,12,0:0:0:0:
375,184,61198,1,8,0:0:0:0:
436,158,61345,1,0,0:0:0:0:
487,152,61419,1,0,0:0:0:0:
385,149,61493,1,8,0:0:0:0:
410,161,61566,1,8,0:0:0:0:
439,166,61640,1,0,0:0:0:0:
490,175,61787,1,12,0:0:0:0:
471,205,62081,1,0,0:0:0:0:
445,168,62228,1,8,0:0:0:0:
422,166,62375,1,0,0:0:0:0:
447,156,62522,1,0,0:0:0:0:
447,156,62595,1,0,0:0:0:0:
313,159,62669,1,8,0:0:0:0:
423,169,62816,1,0,0:0:0:0:
401,147,62963,1,8,0:0:0:0:
401,147,63257,1,8,0:0:0:0:
372,174,63404,1,0,0:0:0:0:
465,171,63551,1,8,0:0:0:0:
416,160,63625,1,8,0:0:0:0:
443,173,63698,1,0,0:0:0:0:
427,161,63845,1,8,0:0:0:0:
470,179,63993,1,0,0:0:0:0:
440,166,64140,1,8,0:0:0:0:
466,194,64434,1,8,0:0:0:0:
492,171,64581,1,8,0:0:0:0:
492,171,64654,1,8,0:0:0:0:
443,164,64728,1,0,0:0:0:0:
412,168,64875,1,0,0:0:0:0:
440,166,65022,1,8,0:0:0:0:
466,172,65169,1,8,0:0:0:0:
443,164,65316,1,0,0:0:0:0:
460,182,65390,1,0,0:0:0:0:
466,194,65463,1,0,0:0:0:0:
395,164,65610,1,8,0:0:0:0:
401,154,65757,1,0,0:0:0:0:
497,161,65904,1,8,0:0:0:0:
497,161,65978,1,8,0:0:0:0:
422,147,66051,1,0,0:0:0:0:
422,147,66125,1,0,0:0:0:0:
392,148,66198,1,8,0:0:0:0:
453,162,66493,1,4,0:0:0:0:
468,194,66787,1,0,0:0:0:0:
416,160,66934,1,8,0:0:0:0:
436,174,67081,1,0,0:0:0:0:
436,174,67228,1,0,0:0:0:0:
416,160,67375,1,8,0:0:0:0:
436,174,67522,1,0,0:0:0:0:
442,169,67669,1,8,0:0:0:0:
442,169,67816,1,8,0:0:0:0:
384,192,67963,1,0,0:0:0:0:
442,169,68110,1,8,0:0:0:0:
442,169,68257,1,8,0:0:0:0:
384,192,68404,1,0,0:0:0:0:
442,169,68551,1,8,0:0:0:0:
488,198,68698,1,0,0:0:0:0:
396,169,68845,1,12,0:0:0:0:
487,181,68993,1,0,0:0:0:0:
487,181,69066,1,0,0:0:0:0:
448,192,69140,1,0,0:0:0:0:
441,179,69287,1,8,0:0:0:0:
318,171,69434,1,0,0:0:0:0:
318,171,69507,1,0,0:0:0:0:
448,192,69581,1,0,0:0:0:0:
355,166,69728,1,8,0:0:0:0:
318,171,69875,1,0,0:0:0:0:
480,192,69948,1,0,0:0:0:0:
324,163,70022,1,8,0:0:0:0:
416,192,70169,1,0,0:0:0:0:
416,160,70316,1,12,0:0:0:0:
416,192,70610,1,8,0:0:0:0:
416,160,70757,1,0,0:0:0:0:
416,160,70831,1,0,0:0:0:0:
384,160,70904,1,8,0:0:0:0:
384,160,70978,1,8,0:0:0:0:
416,160,71051,1,0,0:0:0:0:
416,160,71198,1,12,0:0:0:0:
416,192,71493,1,0,0:0:0:0:
384,192,71787,1,8,0:0:0:0:
416,192,72081,1,8,0:0:0:0:
341,174,72228,1,4,0:0:0:0:
434,130,72669,1,0,0:0:0:0:
415,145,72963,1,8,0:0:0:0:
450,182,73257,1,0,0:0:0:0:
456,158,73551,1,12,0:0:0:0:
475,141,73845,1,0,0:0:0:0:
388,179,74140,1,8,0:0:0:0:
399,173,74434,1,8,0:0:0:0:
315,182,74581,1,4,0:0:0:0:
415,173,75022,1,0,0:0:0:0:
373,153,75316,1,8,0:0:0:0:
480,160,75463,1,0,0:0:0:0:
384,160,75610,1,8,0:0:0:0:
384,160,75684,1,8,0:0:0:0:
451,181,75757,1,8,0:0:0:0:
416,160,75904,1,4,0:0:0:0:
480,160,76198,1,8,0:0:0:0:
416,192,76345,1,0,0:0:0:0:
416,160,76493,1,0,0:0:0:0:
416,160,76640,1,0,0:0:0:0:
448,192,76713,1,0,0:0:0:0:
448,160,76787,1,8,0:0:0:0:
448,192,76934,1,0,0:0:0:0:
416,192,77081,1,8,0:0:0:0:
320,192,77375,1,8,0:0:0:0:
480,192,77522,1,8,0:0:0:0:
480,192,77595,1,8,0:0:0:0:
448,160,77669,1,0,0:0:0:0:
448,160,77816,1,0,0:0:0:0:
416,192,77963,1,8,0:0:0:0:
320,192,78110,1,0,0:0:0:0:
416,160,78257,1,12,0:0:0:0:
379,123,78551,1,8,0:0:0:0:
448,256,78698,1,12,0:0:0:0:
455,172,78993,1,0,0:0:0:0:
382,177,79140,1,12,0:0:0:0:
406,173,79581,1,0,0:0:0:0:
334,173,79728,1,8,0:0:0:0:
375,179,79875,1,0,0:0:0:0:
439,173,80022,1,8,0:0:0:0:
367,166,80169,1,0,0:0:0:0:
357,169,80316,1,8,0:0:0:0:
357,169,80390,1,8,0:0:0:0:
357,169,80463,1,8,0:0:0:0:
357,169,80537,1,8,0:0:0:0:
369,164,80610,1,0,0:0:0:0:
454,194,80757,1,0,0:0:0:0:
439,173,81051,1,0,0:0:0:0:
382,173,81198,1,8,0:0:0:0:
358,140,81493,1,0,0:0:0:0:
358,140,81640,1,0,0:0:0:0:
362,97,81934,1,0,0:0:0:0:
334,153,82081,1,8,0:0:0:0:
429,208,82228,1,0,0:0:0:0:
429,208,82301,1,0,0:0:0:0:
429,208,82375,1,0,0:0:0:0:
414,192,82522,1,8,0:0:0:0:
399,159,82669,1,0,0:0:0:0:
375,164,82963,1,8,0:0:0:0:
448,192,83110,1,8,0:0:0:0:
320,160,83404,1,0,0:0:0:0:
350,160,83551,1,8,0:0:0:0:
402,153,83845,1,8,0:0:0:0:
447,189,83993,1,0,0:0:0:0:
447,189,84066,1,0,0:0:0:0:
409,167,84140,1,0,0:0:0:0:
448,181,84287,1,8,0:0:0:0:
449,169,84434,1,0,0:0:0:0:
449,169,84507,1,0,0:0:0:0:
449,169,84581,1,0,0:0:0:0:
415,160,84728,1,8,0:0:0:0:
490,190,85316,1,4,0:0:0:0:
417,167,85463,1,0,0:0:0:0:
403,173,85757,1,8,0:0:0:0:
403,173,85904,1,8,0:0:0:0:
443,167,86198,1,0,0:0:0:0:
443,167,86345,1,0,0:0:0:0:
443,174,86640,1,8,0:0:0:0:
443,174,86787,1,8,0:0:0:0:
380,160,86934,1,0,0:0:0:0:
380,160,87007,1,0,0:0:0:0:
430,283,87081,1,0,0:0:0:0:
395,168,87228,1,8,0:0:0:0:
417,173,87375,1,0,0:0:0:0:
447,190,87669,1,8,0:0:0:0:
443,229,87816,1,8,0:0:0:0:
352,128,88110,1,0,0:0:0:0:
432,166,88257,1,8,0:0:0:0:
440,236,88551,1,8,0:0:0:0:
401,162,88698,1,0,0:0:0:0:
410,158,88772,1,0,0:0:0:0:
414,161,88845,1,0,0:0:0:0:
410,171,88993,1,8,0:0:0:0:
450,154,89140,1,0,0:0:0:0:
449,154,89213,1,0,0:0:0:0:
449,154,89287,1,0,0:0:0:0:
451,160,89434,1,8,0:0:0:0:
381,171,89581,1,8,0:0:0:0:
381,171,89728,1,8,0:0:0:0:
381,171,89875,1,8,0:0:0:0:
391,188,90022,1,0,0:0:0:0:
438,177,90316,1,8,0:0:0:0:
466,197,90757,1,0,0:0:0:0:
453,152,90904,1,8,0:0:0:0:
404,171,91198,1,0,0:0:0:0:
453,152,91493,1,8,0:0:0:0:
480,194,91640,1,0,0:0:0:0:
480,194,91934,1,0,0:0:0:0:
448,256,92081,1,0,0:0:0:0:
479,177,92228,1,8,0:0:0:0:
461,226,92375,1,0,0:0:0:0:
502,195,92669,1,8,0:0:0:0:
437,165,92963,1,0,0:0:0:0:
437,165,93110,1,0,0:0:0:0:
427,171,93257,1,8,0:0:0:0:
472,175,93551,1,0,0:0:0:0:
481,165,93845,1,8,0:0:0:0:
416,192,93993,1,8,0:0:0:0:
448,192,94140,1,0,0:0:0:0:
480,224,94287,1,0,0:0:0:0:
443,162,94434,1,8,0:0:0:0:
309,184,94728,1,4,0:0:0:0:
423,164,95022,1,8,0:0:0:0:
421,162,95463,1,0,0:0:0:0:
386,183,95610,1,8,0:0:0:0:
390,163,95904,1,0,0:0:0:0:
430,158,96198,1,8,0:0:0:0:
411,155,96345,1,0,0:0:0:0:
408,155,96640,1,0,0:0:0:0:
421,174,96787,1,0,0:0:0:0:
381,160,96934,1,8,0:0:0:0:
339,177,97081,1,0,0:0:0:0:
448,160,97375,1,8,0:0:0:0:
480,171,97669,1,0,0:0:0:0:
480,171,97816,1,0,0:0:0:0:
371,168,97963,1,8,0:0:0:0:
481,164,98257,1,0,0:0:0:0:
416,160,98404,1,0,0:0:0:0:
475,177,98551,1,8,0:0:0:0:
462,154,98698,1,0,0:0:0:0:
459,221,98993,1,0,0:0:0:0:
479,189,99140,1,8,0:0:0:0:
479,189,99213,1,8,0:0:0:0:
479,189,99287,1,8,0:0:0:0:
412,164,99434,1,4,0:0:0:0:
448,256,99728,1,8,0:0:0:0:
416,224,100169,1,0,0:0:0:0:
416,192,100316,1,8,0:0:0:0:
448,160,100610,1,0,0:0:0:0:
416,160,100904,1,8,0:0:0:0:
448,160,101051,1,0,0:0:0:0:
448,160,101345,1,0,0:0:0:0:
448,160,101493,1,0,0:0:0:0:
416,160,101640,1,8,0:0:0:0:
384,192,101787,1,0,0:0:0:0:
512,192,102081,1,8,0:0:0:0:
480,160,102375,1,0,0:0:0:0:
480,160,102522,1,0,0:0:0:0:
480,160,102669,1,8,0:0:0:0:
480,160,102963,1,0,0:0:0:0:
448,160,103257,1,8,0:0:0:0:
480,160,103404,1,8,0:0:0:0:
448,160,103551,1,0,0:0:0:0:
480,160,103698,1,0,0:0:0:0:
512,160,103845,1,8,0:0:0:0:
448,160,104140,1,4,0:0:0:0:
448,160,104434,1,8,0:0:0:0:
416,160,104875,1,0,0:0:0:0:
448,160,105022,1,8,0:0:0:0:
416,160,105316,1,4,0:0:0:0:
416,160,105610,1,8,0:0:0:0:
448,160,105757,1,0,0:0:0:0:
448,160,106051,1,0,0:0:0:0:
415,190,106198,1,0,0:0:0:0:
416,160,106345,1,8,0:0:0:0:
384,192,106493,1,4,0:0:0:0:
448,160,106787,1,8,0:0:0:0:
448,160,107081,1,0,0:0:0:0:
448,160,107228,1,0,0:0:0:0:
448,160,107375,1,8,0:0:0:0:
441,261,107522,1,0,0:0:0:0:
477,173,107669,1,8,0:0:0:0:
477,173,107743,1,8,0:0:0:0:
477,173,107816,1,8,0:0:0:0:
448,171,107963,1,0,0:0:0:0:
448,171,108037,1,0,0:0:0:0:
448,171,108110,1,0,0:0:0:0:
477,173,108257,1,8,0:0:0:0:
409,162,108404,1,0,0:0:0:0:
455,173,108478,1,0,0:0:0:0:
434,160,108551,1,8,0:0:0:0:
409,162,108625,1,8,0:0:0:0:
416,160,108698,1,8,0:0:0:0:
384,160,108845,1,4,0:0:0:0:
451,179,109287,1,0,0:0:0:0:
451,179,109360,1,0,0:0:0:0:
481,149,109434,1,8,0:0:0:0:
469,208,110022,1,0,0:0:0:0:
469,228,110243,1,0,0:0:0:0:
505,195,110463,1,0,0:0:0:0:
505,195,110537,1,0,0:0:0:0:
470,185,110610,1,8,0:0:0:0:
476,169,111198,1,12,0:0:0:0:
482,170,111345,1,0,0:0:0:0:
482,170,111493,1,0,0:0:0:0:
427,182,111640,1,12,0:0:0:0:
496,171,111787,1,0,0:0:0:0:
496,171,111934,1,0,0:0:0:0:
427,182,112081,1,12,0:0:0:0:
431,149,112375,1,8,0:0:0:0:
496,154,112522,1,0,0:0:0:0:
411,176,112595,1,0,0:0:0:0:
415,145,112669,1,8,0:0:0:0:
427,178,112816,1,0,0:0:0:0:
439,167,112963,1,8,0:0:0:0:
404,147,113037,1,0,0:0:0:0:
404,149,113110,1,0,0:0:0:0:
413,149,113184,1,0,0:0:0:0:
393,166,113257,1,8,0:0:0:0:
420,157,113404,1,0,0:0:0:0:
420,173,113551,1,4,0:0:0:0:
456,155,113845,1,8,0:0:0:0:
414,141,114140,1,0,0:0:0:0:
446,205,114434,1,0,0:0:0:0:
414,141,114507,1,0,0:0:0:0:
414,141,114581,1,0,0:0:0:0:
414,141,114654,1,0,0:0:0:0:
439,158,114728,1,8,0:0:0:0:
395,170,115022,1,0,0:0:0:0:
425,168,115316,1,8,0:0:0:0:
425,168,115610,1,8,0:0:0:0:
410,181,115904,1,4,0:0:0:0:
367,172,116198,1,8,0:0:0:0:
395,162,116493,1,0,0:0:0:0:
486,171,116787,1,0,0:0:0:0:
371,190,116934,1,12,0:0:0:0:
408,166,117228,1,0,0:0:0:0:
397,150,117375,1,8,0:0:0:0:
422,178,117522,1,0,0:0:0:0:
422,178,117669,1,0,0:0:0:0:
474,165,117816,1,8,0:0:0:0:
474,165,117890,1,8,0:0:0:0:
456,158,117963,1,0,0:0:0:0:
452,158,118037,1,0,0:0:0:0:
375,156,118110,1,8,0:0:0:0:
438,173,118257,1,4,0:0:0:0:
491,171,118551,1,8,0:0:0:0:
491,177,118698,1,0,0:0:0:0:
443,177,118845,1,8,0:0:0:0:
425,160,118993,1,0,0:0:0:0:
429,181,119140,1,8,0:0:0:0:
415,176,119434,1,0,0:0:0:0:
440,161,119581,1,0,0:0:0:0:
397,166,119728,1,8,0:0:0:0:
457,175,120022,1,8,0:0:0:0:
443,173,120169,1,0,0:0:0:0:
443,175,120243,1,0,0:0:0:0:
426,167,120316,1,8,0:0:0:0:
489,171,120463,1,0,0:0:0:0:
440,161,120610,1,12,0:0:0:0:
412,182,121640,1,4,0:0:0:0:
453,237,122963,1,4,0:0:0:0:
445,181,123993,1,12,0:0:0:0:
414,179,124728,1,8,0:0:0:0:
448,160,124801,1,8,0:0:0:0:
441,163,124875,1,0,0:0:0:0:
441,163,124948,1,0,0:0:0:0:
416,167,125022,1,8,0:0:0:0:
416,167,125169,1,8,0:0:0:0:
410,162,125316,1,4,0:0:0:0:
443,168,125610,1,0,0:0:0:0:
427,177,125757,1,8,0:0:0:0:
444,167,125904,1,0,0:0:0:0:
444,166,126051,1,0,0:0:0:0:
422,166,126198,1,8,0:0:0:0:
421,173,126493,1,12,0:0:0:0:
462,168,126787,1,8,0:0:0:0:
429,168,126934,1,8,0:0:0:0:
432,162,127081,1,0,0:0:0:0:
421,179,127228,1,8,0:0:0:0:
320,160,127375,1,0,0:0:0:0:
372,174,127669,1,12,0:0:0:0:
406,181,127963,1,8,0:0:0:0:
406,181,128110,1,8,0:0:0:0:
406,181,128257,1,8,0:0:0:0:
406,181,128404,1,8,0:0:0:0:
406,181,128551,1,8,0:0:0:0:
406,181,128698,1,8,0:0:0:0:
406,181,128772,1,8,0:0:0:0:
406,181,128845,1,8,0:0:0:0:
435,162,128993,1,0,0:0:0:0:
435,162,129066,1,0,0:0:0:0:
431,148,129140,1,8,0:0:0:0:
382,161,129287,1,8,0:0:0:0:
466,169,129434,1,0,0:0:0:0:
466,169,129507,1,0,0:0:0:0:
477,162,129581,1,8,0:0:0:0:
456,173,129654,1,8,0:0:0:0:
435,162,129728,1,8,0:0:0:0:
456,173,129875,1,8,0:0:0:0:
456,173,129948,1,8,0:0:0:0:
396,171,130022,1,0,0:0:0:0:
406,171,130316,1,0,0:0:0:0:
406,171,130463,1,0,0:0:0:0:
329,156,130610,1,8,0:0:0:0:
479,175,130904,1,0,0:0:0:0:
480,224,131051,1,0,0:0:0:0:
479,175,131198,1,0,0:0:0:0:
479,175,131493,1,0,0:0:0:0:
479,175,131640,1,0,0:0:0:0:
481,167,131787,1,8,0:0:0:0:
481,168,132081,1,8,0:0:0:0:
432,205,132375,1,0,0:0:0:0:
477,189,133551,1,4,0:0:0:0:
509,169,134140,1,4,0:0:0:0:
505,186,134728,1,12,0:0:0:0:
460,177,134875,1,0,0:0:0:0:
460,177,135022,1,0,0:0:0:0:
497,180,135169,1,12,0:0:0:0:
460,166,135316,1,0,0:0:0:0:
458,166,135463,1,0,0:0:0:0:
467,177,135610,1,12,0:0:0:0:
438,174,135757,1,0,0:0:0:0:
438,174,135831,1,0,0:0:0:0:
441,171,135904,1,8,0:0:0:0:
421,177,136051,1,12,0:0:0:0:
455,204,136493,1,0,0:0:0:0:
448,192,136787,1,0,0:0:0:0:
448,192,137081,1,12,0:0:0:0:
416,160,137375,1,0,0:0:0:0:
352,160,137522,1,8,0:0:0:0:
352,160,137669,1,0,0:0:0:0:
352,160,137816,1,0,0:0:0:0:
352,160,137890,1,0,0:0:0:0:
358,168,137963,1,8,0:0:0:0:
391,169,138110,1,0,0:0:0:0:
424,164,138257,1,8,0:0:0:0:
320,64,138551,1,8,0:0:0:0:
350,169,138698,1,0,0:0:0:0:
394,173,138845,1,8,0:0:0:0:
391,169,138919,1,8,0:0:0:0:
391,169,138993,1,8,0:0:0:0:
384,160,139140,1,0,0:0:0:0:
424,164,139287,1,0,0:0:0:0:
416,192,139434,1,8,0:0:0:0:
448,160,139728,1,0,0:0:0:0:
416,192,139875,1,8,0:0:0:0:
393,176,140022,1,0,0:0:0:0:
416,160,140169,1,0,0:0:0:0:
393,176,140243,1,0,0:0:0:0:
448,160,140316,1,8,0:0:0:0:
476,220,140463,1,8,0:0:0:0:
437,165,140610,1,0,0:0:0:0:
437,165,140684,1,0,0:0:0:0:
437,165,140757,1,0,0:0:0:0:
421,177,140904,1,8,0:0:0:0:
288,160,141051,1,0,0:0:0:0:
384,160,141198,1,8,0:0:0:0:
320,160,141272,1,0,0:0:0:0:
320,160,141345,1,0,0:0:0:0:
320,160,141419,1,0,0:0:0:0:
352,160,141493,1,8,0:0:0:0:
320,160,141640,1,8,0:0:0:0:
416,160,141787,1,4,0:0:0:0:
416,192,142081,1,0,0:0:0:0:
416,192,142228,1,0,0:0:0:0:
448,160,142375,1,8,0:0:0:0:
416,160,142522,1,0,0:0:0:0:
448,160,142595,1,0,0:0:0:0:
352,160,142669,1,8,0:0:0:0:
416,160,142816,1,8,0:0:0:0:
416,192,142963,1,4,0:0:0:0:
416,160,143257,1,0,0:0:0:0:
448,160,143404,1,0,0:0:0:0:
448,160,143551,1,8,0:0:0:0:
448,160,143625,1,8,0:0:0:0:
384,160,143698,1,0,0:0:0:0:
480,160,143845,1,8,0:0:0:0:
416,128,143993,1,0,0:0:0:0:
448,160,144140,1,12,0:0:0:0:
448,160,144287,1,0,0:0:0:0:
448,160,144434,1,0,0:0:0:0:
512,160,144581,1,12,0:0:0:0:
480,160,144728,1,0,0:0:0:0:
480,192,144875,1,0,0:0:0:0:
448,160,145022,1,12,0:0:0:0:
448,160,145169,1,0,0:0:0:0:
448,160,145243,1,0,0:0:0:0:
416,160,145316,1,8,0:0:0:0:
480,160,145463,1,0,0:0:0:0:
448,160,145610,1,12,0:0:0:0:
448,160,145904,1,8,0:0:0:0:
416,160,146051,1,0,0:0:0:0:
416,160,146125,1,0,0:0:0:0:
384,160,146198,1,8,0:0:0:0:
384,160,146272,1,8,0:0:0:0:
448,160,146345,1,0,0:0:0:0:
416,160,146493,1,12,0:0:0:0:
480,192,146787,1,0,0:0:0:0:
448,160,146934,1,8,0:0:0:0:
402,179,147081,1,8,0:0:0:0:
494,208,147228,1,0,0:0:0:0:
469,223,147301,1,0,0:0:0:0:
439,193,147375,1,8,0:0:0:0:
480,192,147522,1,0,0:0:0:0:
448,192,147669,1,8,0:0:0:0:
439,193,147963,1,8,0:0:0:0:
416,160,148110,1,0,0:0:0:0:
352,160,148257,1,8,0:0:0:0:
421,169,148331,1,8,0:0:0:0:
416,160,148404,1,0,0:0:0:0:
448,160,148551,1,8,0:0:0:0:
448,160,148698,1,8,0:0:0:0:
384,160,148845,1,0,0:0:0:0:
512,224,149140,1,0,0:0:0:0:
480,160,149287,1,8,0:0:0:0:
480,160,149360,1,8,0:0:0:0:
480,160,149434,1,8,0:0:0:0:
448,160,149581,1,0,0:0:0:0:
416,160,149728,1,8,0:0:0:0:
416,128,149875,1,8,0:0:0:0:
448,160,150022,1,0,0:0:0:0:
448,160,150169,1,0,0:0:0:0:
448,160,150243,1,0,0:0:0:0:
416,160,150316,1,8,0:0:0:0:
384,160,150463,1,0,0:0:0:0:
480,192,150610,1,8,0:0:0:0:
480,192,150684,1,8,0:0:0:0:
384,160,150757,1,0,0:0:0:0:
384,160,150831,1,0,0:0:0:0:
448,160,150904,1,8,0:0:0:0:
415,152,151198,1,4,0:0:0:0:
482,246,151493,1,0,0:0:0:0:
447,173,151640,1,8,0:0:0:0:
443,173,151787,1,0,0:0:0:0:
443,173,151934,1,0,0:0:0:0:
434,167,152081,1,8,0:0:0:0:
448,166,152228,1,0,0:0:0:0:
462,161,152375,1,8,0:0:0:0:
429,181,152522,1,8,0:0:0:0:
422,173,152669,1,0,0:0:0:0:
423,166,152816,1,8,0:0:0:0:
423,156,152963,1,8,0:0:0:0:
345,173,153110,1,0,0:0:0:0:
416,168,153257,1,8,0:0:0:0:
386,169,153404,1,0,0:0:0:0:
453,174,153551,1,12,0:0:0:0:
406,166,153698,1,0,0:0:0:0:
399,166,153772,1,0,0:0:0:0:
399,166,153845,1,0,0:0:0:0:
463,180,153993,1,8,0:0:0:0:
420,170,154140,1,0,0:0:0:0:
416,168,154213,1,0,0:0:0:0:
416,168,154287,1,0,0:0:0:0:
502,169,154434,1,8,0:0:0:0:
496,165,154581,1,0,0:0:0:0:
496,165,154654,1,0,0:0:0:0:
442,169,154728,1,8,0:0:0:0:
438,175,154875,1,0,0:0:0:0:
417,185,155022,1,12,0:0:0:0:
416,192,155316,1,0,0:0:0:0:
453,259,155463,1,8,0:0:0:0:
459,224,155537,1,8,0:0:0:0:
425,214,155610,1,0,0:0:0:0:
438,175,155684,1,8,0:0:0:0:
370,165,155757,1,0,0:0:0:0:
443,253,155904,1,12,0:0:0:0:
495,187,156198,1,0,0:0:0:0:
468,184,156493,1,8,0:0:0:0:
402,182,156787,1,8,0:0:0:0:
442,189,156934,1,4,0:0:0:0:
412,179,157375,1,0,0:0:0:0:
425,165,157669,1,8,0:0:0:0:
342,147,157963,1,0,0:0:0:0:
337,159,158257,1,12,0:0:0:0:
405,154,158551,1,0,0:0:0:0:
401,158,158845,1,8,0:0:0:0:
419,162,159140,1,8,0:0:0:0:
428,192,159287,1,4,0:0:0:0:
424,236,159728,1,0,0:0:0:0:
448,224,160022,1,8,0:0:0:0:
415,175,160169,1,0,0:0:0:0:
384,181,160316,1,8,0:0:0:0:
359,173,160390,1,8,0:0:0:0:
384,181,160463,1,8,0:0:0:0:
385,166,160610,1,4,0:0:0:0:
490,179,160904,1,8,0:0:0:0:
415,175,161051,1,0,0:0:0:0:
416,192,161125,1,0,0:0:0:0:
479,177,161198,1,0,0:0:0:0:
453,165,161345,1,0,0:0:0:0:
453,165,161493,1,8,0:0:0:0:
384,160,161640,1,8,0:0:0:0:
384,160,161713,1,8,0:0:0:0:
404,153,161787,1,0,0:0:0:0:
404,153,161934,1,0,0:0:0:0:
395,172,162081,1,8,0:0:0:0:
416,224,162228,1,0,0:0:0:0:
416,224,162301,1,0,0:0:0:0:
416,192,162375,1,8,0:0:0:0:
455,174,162522,1,0,0:0:0:0:
432,164,162669,1,8,0:0:0:0:
427,169,162816,1,0,0:0:0:0:
449,144,162963,1,12,0:0:0:0:
408,169,163257,1,8,0:0:0:0:
416,192,163404,1,12,0:0:0:0:
413,158,163698,1,0,0:0:0:0:
446,170,163845,1,12,0:0:0:0:
471,187,164287,1,0,0:0:0:0:
416,169,164434,1,8,0:0:0:0:
416,169,164581,1,0,0:0:0:0:
389,149,164728,1,8,0:0:0:0:
352,160,164875,1,0,0:0:0:0:
379,154,165022,1,8,0:0:0:0:
379,154,165095,1,8,0:0:0:0:
379,154,165169,1,8,0:0:0:0:
379,154,165243,1,8,0:0:0:0:
361,158,165316,1,0,0:0:0:0:
443,192,166493,1,8,0:0:0:0:
425,184,167669,1,4,0:0:0:0:
421,214,168845,1,0,0:0:0:0:
453,171,170022,1,12,0:0:0:0:
332,202,171198,1,8,0:0:0:0:
384,192,172375,1,4,0:0:0:0:
416,160,173551,1,12,0:0:0:0:
416,160,174140,1,12,0:0:0:0:
384,192,174728,1,4,0:0:0:0:
480,192,175610,1,0,0:0:0:0:
448,160,175904,1,12,0:0:0:0:
448,160,176493,1,8,0:0:0:0:
384,192,177081,1,4,0:0:0:0:
480,192,177669,1,0,0:0:0:0:
480,192,177816,1,0,0:0:0:0:
480,192,177963,1,0,0:0:0:0:
352,192,178257,1,12,0:0:0:0:
448,192,178845,1,8,0:0:0:0:
448,192,178993,1,8,0:0:0:0:
448,192,179140,1,8,0:0:0:0:
416,192,179287,1,8,0:0:0:0:
448,192,179434,1,4,0:0:0:0:
512,192,180316,1,0,0:0:0:0:
416,160,180610,1,12,0:0:0:0:
480,224,181198,1,8,0:0:0:0:
480,192,181787,1,4,0:0:0:0:
480,192,182669,1,0,0:0:0:0:
416,160,182963,1,12,0:0:0:0:
512,192,183404,1,0,0:0:0:0:
512,192,183478,1,0,0:0:0:0:
384,192,183551,1,8,0:0:0:0:
384,160,184140,1,4,0:0:0:0:
352,160,184434,1,8,0:0:0:0:
448,160,184728,1,0,0:0:0:0:
416,160,184875,1,0,0:0:0:0:
416,160,185022,1,8,0:0:0:0:
416,160,185169,1,8,0:0:0:0:
416,160,185243,1,8,0:0:0:0:
384,160,185316,1,0,0:0:0:0:
448,192,185463,1,0,0:0:0:0:
448,192,185537,1,0,0:0:0:0:
448,192,185610,1,8,0:0:0:0:
448,160,185757,1,0,0:0:0:0:
352,160,185904,1,8,0:0:0:0:
352,160,185978,1,8,0:0:0:0:
352,160,186051,1,8,0:0:0:0:
448,160,186198,1,0,0:0:0:0:
434,239,186345,1,8,0:0:0:0:
384,160,186493,1,8,0:0:0:0:
448,160,186787,1,0,0:0:0:0:
448,384,186934,1,8,0:0:0:0:
416,128,187081,1,0,0:0:0:0:
480,160,187228,1,8,0:0:0:0:
448,160,187301,1,8,0:0:0:0:
320,160,187375,1,0,0:0:0:0:
320,160,187448,1,0,0:0:0:0:
352,160,187522,1,0,0:0:0:0:
448,160,187669,1,8,0:0:0:0:
480,160,187816,1,0,0:0:0:0:
448,160,187963,1,8,0:0:0:0:
416,160,188110,1,8,0:0:0:0:
456,158,188404,1,0,0:0:0:0:
460,158,188551,1,8,0:0:0:0:
412,153,188845,1,8,0:0:0:0:
480,192,188993,1,0,0:0:0:0:
428,175,189066,1,0,0:0:0:0:
352,192,189140,1,8,0:0:0:0:
448,192,189287,1,0,0:0:0:0:
377,154,189434,1,8,0:0:0:0:
377,154,189507,1,8,0:0:0:0:
443,169,189581,1,0,0:0:0:0:
414,173,189728,1,8,0:0:0:0:
448,160,189875,1,0,0:0:0:0:
428,175,189948,1,0,0:0:0:0:
416,160,190022,1,8,0:0:0:0:
448,192,190169,1,0,0:0:0:0:
387,170,190316,1,8,0:0:0:0:
387,170,190390,1,8,0:0:0:0:
338,162,190463,1,0,0:0:0:0:
417,160,190610,1,8,0:0:0:0:
369,149,190684,1,0,0:0:0:0:
369,149,190757,1,0,0:0:0:0:
369,149,190831,1,0,0:0:0:0:
412,139,190904,1,8,0:0:0:0:
443,173,191051,1,8,0:0:0:0:
352,171,191198,1,0,0:0:0:0:
447,149,191493,1,8,0:0:0:0:
448,153,191640,1,0,0:0:0:0:
448,153,191787,1,0,0:0:0:0:
430,151,191934,1,8,0:0:0:0:
384,160,192007,1,0,0:0:0:0:
430,151,192081,1,8,0:0:0:0:
508,190,192228,1,0,0:0:0:0:
434,151,192375,1,8,0:0:0:0:
416,128,192669,1,0,0:0:0:0:
448,160,192816,1,8,0:0:0:0:
416,160,192963,1,0,0:0:0:0:
448,160,193110,1,0,0:0:0:0:
416,160,193257,1,8,0:0:0:0:
480,192,193331,1,8,0:0:0:0:
480,160,193404,1,0,0:0:0:0:
448,160,193551,1,12,0:0:0:0:
448,192,193845,1,0,0:0:0:0:
456,188,193993,1,0,0:0:0:0:
456,188,194066,1,0,0:0:0:0:
411,158,194140,1,8,0:0:0:0:
468,221,194287,1,0,0:0:0:0:
485,186,194434,1,8,0:0:0:0:
404,179,194728,1,0,0:0:0:0:
270,188,194875,1,8,0:0:0:0:
439,162,195022,1,0,0:0:0:0:
438,171,195169,1,8,0:0:0:0:
393,169,195316,1,0,0:0:0:0:
474,173,195390,1,8,0:0:0:0:
415,169,195463,1,0,0:0:0:0:
424,172,195537,1,0,0:0:0:0:
396,156,195610,1,8,0:0:0:0:
410,158,195757,1,0,0:0:0:0:
414,166,195904,1,8,0:0:0:0:
506,158,196198,1,0,0:0:0:0:
399,156,196345,1,8,0:0:0:0:
398,156,196419,1,8,0:0:0:0:
421,166,196493,1,0,0:0:0:0:
425,171,196640,1,0,0:0:0:0:
376,155,196787,1,8,0:0:0:0:
400,151,197081,1,0,0:0:0:0:
437,241,197228,1,0,0:0:0:0:
394,188,197375,1,8,0:0:0:0:
440,176,197522,1,0,0:0:0:0:
491,147,197669,1,8,0:0:0:0:
512,160,197816,1,0,0:0:0:0:
491,147,197890,1,0,0:0:0:0:
408,165,197963,1,8,0:0:0:0:
408,165,198037,1,8,0:0:0:0:
416,160,198110,1,0,0:0:0:0:
431,163,198257,1,12,0:0:0:0:
448,160,198551,1,8,0:0:0:0:
401,146,198698,1,0,0:0:0:0:
401,145,198772,1,0,0:0:0:0:
435,167,198845,1,8,0:0:0:0:
411,154,198993,1,0,0:0:0:0:
328,151,199140,1,8,0:0:0:0:
378,158,199287,1,0,0:0:0:0:
412,156,199360,1,8,0:0:0:0:
412,156,199434,1,8,0:0:0:0:
413,160,199581,1,0,0:0:0:0:
414,154,199728,1,8,0:0:0:0:
416,160,199875,1,0,0:0:0:0:
448,160,199948,1,0,0:0:0:0:
448,160,200022,1,8,0:0:0:0:
448,160,200095,1,8,0:0:0:0:
416,160,200169,1,0,0:0:0:0:
416,160,200316,1,8,0:0:0:0:
480,160,200463,1,8,0:0:0:0:
416,160,200610,1,4,0:0:0:0:
416,160,200904,1,8,0:0:0:0:
480,192,201051,1,0,0:0:0:0:
448,192,201125,1,0,0:0:0:0:
448,160,201198,1,8,0:0:0:0:
416,160,201345,1,8,0:0:0:0:
448,160,201419,1,0,0:0:0:0:
352,192,201493,1,8,0:0:0:0:
416,192,201640,1,8,0:0:0:0:
480,192,201787,1,0,0:0:0:0:
480,192,201860,1,0,0:0:0:0:
480,192,201934,1,0,0:0:0:0:
480,192,202007,1,0,0:0:0:0:
480,192,202081,1,8,0:0:0:0:
416,192,202228,1,8,0:0:0:0:
416,192,202301,1,8,0:0:0:0:
448,160,202375,1,0,0:0:0:0:
394,184,202522,1,0,0:0:0:0:
480,192,202595,1,0,0:0:0:0:
416,192,202669,1,8,0:0:0:0:
416,160,202816,1,0,0:0:0:0:
448,192,202963,1,12,0:0:0:0:
416,192,203257,1,8,0:0:0:0:
448,160,203404,1,0,0:0:0:0:
448,160,203551,1,0,0:0:0:0:
416,192,203698,1,8,0:0:0:0:
416,192,203772,1,8,0:0:0:0:
416,160,203845,1,0,0:0:0:0:
352,160,203993,1,0,0:0:0:0:
384,160,204140,1,8,0:0:0:0:
448,160,204287,1,0,0:0:0:0:
448,160,204360,1,0,0:0:0:0:
480,160,204434,1,8,0:0:0:0:
448,160,204581,1,0,0:0:0:0:
480,160,204728,1,8,0:0:0:0:
480,160,204875,1,8,0:0:0:0:
416,160,205169,1,8,0:0:0:0:
416,192,205316,1,0,0:0:0:0:
480,160,205463,1,0,0:0:0:0:
480,160,205537,1,0,0:0:0:0:
480,192,205610,1,8,0:0:0:0:
448,192,205684,1,8,0:0:0:0:
416,192,205757,1,0,0:0:0:0:
358,160,205904,1,8,0:0:0:0:
480,160,206051,1,0,0:0:0:0:
480,160,206125,1,0,0:0:0:0:
448,160,206198,1,8,0:0:0:0:
448,192,206345,1,8,0:0:0:0:
448,160,206493,1,0,0:0:0:0:
448,160,206640,1,0,0:0:0:0:
416,160,206787,1,8,0:0:0:0:
358,160,206934,1,8,0:0:0:0:
416,192,207007,1,0,0:0:0:0:
384,160,207081,1,8,0:0:0:0:
469,169,207228,1,0,0:0:0:0:
443,134,207375,1,8,0:0:0:0:
448,160,207669,1,4,0:0:0:0:
406,162,207816,1,0,0:0:0:0:
332,157,207963,1,8,0:0:0:0:
385,165,208110,1,0,0:0:0:0:
416,192,208184,1,8,0:0:0:0:
352,168,208257,1,8,0:0:0:0:
352,168,208404,1,8,0:0:0:0:
334,147,208551,1,0,0:0:0:0:
334,147,208698,1,0,0:0:0:0:
458,204,208845,1,8,0:0:0:0:
458,204,208993,1,8,0:0:0:0:
458,204,209066,1,8,0:0:0:0:
424,161,209140,1,0,0:0:0:0:
486,180,209287,1,0,0:0:0:0:
448,160,209360,1,0,0:0:0:0:
352,168,209434,1,8,0:0:0:0:
424,161,209581,1,0,0:0:0:0:
386,173,209728,1,8,0:0:0:0:
505,194,210022,1,8,0:0:0:0:
486,180,210169,1,0,0:0:0:0:
486,180,210316,1,0,0:0:0:0:
440,182,210463,1,0,0:0:0:0:
440,182,210537,1,0,0:0:0:0:
436,154,210610,1,8,0:0:0:0:
439,171,210757,1,0,0:0:0:0:
439,171,210904,1,0,0:0:0:0:
440,177,211051,1,0,0:0:0:0:
486,180,211125,1,8,0:0:0:0:
486,180,211198,1,8,0:0:0:0:
499,173,211345,1,0,0:0:0:0:
410,173,211493,1,8,0:0:0:0:
410,173,211640,1,8,0:0:0:0:
410,173,211713,1,8,0:0:0:0:
389,167,211787,1,0,0:0:0:0:
324,150,211934,1,0,0:0:0:0:
373,155,212081,1,8,0:0:0:0:
454,168,212154,1,8,0:0:0:0:
372,155,212228,1,8,0:0:0:0:
386,184,212375,1,4,0:0:0:0:
460,208,212669,1,0,0:0:0:0:
505,173,212816,1,0,0:0:0:0:
384,192,212890,1,8,0:0:0:0:
384,160,212963,1,8,0:0:0:0:
418,172,213110,1,0,0:0:0:0:
355,166,213257,1,8,0:0:0:0:
440,217,213404,1,8,0:0:0:0:
384,192,213478,1,8,0:0:0:0:
480,256,213551,1,0,0:0:0:0:
412,168,213698,1,0,0:0:0:0:
370,158,213845,1,8,0:0:0:0:
449,270,213919,1,0,0:0:0:0:
388,162,213993,1,0,0:0:0:0:
388,162,214066,1,0,0:0:0:0:
419,167,214140,1,8,0:0:0:0:
412,168,214287,1,0,0:0:0:0:
370,158,214360,1,8,0:0:0:0:
419,167,214434,1,8,0:0:0:0:
480,192,214581,1,0,0:0:0:0:
448,160,214728,1,8,0:0:0:0:
458,175,215022,1,8,0:0:0:0:
380,158,215169,1,0,0:0:0:0:
406,183,215243,1,0,0:0:0:0:
384,192,215316,1,8,0:0:0:0:
427,190,215463,1,0,0:0:0:0:
439,190,215610,1,8,0:0:0:0:
341,171,215757,1,8,0:0:0:0:
419,177,215831,1,0,0:0:0:0:
378,163,215904,1,8,0:0:0:0:
468,218,216051,1,0,0:0:0:0:
415,186,216198,1,8,0:0:0:0:
415,186,216345,1,8,0:0:0:0:
341,171,216419,1,8,0:0:0:0:
419,177,216493,1,0,0:0:0:0:
419,177,216640,1,0,0:0:0:0:
420,168,216787,1,8,0:0:0:0:
460,172,217081,1,8,0:0:0:0:
386,168,217154,1,0,0:0:0:0:
422,173,217228,1,8,0:0:0:0:
434,165,217375,1,0,0:0:0:0:
434,165,217448,1,0,0:0:0:0:
419,177,217522,1,8,0:0:0:0:
479,218,217669,1,8,0:0:0:0:
442,186,217743,1,8,0:0:0:0:
427,178,217816,1,0,0:0:0:0:
427,178,217890,1,0,0:0:0:0:
375,163,217963,1,8,0:0:0:0:
477,164,218037,1,8,0:0:0:0:
426,164,218110,1,0,0:0:0:0:
288,160,218257,1,8,0:0:0:0:
384,160,218404,1,0,0:0:0:0:
448,224,218551,1,0,0:0:0:0:
434,179,218625,1,0,0:0:0:0:
415,190,218698,1,8,0:0:0:0:
416,160,218772,1,0,0:0:0:0:
416,160,218845,1,8,0:0:0:0:
433,159,218993,1,0,0:0:0:0:
433,159,219066,1,0,0:0:0:0:
398,172,219140,1,8,0:0:0:0:
505,181,219434,1,4,0:0:0:0:
484,178,219581,1,8,0:0:0:0:
484,178,219654,1,8,0:0:0:0:
472,171,219728,1,8,0:0:0:0:
487,186,219875,1,4,0:0:0:0:
436,192,220022,1,8,0:0:0:0:
436,192,220095,1,8,0:0:0:0:
461,175,220169,1,0,0:0:0:0:
424,166,220316,1,12,0:0:0:0:
432,177,220463,1,0,0:0:0:0:
430,177,220537,1,0,0:0:0:0:
411,162,220610,1,8,0:0:0:0:
464,196,220757,1,4,0:0:0:0:
424,166,220904,1,8,0:0:0:0:
424,166,220978,1,8,0:0:0:0:
442,186,221051,1,0,0:0:0:0:
463,207,221198,1,8,0:0:0:0:
448,165,221272,1,0,0:0:0:0:
447,165,221345,1,0,0:0:0:0:
447,165,221419,1,0,0:0:0:0:
427,158,221493,1,8,0:0:0:0:
427,158,221566,1,8,0:0:0:0:
346,150,221640,1,0,0:0:0:0:
427,159,221787,1,12,0:0:0:0:
256,192,221934,12,8,223845,0:0:0:0:
399,220,224140,5,12,0:0:0:0:
399,220,224287,1,12,0:0:0:0:
405,173,225316,1,4,0:0:0:0:
405,173,225463,1,4,0:0:0:0:
281,181,226493,1,4,0:0:0:0:
350,187,226640,1,4,0:0:0:0:
475,184,227669,1,12,0:0:0:0:
475,184,227816,1,12,0:0:0:0:
474,188,228845,1,0,0:0:0:0:
449,186,229434,1,8,0:0:0:0:
438,214,230022,1,0,0:0:0:0:
434,188,231198,1,12,0:0:0:0:
430,191,231345,1,0,0:0:0:0:
430,191,231493,1,0,0:0:0:0:
406,167,231640,1,12,0:0:0:0:
451,170,231787,1,0,0:0:0:0:
448,171,231934,1,0,0:0:0:0:
398,180,232081,1,12,0:0:0:0:
281,150,232228,1,0,0:0:0:0:
404,179,232375,1,0,0:0:0:0:
448,224,232448,1,0,0:0:0:0:
349,99,232522,1,0,0:0:0:0:
430,180,232669,1,12,0:0:0:0:
456,169,232816,1,0,0:0:0:0:
456,169,232890,1,0,0:0:0:0:
371,160,232963,1,8,0:0:0:0:
472,180,233110,1,0,0:0:0:0:
407,173,233257,1,8,0:0:0:0:
407,173,233331,1,8,0:0:0:0:
386,152,233404,1,0,0:0:0:0:
386,152,233478,1,0,0:0:0:0:
424,158,233551,1,8,0:0:0:0:
475,203,234140,1,0,0:0:0:0:
427,201,234434,1,8,0:0:0:0:
429,184,234728,1,0,0:0:0:0:
419,183,235169,1,12,0:0:0:0:
446,183,235463,1,0,0:0:0:0:
479,196,235610,1,8,0:0:0:0:
408,222,235757,1,0,0:0:0:0:
371,178,235831,1,0,0:0:0:0:
412,179,235904,1,8,0:0:0:0:
451,179,236051,1,0,0:0:0:0:
423,167,236198,1,8,0:0:0:0:
456,168,236345,1,8,0:0:0:0:
434,166,236493,1,0,0:0:0:0:
434,166,236566,1,0,0:0:0:0:
434,166,236640,1,0,0:0:0:0:
367,154,236787,1,8,0:0:0:0:
417,168,236934,1,0,0:0:0:0:
403,170,237081,1,8,0:0:0:0:
374,164,237375,1,8,0:0:0:0:
427,153,237522,1,8,0:0:0:0:
427,153,237595,1,8,0:0:0:0:
374,164,237669,1,0,0:0:0:0:
454,164,237816,1,0,0:0:0:0:
368,164,237963,1,8,0:0:0:0:
368,164,238110,1,8,0:0:0:0:
379,153,238257,1,0,0:0:0:0:
383,154,238404,1,0,0:0:0:0:
383,154,238478,1,0,0:0:0:0:
399,182,238551,1,8,0:0:0:0:
431,171,238698,1,0,0:0:0:0:
398,162,238845,1,8,0:0:0:0:
393,156,238919,1,0,0:0:0:0:
393,156,238993,1,0,0:0:0:0:
393,156,239066,1,0,0:0:0:0:
352,159,239140,1,8,0:0:0:0:
352,159,239287,1,8,0:0:0:0:
345,175,239434,1,4,0:0:0:0:
449,217,239728,1,0,0:0:0:0:
449,217,239875,1,0,0:0:0:0:
410,177,240022,1,8,0:0:0:0:
438,171,240169,1,0,0:0:0:0:
438,171,240243,1,0,0:0:0:0:
322,154,240316,1,8,0:0:0:0:
395,154,240463,1,8,0:0:0:0:
414,166,240610,1,4,0:0:0:0:
428,151,240904,1,0,0:0:0:0:
426,151,241051,1,0,0:0:0:0:
391,147,241198,1,8,0:0:0:0:
391,147,241272,1,8,0:0:0:0:
375,149,241345,1,0,0:0:0:0:
373,154,241493,1,8,0:0:0:0:
429,158,241640,1,0,0:0:0:0:
429,167,241787,1,12,0:0:0:0:
468,175,241934,1,0,0:0:0:0:
468,175,242081,1,0,0:0:0:0:
482,174,242228,1,12,0:0:0:0:
449,181,242375,1,0,0:0:0:0:
449,181,242522,1,0,0:0:0:0:
396,179,242669,1,12,0:0:0:0:
401,175,242816,1,0,0:0:0:0:
425,159,242890,1,0,0:0:0:0:
425,167,242963,1,8,0:0:0:0:
436,173,243110,1,0,0:0:0:0:
303,204,243257,1,12,0:0:0:0:
482,160,243551,1,8,0:0:0:0:
482,160,243625,1,8,0:0:0:0:
407,160,243698,1,0,0:0:0:0:
407,160,243772,1,0,0:0:0:0:
414,157,243845,1,8,0:0:0:0:
414,157,243919,1,8,0:0:0:0:
414,157,243993,1,8,0:0:0:0:
376,173,244140,1,4,0:0:0:0:
480,192,244434,1,0,0:0:0:0:
448,160,244581,1,8,0:0:0:0:
448,160,244728,1,0,0:0:0:0:
494,208,244875,1,0,0:0:0:0:
416,160,244948,1,0,0:0:0:0:
439,193,245022,1,8,0:0:0:0:
480,192,245169,1,0,0:0:0:0:
448,192,245316,1,8,0:0:0:0:
448,192,245463,1,8,0:0:0:0:
448,192,245537,1,8,0:0:0:0:
416,160,245610,1,0,0:0:0:0:
416,160,245757,1,0,0:0:0:0:
439,193,245831,1,0,0:0:0:0:
352,160,245904,1,8,0:0:0:0:
439,193,246051,1,0,0:0:0:0:
448,160,246198,1,8,0:0:0:0:
437,179,246345,1,0,0:0:0:0:
395,188,246493,1,8,0:0:0:0:
416,160,246787,1,8,0:0:0:0:
384,160,246934,1,8,0:0:0:0:
384,160,247007,1,8,0:0:0:0:
384,160,247081,1,0,0:0:0:0:
384,160,247228,1,0,0:0:0:0:
352,160,247375,1,8,0:0:0:0:
384,128,247522,1,0,0:0:0:0:
384,128,247595,1,0,0:0:0:0:
384,192,247669,1,8,0:0:0:0:
416,160,247816,1,8,0:0:0:0:
416,160,247890,1,8,0:0:0:0:
384,192,247963,1,0,0:0:0:0:
416,160,248110,1,0,0:0:0:0:
416,192,248257,1,8,0:0:0:0:
448,160,248331,1,8,0:0:0:0:
448,160,248404,1,0,0:0:0:0:
448,160,248478,1,0,0:0:0:0:
448,160,248551,1,8,0:0:0:0:
416,160,248698,1,0,0:0:0:0:
352,192,248845,1,12,0:0:0:0:
448,256,249140,1,0,0:0:0:0:
434,173,249287,1,8,0:0:0:0:
389,162,249434,1,0,0:0:0:0:
389,162,249581,1,0,0:0:0:0:
408,166,249728,1,8,0:0:0:0:
402,158,249875,1,0,0:0:0:0:
407,156,250022,1,8,0:0:0:0:
427,227,250169,1,8,0:0:0:0:
449,151,250316,1,0,0:0:0:0:
425,156,250463,1,8,0:0:0:0:
425,156,250610,1,8,0:0:0:0:
418,152,250757,1,0,0:0:0:0:
384,162,250904,1,8,0:0:0:0:
396,158,251051,1,0,0:0:0:0:
416,192,251198,1,12,0:0:0:0:
448,192,251345,1,0,0:0:0:0:
448,192,251419,1,0,0:0:0:0:
448,192,251493,1,0,0:0:0:0:
384,224,251640,1,12,0:0:0:0:
416,192,251787,1,0,0:0:0:0:
416,192,251860,1,0,0:0:0:0:
416,192,251934,1,0,0:0:0:0:
438,193,252081,1,12,0:0:0:0:
402,152,252228,1,0,0:0:0:0:
402,152,252301,1,0,0:0:0:0:
432,177,252375,1,8,0:0:0:0:
398,181,252522,1,0,0:0:0:0:
393,207,252669,1,12,0:0:0:0:
421,182,252816,1,0,0:0:0:0:
393,171,252963,1,8,0:0:0:0:
390,170,253110,1,0,0:0:0:0:
389,169,253184,1,0,0:0:0:0:
391,165,253257,1,8,0:0:0:0:
417,198,253331,1,8,0:0:0:0:
434,181,253404,1,0,0:0:0:0:
441,184,253551,1,12,0:0:0:0:
441,177,253845,1,0,0:0:0:0:
416,160,254140,1,8,0:0:0:0:
480,192,254434,1,8,0:0:0:0:
448,160,254581,1,4,0:0:0:0:
480,192,255022,1,0,0:0:0:0:
480,160,255316,1,8,0:0:0:0:
480,160,255610,1,0,0:0:0:0:
448,192,255904,1,12,0:0:0:0:
448,192,256198,1,0,0:0:0:0:
448,160,256493,1,8,0:0:0:0:
448,160,256787,1,8,0:0:0:0:
416,192,256934,1,4,0:0:0:0:
480,192,257375,1,0,0:0:0:0:
448,160,257669,1,8,0:0:0:0:
448,160,257816,1,0,0:0:0:0:
448,160,257890,1,0,0:0:0:0:
448,160,257963,1,8,0:0:0:0:
448,160,258037,1,8,0:0:0:0:
448,160,258110,1,8,0:0:0:0:
416,160,258257,1,4,0:0:0:0:
480,192,258551,1,8,0:0:0:0:
448,160,258698,1,0,0:0:0:0:
448,160,258772,1,0,0:0:0:0:
448,160,258845,1,0,0:0:0:0:
480,160,258993,1,0,0:0:0:0:
416,128,259140,1,8,0:0:0:0:
448,160,259287,1,8,0:0:0:0:
448,160,259360,1,8,0:0:0:0:
448,160,259434,1,0,0:0:0:0:
448,160,259581,1,0,0:0:0:0:
448,160,259654,1,0,0:0:0:0:
384,160,259728,1,8,0:0:0:0:
384,160,259875,1,0,0:0:0:0:
448,160,260022,1,8,0:0:0:0:
416,192,260095,1,8,0:0:0:0:
352,160,260169,1,0,0:0:0:0:
352,160,260243,1,0,0:0:0:0:
448,160,260316,1,8,0:0:0:0:
288,160,260463,1,0,0:0:0:0:
384,160,260610,1,12,0:0:0:0:
416,192,260904,1,8,0:0:0:0:
416,160,261051,1,12,0:0:0:0:
416,160,261345,1,0,0:0:0:0:
384,192,261493,1,12,0:0:0:0:
512,192,261934,1,0,0:0:0:0:
448,160,262081,1,8,0:0:0:0:
480,160,262228,1,0,0:0:0:0:
480,160,262375,1,8,0:0:0:0:
448,160,262522,1,0,0:0:0:0:
384,160,262669,1,8,0:0:0:0:
384,160,262743,1,8,0:0:0:0:
384,160,262816,1,8,0:0:0:0:
416,224,262963,1,4,0:0:0:0:
448,192,263110,1,0,0:0:0:0:
448,192,263257,1,0,0:0:0:0:
352,160,263404,1,8,0:0:0:0:
384,128,263845,1,8,0:0:0:0:
448,160,263993,1,0,0:0:0:0:
416,160,264140,1,0,0:0:0:0:
416,192,264287,1,8,0:0:0:0:
448,160,264728,1,8,0:0:0:0:
448,160,264875,1,8,0:0:0:0:
448,160,265022,1,0,0:0:0:0:
448,160,265169,1,0,0:0:0:0:
416,160,265316,1,12,0:0:0:0:
416,192,265463,1,0,0:0:0:0:
416,192,265610,1,0,0:0:0:0:
416,160,265757,1,8,0:0:0:0:
416,160,266198,1,0,0:0:0:0:
384,160,266345,1,8,0:0:0:0:
384,160,266493,1,8,0:0:0:0:
416,160,266640,1,0,0:0:0:0:
448,160,267081,1,8,0:0:0:0:
448,160,267228,1,0,0:0:0:0:
416,160,267375,1,8,0:0:0:0:
416,160,267522,1,8,0:0:0:0:
384,160,267669,1,4,0:0:0:0:
384,192,267816,1,0,0:0:0:0:
384,192,267963,1,0,0:0:0:0:
384,160,268110,1,8,0:0:0:0:
416,160,268551,1,8,0:0:0:0:
416,160,268698,1,8,0:0:0:0:
416,160,268845,1,8,0:0:0:0:
480,160,268993,1,0,0:0:0:0:
416,160,269434,1,8,0:0:0:0:
480,160,269581,1,0,0:0:0:0:
448,192,269728,1,8,0:0:0:0:
416,160,269875,1,8,0:0:0:0:
416,160,270022,1,0,0:0:0:0:
448,160,270463,1,8,0:0:0:0:
416,160,270757,1,8,0:0:0:0:
416,160,271051,1,8,0:0:0:0:
