osu file format v14

[General]
AudioFilename: My Sweet Maiden.mp3
AudioLeadIn: 0
PreviewTime: 51787
Countdown: 0
SampleSet: Normal
StackLeniency: 0.7
Mode: 1
LetterboxInBreaks: 0
WidescreenStoryboard: 0

[Editor]
DistanceSpacing: 1
BeatDivisor: 4
GridSize: 32
TimelineZoom: 1

[Metadata]
Title:My Sweet Maiden
TitleUnicode:My Sweet Maiden
Artist:Mia REGINA
ArtistUnicode:Mia REGINA
Creator:Nardoxyribonucleic
Version:Futsuu
Source:sin 七つの大罪
Tags:Taiko Nanatsu no Taizai Seven Mortal Sins Opening iloveyou4ever Unmei Muma _Gezo_
BeatmapID:1379811
BeatmapSetID:648389

[Difficulty]
HPDrainRate:6
CircleSize:5
OverallDifficulty:4.5
ApproachRate:4
SliderMultiplier:1.4
SliderTickRate:1

[Events]
//Background and Video events
0,0,"BG.jpg",0,150
//Break Periods
//Storyboard Layer 0 (Background)
//Storyboard Layer 1 (Fail)
//Storyboard Layer 2 (Pass)
//Storyboard Layer 3 (Foreground)
//Storyboard Sound Samples

[TimingPoints]
1200,294.117647058824,4,1,0,50,1,0
10611,294.117647058824,3,1,0,70,1,0
26493,294.117647058824,4,1,0,90,1,0
31198,-100,4,1,0,85,0,0
38257,-100,4,1,0,80,0,0
42963,-100,4,1,0,90,0,0
47669,-100,4,1,0,60,0,0
50022,-100,4,1,0,90,0,0
52375,-100,4,1,0,100,0,1
80610,-100,4,1,0,95,0,0
90022,-100,4,1,0,90,0,0
113551,-100,4,1,0,85,0,0
120610,-100,4,1,0,80,0,0
125316,-100,4,1,0,90,0,0
132375,-100,4,1,0,70,0,0
134728,-100,4,1,0,90,0,0
137081,-100,4,1,0,100,0,1
165316,-100,4,1,0,80,0,0
184140,-100,4,1,0,95,0,0
224140,-100,4,1,0,90,0,0
228845,-100,4,1,0,60,0,0
231198,-100,4,1,0,90,0,0
235169,-100,4,1,0,100,0,1
262963,-100,4,1,0,90,0,0

[HitObjects]
256,192,1200,5,8,0:0:0:0:
256,192,2376,1,0,0:0:0:0:
256,192,2964,1,0,0:0:0:0:
256,192,3552,1,8,0:0:0:0:
256,192,4729,1,0,0:0:0:0:
256,192,5317,1,8,0:0:0:0:
256,192,5905,1,8,0:0:0:0:
256,192,7082,1,8,0:0:0:0:
256,192,7670,1,0,0:0:0:0:
256,192,8258,1,8,0:0:0:0:
256,192,8405,12,0,9435,0:0:0:0:
256,192,10611,5,4,0:0:0:0:
256,192,11052,1,8,0:0:0:0:
256,192,11493,1,8,0:0:0:0:
256,192,12375,1,0,0:0:0:0:
256,192,12816,1,8,0:0:0:0:
256,192,13258,1,0,0:0:0:0:
256,192,14140,1,12,0:0:0:0:
256,192,14581,1,0,0:0:0:0:
256,192,15022,1,8,0:0:0:0:
256,192,15905,1,8,0:0:0:0:
256,192,16346,1,8,0:0:0:0:
256,192,16787,1,0,0:0:0:0:
256,192,17669,1,4,0:0:0:0:
256,192,18111,1,8,0:0:0:0:
256,192,18552,1,8,0:0:0:0:
256,192,19434,1,0,0:0:0:0:
256,192,19875,1,8,0:0:0:0:
256,192,20316,1,0,0:0:0:0:
256,192,21199,1,4,0:0:0:0:
256,192,22081,1,8,0:0:0:0:
256,192,22669,1,8,0:0:0:0:
256,192,22963,1,0,0:0:0:0:
256,192,23552,1,0,0:0:0:0:
256,192,23846,1,8,0:0:0:0:
256,192,24728,1,4,0:0:0:0:
256,192,25611,1,4,0:0:0:0:
256,192,26493,1,12,0:0:0:0:
256,192,28845,1,12,0:0:0:0:
256,192,30022,1,8,0:0:0:0:
256,192,30610,1,8,0:0:0:0:
256,192,30757,1,8,0:0:0:0:
256,192,30904,1,8,0:0:0:0:
256,192,31198,1,4,0:0:0:0:
256,192,31640,1,0,0:0:0:0:
256,192,32081,1,8,0:0:0:0:
256,192,32375,1,12,0:0:0:0:
256,192,32963,1,0,0:0:0:0:
256,192,33257,1,8,0:0:0:0:
256,192,33551,1,4,0:0:0:0:
256,192,34140,1,0,0:0:0:0:
256,192,34581,1,12,0:0:0:0:
256,192,35022,1,8,0:0:0:0:
256,192,35316,1,0,0:0:0:0:
256,192,35463,1,0,0:0:0:0:
256,192,35610,1,8,0:0:0:0:
256,192,35904,1,4,0:0:0:0:
256,192,36493,1,8,0:0:0:0:
256,192,36787,1,0,0:0:0:0:
256,192,37081,1,8,0:0:0:0:
256,192,37375,1,0,0:0:0:0:
256,192,37522,1,0,0:0:0:0:
256,192,37669,1,8,0:0:0:0:
256,192,37963,1,8,0:0:0:0:
256,192,38257,1,4,0:0:0:0:
256,192,39287,1,4,0:0:0:0:
256,192,40610,1,12,0:0:0:0:
256,192,41640,1,12,0:0:0:0:
256,192,42375,1,8,0:0:0:0:
256,192,42522,1,8,0:0:0:0:
256,192,42669,1,8,0:0:0:0:
256,192,42963,1,4,0:0:0:0:
256,192,43551,1,0,0:0:0:0:
256,192,43845,1,8,0:0:0:0:
256,192,44140,1,12,0:0:0:0:
256,192,44728,1,8,0:0:0:0:
256,192,45022,1,0,0:0:0:0:
256,192,45316,1,12,0:0:0:0:
256,192,45610,1,8,0:0:0:0:
256,192,45904,1,8,0:0:0:0:
256,192,46051,1,8,0:0:0:0:
256,192,46198,1,8,0:0:0:0:
256,192,46493,1,4,0:0:0:0:
256,192,47081,1,0,0:0:0:0:
256,192,47228,1,0,0:0:0:0:
256,192,47375,1,8,0:0:0:0:
256,192,47669,1,0,0:0:0:0:
256,192,48845,1,0,0:0:0:0:
256,192,50022,1,12,0:0:0:0:
256,192,50463,1,12,0:0:0:0:
256,192,50904,1,12,0:0:0:0:
256,192,51198,1,12,0:0:0:0:
256,192,51345,1,12,0:0:0:0:
256,192,52375,1,12,0:0:0:0:
256,192,52669,1,0,0:0:0:0:
256,192,52816,1,8,0:0:0:0:
256,192,53110,1,8,0:0:0:0:
256,192,53257,1,0,0:0:0:0:
256,192,53551,1,8,0:0:0:0:
256,192,54140,1,0,0:0:0:0:
256,192,54434,1,8,0:0:0:0:
256,192,54728,1,0,0:0:0:0:
256,192,55022,1,8,0:0:0:0:
256,192,55169,1,0,0:0:0:0:
256,192,55463,1,0,0:0:0:0:
256,192,55610,1,8,0:0:0:0:
256,192,55904,1,0,0:0:0:0:
256,192,56493,1,8,0:0:0:0:
256,192,56787,1,8,0:0:0:0:
256,192,57081,1,4,0:0:0:0:
256,192,57375,1,8,0:0:0:0:
256,192,57522,1,0,0:0:0:0:
256,192,57669,1,8,0:0:0:0:
256,192,58257,1,4,0:0:0:0:
256,192,58551,1,0,0:0:0:0:
256,192,58698,1,0,0:0:0:0:
256,192,58845,1,8,0:0:0:0:
256,192,59434,1,12,0:0:0:0:
256,192,59875,1,12,0:0:0:0:
256,192,60316,1,4,0:0:0:0:
256,192,60610,1,12,0:0:0:0:
256,192,61198,1,0,0:0:0:0:
256,192,61493,1,8,0:0:0:0:
256,192,61640,1,0,0:0:0:0:
256,192,61787,1,12,0:0:0:0:
256,192,62081,1,0,0:0:0:0:
256,192,62228,1,8,0:0:0:0:
256,192,62522,1,8,0:0:0:0:
256,192,62669,1,0,0:0:0:0:
256,192,62963,1,8,0:0:0:0:
256,192,63551,1,0,0:0:0:0:
256,192,63845,1,8,0:0:0:0:
256,192,64140,1,0,0:0:0:0:
256,192,64434,1,8,0:0:0:0:
256,192,64581,1,0,0:0:0:0:
256,192,64875,1,0,0:0:0:0:
256,192,65022,1,8,0:0:0:0:
256,192,65316,1,0,0:0:0:0:
256,192,65610,1,8,0:0:0:0:
256,192,65757,1,0,0:0:0:0:
256,192,65904,1,8,0:0:0:0:
256,192,66198,1,8,0:0:0:0:
256,192,66493,1,4,0:0:0:0:
256,192,67081,1,8,0:0:0:0:
256,192,67228,1,8,0:0:0:0:
256,192,67375,1,8,0:0:0:0:
256,192,67669,1,0,0:0:0:0:
256,192,67963,1,8,0:0:0:0:
256,192,68257,1,0,0:0:0:0:
256,192,68404,1,0,0:0:0:0:
256,192,68551,1,0,0:0:0:0:
256,192,68845,1,12,0:0:0:0:
256,192,69287,1,8,0:0:0:0:
256,192,69728,1,8,0:0:0:0:
256,192,70022,1,0,0:0:0:0:
256,192,70316,1,12,0:0:0:0:
256,192,70610,1,0,0:0:0:0:
256,192,70757,1,8,0:0:0:0:
256,192,70904,1,8,0:0:0:0:
256,192,71198,1,4,0:0:0:0:
256,192,71787,1,8,0:0:0:0:
256,192,72228,1,4,0:0:0:0:
256,192,72963,1,8,0:0:0:0:
256,192,73551,1,4,0:0:0:0:
256,192,74140,1,8,0:0:0:0:
256,192,74581,1,4,0:0:0:0:
256,192,75316,1,8,0:0:0:0:
256,192,75610,1,8,0:0:0:0:
256,192,75904,1,4,0:0:0:0:
256,192,76493,1,0,0:0:0:0:
256,192,76640,1,0,0:0:0:0:
256,192,76787,1,8,0:0:0:0:
256,192,77081,1,0,0:0:0:0:
256,192,77669,1,8,0:0:0:0:
256,192,77816,1,0,0:0:0:0:
256,192,77963,1,8,0:0:0:0:
256,192,78257,1,4,0:0:0:0:
256,192,78698,1,12,0:0:0:0:
256,192,79140,1,12,0:0:0:0:
256,192,79728,1,8,0:0:0:0:
256,192,80022,1,0,0:0:0:0:
256,192,80169,1,0,0:0:0:0:
256,192,80316,1,8,0:0:0:0:
256,192,80610,1,4,0:0:0:0:
256,192,81198,1,8,0:0:0:0:
256,192,81493,1,0,0:0:0:0:
256,192,81640,1,0,0:0:0:0:
256,192,81934,1,8,0:0:0:0:
256,192,82081,1,8,0:0:0:0:
256,192,82375,1,0,0:0:0:0:
256,192,82669,1,8,0:0:0:0:
256,192,82963,1,0,0:0:0:0:
256,192,83551,1,8,0:0:0:0:
256,192,83845,1,0,0:0:0:0:
256,192,84140,1,8,0:0:0:0:
256,192,84287,1,8,0:0:0:0:
256,192,84434,2,0,L|320:192,4,35
256,192,85316,1,4,0:0:0:0:
256,192,85904,1,8,0:0:0:0:
256,192,86198,1,0,0:0:0:0:
256,192,86345,1,0,0:0:0:0:
256,192,86640,1,8,0:0:0:0:
256,192,86787,1,8,0:0:0:0:
256,192,87081,1,0,0:0:0:0:
256,192,87375,1,8,0:0:0:0:
256,192,87669,1,0,0:0:0:0:
256,192,88257,1,8,0:0:0:0:
256,192,88551,1,0,0:0:0:0:
256,192,88845,1,8,0:0:0:0:
256,192,88993,1,8,0:0:0:0:
256,192,89140,2,0,L|320:192,4,35
256,192,90022,1,4,0:0:0:0:
256,192,90316,1,8,0:0:0:0:
256,192,90904,1,8,0:0:0:0:
256,192,91198,1,0,0:0:0:0:
256,192,91493,1,8,0:0:0:0:
256,192,92081,1,0,0:0:0:0:
256,192,92228,1,8,0:0:0:0:
256,192,92375,1,0,0:0:0:0:
256,192,92669,1,8,0:0:0:0:
256,192,93257,1,8,0:0:0:0:
256,192,93551,1,0,0:0:0:0:
256,192,93845,1,8,0:0:0:0:
256,192,93993,1,0,0:0:0:0:
256,192,94140,1,8,0:0:0:0:
256,192,94434,1,8,0:0:0:0:
256,192,94728,1,4,0:0:0:0:
256,192,95022,1,8,0:0:0:0:
256,192,95610,1,8,0:0:0:0:
256,192,95904,1,0,0:0:0:0:
256,192,96198,1,8,0:0:0:0:
256,192,96787,1,0,0:0:0:0:
256,192,96934,1,8,0:0:0:0:
256,192,97081,1,0,0:0:0:0:
256,192,97375,1,8,0:0:0:0:
256,192,97963,1,8,0:0:0:0:
256,192,98257,1,0,0:0:0:0:
256,192,98551,1,8,0:0:0:0:
256,192,98845,1,8,0:0:0:0:
256,192,98993,1,8,0:0:0:0:
256,192,99140,1,8,0:0:0:0:
256,192,99434,1,4,0:0:0:0:
256,192,99728,1,8,0:0:0:0:
256,192,100316,1,8,0:0:0:0:
256,192,100610,1,0,0:0:0:0:
256,192,100904,1,8,0:0:0:0:
256,192,101493,1,0,0:0:0:0:
256,192,101640,1,8,0:0:0:0:
256,192,101787,1,0,0:0:0:0:
256,192,102081,1,8,0:0:0:0:
256,192,102669,1,8,0:0:0:0:
256,192,102963,1,0,0:0:0:0:
256,192,103257,1,8,0:0:0:0:
256,192,103404,1,0,0:0:0:0:
256,192,103551,1,8,0:0:0:0:
256,192,103845,1,8,0:0:0:0:
256,192,104140,1,4,0:0:0:0:
256,192,104434,1,8,0:0:0:0:
256,192,105022,1,8,0:0:0:0:
256,192,105316,1,4,0:0:0:0:
256,192,105610,1,8,0:0:0:0:
256,192,105757,1,0,0:0:0:0:
256,192,106051,1,8,0:0:0:0:
256,192,106198,1,8,0:0:0:0:
256,192,106493,1,4,0:0:0:0:
256,192,107081,1,0,0:0:0:0:
256,192,107375,1,8,0:0:0:0:
256,192,107669,1,8,0:0:0:0:
256,192,107816,1,8,0:0:0:0:
256,192,107963,1,8,0:0:0:0:
256,192,108257,1,0,0:0:0:0:
256,192,108404,1,0,0:0:0:0:
256,192,108551,1,8,0:0:0:0:
256,192,108845,1,4,0:0:0:0:
256,192,109434,1,8,0:0:0:0:
256,192,110022,1,4,0:0:0:0:
256,192,110610,1,8,0:0:0:0:
256,192,111198,1,12,0:0:0:0:
256,192,111640,1,8,0:0:0:0:
256,192,112081,1,8,0:0:0:0:
256,192,112375,1,8,0:0:0:0:
256,192,112669,1,8,0:0:0:0:
256,192,112963,1,8,0:0:0:0:
256,192,113110,1,8,0:0:0:0:
256,192,113257,1,8,0:0:0:0:
256,192,113551,1,4,0:0:0:0:
256,192,113993,1,0,0:0:0:0:
256,192,114434,1,8,0:0:0:0:
256,192,114728,1,12,0:0:0:0:
256,192,115316,1,0,0:0:0:0:
256,192,115610,1,8,0:0:0:0:
256,192,115904,1,4,0:0:0:0:
256,192,116493,1,0,0:0:0:0:
256,192,116934,1,12,0:0:0:0:
256,192,117375,1,8,0:0:0:0:
256,192,117669,1,0,0:0:0:0:
256,192,117816,1,0,0:0:0:0:
256,192,117963,1,8,0:0:0:0:
256,192,118257,1,4,0:0:0:0:
256,192,118845,1,8,0:0:0:0:
256,192,119140,1,0,0:0:0:0:
256,192,119434,1,8,0:0:0:0:
256,192,119728,1,0,0:0:0:0:
256,192,119875,1,0,0:0:0:0:
256,192,120022,1,8,0:0:0:0:
256,192,120316,1,8,0:0:0:0:
256,192,120610,1,4,0:0:0:0:
256,192,121640,1,4,0:0:0:0:
256,192,122963,1,12,0:0:0:0:
256,192,123993,1,12,0:0:0:0:
256,192,124728,1,8,0:0:0:0:
256,192,124875,1,8,0:0:0:0:
256,192,125022,1,8,0:0:0:0:
256,192,125316,1,4,0:0:0:0:
256,192,125904,1,0,0:0:0:0:
256,192,126198,1,8,0:0:0:0:
256,192,126493,1,12,0:0:0:0:
256,192,127081,1,8,0:0:0:0:
256,192,127375,1,0,0:0:0:0:
256,192,127669,1,12,0:0:0:0:
256,192,127963,1,8,0:0:0:0:
256,192,128257,1,8,0:0:0:0:
256,192,128404,1,8,0:0:0:0:
256,192,128551,1,8,0:0:0:0:
256,192,128845,1,4,0:0:0:0:
256,192,129434,1,0,0:0:0:0:
256,192,129581,1,0,0:0:0:0:
256,192,129728,1,8,0:0:0:0:
256,192,130022,1,4,0:0:0:0:
256,192,130610,1,8,0:0:0:0:
256,192,130904,1,8,0:0:0:0:
256,192,131198,1,4,0:0:0:0:
256,192,131493,1,0,0:0:0:0:
256,192,131787,1,8,0:0:0:0:
256,192,132375,1,0,0:0:0:0:
256,192,133551,1,12,0:0:0:0:
256,192,134140,1,4,0:0:0:0:
256,192,134728,1,12,0:0:0:0:
256,192,135169,1,12,0:0:0:0:
256,192,135610,1,12,0:0:0:0:
256,192,135904,1,12,0:0:0:0:
256,192,136051,1,12,0:0:0:0:
256,192,137081,1,12,0:0:0:0:
256,192,137375,1,0,0:0:0:0:
256,192,137522,1,8,0:0:0:0:
256,192,137816,1,8,0:0:0:0:
256,192,137963,1,0,0:0:0:0:
256,192,138257,1,8,0:0:0:0:
256,192,138845,1,0,0:0:0:0:
256,192,139140,1,8,0:0:0:0:
256,192,139434,1,0,0:0:0:0:
256,192,139728,1,8,0:0:0:0:
256,192,139875,1,0,0:0:0:0:
256,192,140169,1,0,0:0:0:0:
256,192,140316,1,8,0:0:0:0:
256,192,140610,1,0,0:0:0:0:
256,192,141198,1,8,0:0:0:0:
256,192,141493,1,8,0:0:0:0:
256,192,141787,1,4,0:0:0:0:
256,192,142081,1,8,0:0:0:0:
256,192,142228,1,0,0:0:0:0:
256,192,142375,1,8,0:0:0:0:
256,192,142963,1,4,0:0:0:0:
256,192,143257,1,0,0:0:0:0:
256,192,143404,1,0,0:0:0:0:
256,192,143551,1,8,0:0:0:0:
256,192,144140,1,12,0:0:0:0:
256,192,144581,1,12,0:0:0:0:
256,192,145022,1,4,0:0:0:0:
256,192,145316,1,12,0:0:0:0:
256,192,145904,1,0,0:0:0:0:
256,192,146198,1,8,0:0:0:0:
256,192,146345,1,0,0:0:0:0:
256,192,146493,1,12,0:0:0:0:
256,192,146787,1,0,0:0:0:0:
256,192,146934,1,8,0:0:0:0:
256,192,147228,1,8,0:0:0:0:
256,192,147375,1,0,0:0:0:0:
256,192,147669,1,8,0:0:0:0:
256,192,148257,1,0,0:0:0:0:
256,192,148551,1,8,0:0:0:0:
256,192,148845,1,0,0:0:0:0:
256,192,149140,1,8,0:0:0:0:
256,192,149287,1,0,0:0:0:0:
256,192,149581,1,0,0:0:0:0:
256,192,149728,1,8,0:0:0:0:
256,192,150022,1,0,0:0:0:0:
256,192,150316,1,8,0:0:0:0:
256,192,150463,1,0,0:0:0:0:
256,192,150610,1,8,0:0:0:0:
256,192,150904,1,8,0:0:0:0:
256,192,151198,1,4,0:0:0:0:
256,192,151787,1,8,0:0:0:0:
256,192,151934,1,8,0:0:0:0:
256,192,152081,1,8,0:0:0:0:
256,192,152375,1,0,0:0:0:0:
256,192,152669,1,8,0:0:0:0:
256,192,152963,1,0,0:0:0:0:
256,192,153110,1,0,0:0:0:0:
256,192,153257,1,0,0:0:0:0:
256,192,153551,1,12,0:0:0:0:
256,192,153993,1,8,0:0:0:0:
256,192,154434,1,8,0:0:0:0:
256,192,154728,1,0,0:0:0:0:
256,192,155022,1,12,0:0:0:0:
256,192,155316,1,0,0:0:0:0:
256,192,155463,1,8,0:0:0:0:
256,192,155610,1,8,0:0:0:0:
256,192,155904,1,4,0:0:0:0:
256,192,156493,1,8,0:0:0:0:
256,192,156934,1,4,0:0:0:0:
256,192,157669,1,8,0:0:0:0:
256,192,158257,1,4,0:0:0:0:
256,192,158845,1,8,0:0:0:0:
256,192,159287,1,4,0:0:0:0:
256,192,160022,1,8,0:0:0:0:
256,192,160316,1,8,0:0:0:0:
256,192,160610,1,4,0:0:0:0:
256,192,161198,1,0,0:0:0:0:
256,192,161345,1,0,0:0:0:0:
256,192,161493,1,8,0:0:0:0:
256,192,161787,1,0,0:0:0:0:
256,192,162375,1,8,0:0:0:0:
256,192,162522,1,0,0:0:0:0:
256,192,162669,1,8,0:0:0:0:
256,192,162963,1,4,0:0:0:0:
256,192,163404,1,12,0:0:0:0:
256,192,163845,1,12,0:0:0:0:
256,192,164434,1,8,0:0:0:0:
256,192,164728,1,0,0:0:0:0:
256,192,164875,1,0,0:0:0:0:
256,192,165022,1,8,0:0:0:0:
256,192,165316,1,4,0:0:0:0:
256,192,166493,1,0,0:0:0:0:
256,192,167081,1,8,0:0:0:0:
256,192,167669,1,4,0:0:0:0:
256,192,168845,1,8,0:0:0:0:
256,192,169434,1,0,0:0:0:0:
256,192,170022,1,12,0:0:0:0:
256,192,171198,1,0,0:0:0:0:
256,192,171787,1,8,0:0:0:0:
256,192,172375,1,4,0:0:0:0:
256,192,173551,1,12,0:0:0:0:
256,192,174140,1,12,0:0:0:0:
256,192,174728,1,4,0:0:0:0:
256,192,175904,1,12,0:0:0:0:
256,192,177081,1,4,0:0:0:0:
256,192,177669,1,0,0:0:0:0:
256,192,178257,1,12,0:0:0:0:
256,192,178845,1,8,0:0:0:0:
256,192,179434,1,4,0:0:0:0:
256,192,180610,1,12,0:0:0:0:
256,192,181787,1,4,0:0:0:0:
256,192,182963,1,12,0:0:0:0:
256,192,183551,1,12,0:0:0:0:
256,192,184140,1,4,0:0:0:0:
256,192,184728,1,0,0:0:0:0:
256,192,185022,1,8,0:0:0:0:
256,192,185316,1,0,0:0:0:0:
256,192,185463,1,0,0:0:0:0:
256,192,185610,1,8,0:0:0:0:
256,192,185904,1,0,0:0:0:0:
256,192,186198,1,8,0:0:0:0:
256,192,186493,1,8,0:0:0:0:
256,192,187081,1,0,0:0:0:0:
256,192,187375,1,8,0:0:0:0:
256,192,187669,1,0,0:0:0:0:
256,192,187963,1,8,0:0:0:0:
256,192,188110,1,0,0:0:0:0:
256,192,188404,1,0,0:0:0:0:
256,192,188551,1,8,0:0:0:0:
256,192,188845,1,4,0:0:0:0:
256,192,189434,1,0,0:0:0:0:
256,192,189728,1,8,0:0:0:0:
256,192,190022,1,0,0:0:0:0:
256,192,190316,1,8,0:0:0:0:
256,192,190610,1,0,0:0:0:0:
256,192,190904,1,8,0:0:0:0:
256,192,191051,1,8,0:0:0:0:
256,192,191198,1,0,0:0:0:0:
256,192,191787,1,0,0:0:0:0:
256,192,192081,1,8,0:0:0:0:
256,192,192375,1,8,0:0:0:0:
256,192,192669,1,8,0:0:0:0:
256,192,192816,1,0,0:0:0:0:
256,192,193110,1,0,0:0:0:0:
256,192,193257,1,8,0:0:0:0:
256,192,193551,1,12,0:0:0:0:
256,192,194140,1,0,0:0:0:0:
256,192,194434,1,8,0:0:0:0:
256,192,194728,1,0,0:0:0:0:
256,192,195022,1,8,0:0:0:0:
256,192,195169,1,0,0:0:0:0:
256,192,195316,1,0,0:0:0:0:
256,192,195610,1,8,0:0:0:0:
256,192,195904,1,8,0:0:0:0:
256,192,196493,1,0,0:0:0:0:
256,192,196787,1,8,0:0:0:0:
256,192,197081,1,0,0:0:0:0:
256,192,197375,1,8,0:0:0:0:
256,192,197669,1,0,0:0:0:0:
256,192,197816,1,8,0:0:0:0:
256,192,197963,1,8,0:0:0:0:
256,192,198257,1,12,0:0:0:0:
256,192,198845,1,0,0:0:0:0:
256,192,199140,1,8,0:0:0:0:
256,192,199434,1,0,0:0:0:0:
256,192,199728,1,8,0:0:0:0:
256,192,199875,1,0,0:0:0:0:
256,192,200022,1,8,0:0:0:0:
256,192,200316,1,8,0:0:0:0:
256,192,200610,1,4,0:0:0:0:
256,192,201198,1,8,0:0:0:0:
256,192,201493,1,8,0:0:0:0:
256,192,201640,1,8,0:0:0:0:
256,192,201787,1,8,0:0:0:0:
256,192,202081,1,0,0:0:0:0:
256,192,202375,1,0,0:0:0:0:
256,192,202522,1,0,0:0:0:0:
256,192,202669,1,0,0:0:0:0:
256,192,202963,1,12,0:0:0:0:
256,192,203551,1,0,0:0:0:0:
256,192,203845,1,8,0:0:0:0:
256,192,204140,1,0,0:0:0:0:
256,192,204434,1,8,0:0:0:0:
256,192,204728,1,0,0:0:0:0:
256,192,204875,1,8,0:0:0:0:
256,192,205169,1,0,0:0:0:0:
256,192,205610,1,8,0:0:0:0:
256,192,205904,1,0,0:0:0:0:
256,192,206198,1,8,0:0:0:0:
256,192,206345,1,0,0:0:0:0:
256,192,206493,1,8,0:0:0:0:
256,192,206787,1,8,0:0:0:0:
256,192,207081,1,0,0:0:0:0:
256,192,207669,1,4,0:0:0:0:
256,192,207963,1,8,0:0:0:0:
256,192,208110,1,8,0:0:0:0:
256,192,208257,1,0,0:0:0:0:
256,192,208551,1,8,0:0:0:0:
256,192,208845,1,0,0:0:0:0:
256,192,209140,1,8,0:0:0:0:
256,192,209287,1,0,0:0:0:0:
256,192,209434,1,0,0:0:0:0:
256,192,209728,1,8,0:0:0:0:
256,192,210022,1,0,0:0:0:0:
256,192,210610,1,8,0:0:0:0:
256,192,211198,1,0,0:0:0:0:
256,192,211493,1,8,0:0:0:0:
256,192,211640,1,0,0:0:0:0:
256,192,211934,1,0,0:0:0:0:
256,192,212081,1,8,0:0:0:0:
256,192,212375,1,12,0:0:0:0:
256,192,212963,1,8,0:0:0:0:
256,192,213110,1,8,0:0:0:0:
256,192,213404,1,0,0:0:0:0:
256,192,213551,1,8,0:0:0:0:
256,192,213845,1,8,0:0:0:0:
256,192,214140,1,0,0:0:0:0:
256,192,214287,1,0,0:0:0:0:
256,192,214434,1,8,0:0:0:0:
256,192,214728,1,0,0:0:0:0:
256,192,215022,1,8,0:0:0:0:
256,192,215169,1,0,0:0:0:0:
256,192,215463,1,8,0:0:0:0:
256,192,215610,1,8,0:0:0:0:
256,192,215904,1,0,0:0:0:0:
256,192,216493,1,8,0:0:0:0:
256,192,217081,1,4,0:0:0:0:
256,192,217375,1,8,0:0:0:0:
256,192,217669,1,0,0:0:0:0:
256,192,217816,1,0,0:0:0:0:
256,192,217963,1,8,0:0:0:0:
256,192,218257,1,0,0:0:0:0:
256,192,218551,1,8,0:0:0:0:
256,192,218845,1,8,0:0:0:0:
256,192,218993,1,8,0:0:0:0:
256,192,219140,1,0,0:0:0:0:
256,192,219434,1,4,0:0:0:0:
256,192,219875,1,4,0:0:0:0:
256,192,220316,1,12,0:0:0:0:
256,192,220757,1,4,0:0:0:0:
256,192,221198,1,4,0:0:0:0:
256,192,221493,1,8,0:0:0:0:
256,192,221640,1,8,0:0:0:0:
256,192,221787,1,4,0:0:0:0:
256,192,221934,12,0,223845,0:0:0:0:
256,192,224140,5,12,0:0:0:0:
256,192,225316,1,4,0:0:0:0:
256,192,226493,1,12,0:0:0:0:
256,192,227669,1,4,0:0:0:0:
256,192,228845,1,0,0:0:0:0:
256,192,230022,1,0,0:0:0:0:
256,192,230610,1,8,0:0:0:0:
256,192,231198,1,12,0:0:0:0:
256,192,231640,1,12,0:0:0:0:
256,192,232081,1,12,0:0:0:0:
256,192,232375,1,0,0:0:0:0:
256,192,232522,1,0,0:0:0:0:
256,192,232669,1,12,0:0:0:0:
256,192,232963,2,0,L|320:192,8,35
256,192,234728,1,0,0:0:0:0:
256,192,235169,1,12,0:0:0:0:
256,192,235610,1,0,0:0:0:0:
256,192,235904,1,8,0:0:0:0:
256,192,236198,1,8,0:0:0:0:
256,192,236345,1,0,0:0:0:0:
256,192,236493,1,0,0:0:0:0:
256,192,236787,1,8,0:0:0:0:
256,192,237081,1,0,0:0:0:0:
256,192,237375,1,8,0:0:0:0:
256,192,237522,1,0,0:0:0:0:
256,192,237816,1,0,0:0:0:0:
256,192,237963,1,8,0:0:0:0:
256,192,238257,1,0,0:0:0:0:
256,192,238845,1,8,0:0:0:0:
256,192,239140,1,8,0:0:0:0:
256,192,239434,1,4,0:0:0:0:
256,192,239728,1,8,0:0:0:0:
256,192,239875,1,0,0:0:0:0:
256,192,240022,1,8,0:0:0:0:
256,192,240610,1,4,0:0:0:0:
256,192,240904,1,0,0:0:0:0:
256,192,241051,1,0,0:0:0:0:
256,192,241198,1,8,0:0:0:0:
256,192,241787,1,12,0:0:0:0:
256,192,242228,1,12,0:0:0:0:
256,192,242669,1,4,0:0:0:0:
256,192,242963,1,12,0:0:0:0:
256,192,243551,1,0,0:0:0:0:
256,192,243845,1,8,0:0:0:0:
256,192,243993,1,0,0:0:0:0:
256,192,244140,1,12,0:0:0:0:
256,192,244434,1,0,0:0:0:0:
256,192,244581,1,8,0:0:0:0:
256,192,244875,1,8,0:0:0:0:
256,192,245022,1,0,0:0:0:0:
256,192,245316,1,8,0:0:0:0:
256,192,245904,1,0,0:0:0:0:
256,192,246198,1,8,0:0:0:0:
256,192,246493,1,0,0:0:0:0:
256,192,246787,1,8,0:0:0:0:
256,192,246934,1,0,0:0:0:0:
256,192,247228,1,0,0:0:0:0:
256,192,247375,1,8,0:0:0:0:
256,192,247669,1,0,0:0:0:0:
256,192,247963,1,8,0:0:0:0:
256,192,248110,1,0,0:0:0:0:
256,192,248257,1,8,0:0:0:0:
256,192,248551,1,8,0:0:0:0:
256,192,248845,1,4,0:0:0:0:
256,192,249140,1,8,0:0:0:0:
256,192,249434,1,8,0:0:0:0:
256,192,249581,1,8,0:0:0:0:
256,192,249728,1,8,0:0:0:0:
256,192,250022,1,0,0:0:0:0:
256,192,250316,1,8,0:0:0:0:
256,192,250610,1,0,0:0:0:0:
256,192,250757,1,0,0:0:0:0:
256,192,250904,1,0,0:0:0:0:
256,192,251198,1,12,0:0:0:0:
256,192,251640,1,8,0:0:0:0:
256,192,252081,1,8,0:0:0:0:
256,192,252375,1,0,0:0:0:0:
256,192,252669,1,12,0:0:0:0:
256,192,252963,1,0,0:0:0:0:
256,192,253110,1,8,0:0:0:0:
256,192,253257,1,8,0:0:0:0:
256,192,253551,1,4,0:0:0:0:
256,192,254140,1,8,0:0:0:0:
256,192,254581,1,4,0:0:0:0:
256,192,255316,1,8,0:0:0:0:
256,192,255904,1,4,0:0:0:0:
256,192,256493,1,8,0:0:0:0:
256,192,256934,1,4,0:0:0:0:
256,192,257669,1,8,0:0:0:0:
256,192,257963,1,8,0:0:0:0:
256,192,258257,1,4,0:0:0:0:
256,192,258845,1,0,0:0:0:0:
256,192,258993,1,0,0:0:0:0:
256,192,259140,1,8,0:0:0:0:
256,192,259434,1,0,0:0:0:0:
256,192,260022,1,8,0:0:0:0:
256,192,260169,1,0,0:0:0:0:
256,192,260316,1,8,0:0:0:0:
256,192,260610,1,4,0:0:0:0:
256,192,261051,1,12,0:0:0:0:
256,192,261493,1,12,0:0:0:0:
256,192,262081,1,8,0:0:0:0:
256,192,262375,1,0,0:0:0:0:
256,192,262522,1,0,0:0:0:0:
256,192,262669,1,8,0:0:0:0:
256,192,262963,1,4,0:0:0:0:
256,192,263404,1,8,0:0:0:0:
256,192,263845,1,8,0:0:0:0:
256,192,264287,1,0,0:0:0:0:
256,192,264728,1,8,0:0:0:0:
256,192,265022,1,0,0:0:0:0:
256,192,265316,1,12,0:0:0:0:
256,192,265757,1,0,0:0:0:0:
256,192,266198,1,8,0:0:0:0:
256,192,266640,1,0,0:0:0:0:
256,192,267081,1,8,0:0:0:0:
256,192,267669,1,4,0:0:0:0:
256,192,268110,1,8,0:0:0:0:
256,192,268551,1,8,0:0:0:0:
256,192,268993,1,0,0:0:0:0:
256,192,269434,1,8,0:0:0:0:
256,192,269728,1,0,0:0:0:0:
256,192,270022,1,8,0:0:0:0:
256,192,270463,1,8,0:0:0:0:
256,192,270757,1,8,0:0:0:0:
256,192,271051,1,8,0:0:0:0:
