osu file format v7

[General]
AudioFilename: Kapanet Nitori.mp3
AudioLeadIn: 0
PreviewTime: 93086
Countdown: 0
SampleSet: Normal
StackLeniency: 0.7
Mode: 0
LetterboxInBreaks: 0

[Editor]
DistanceSpacing: 1
BeatDivisor: 4
GridSize: 8

[Metadata]
Title:Kapanet Nitori
Artist:MiYAMO
Creator:NachoPiggy
Version:Overpriced
Source:Touhou
Tags:Kawashiro Fuujinroku Mountain of Faith Kappa Candid Friend Conagusuri saymun

[Difficulty]
HPDrainRate:7
CircleSize:4
OverallDifficulty:8
SliderMultiplier:1.6
SliderTickRate:1

[Events]
//Background and Video events
0,0,"NitoriBG.png"
Video,0,"Kapanet Nitori.avi"
//Break Periods
//Storyboard Layer 0 (Background)
//Storyboard Layer 1 (Fail)
//Storyboard Layer 2 (Pass)
//Storyboard Layer 3 (Foreground)
//Storyboard Sound Samples
//Background Colour Transformations
3,100,0,0,0

[TimingPoints]
20579.9244941541,333.333333333333,4,1,0,80,1,0
36913,333.333333333333,4,1,0,80,1,0
79086,-200,4,2,0,80,0,0
84420,-100,4,1,0,80,0,0

[Colours]
Combo1 : 255,255,255
Combo2 : 0,255,128
Combo3 : 128,255,255
Combo4 : 0,0,255
Combo5 : 255,0,0

[HitObjects]
256,192,20579,1,4
144,96,20913,5,0
216,56,21079,1,0
296,56,21246,1,0
368,96,21413,1,0
368,288,21579,5,0
296,328,21746,1,0
216,328,21913,1,0
144,288,22079,1,0
112,192,22246,6,0,L|224:192|224:192,1,80,2|0
400,192,22579,2,0,L|288:192|288:192,1,80,2|0
256,192,23246,5,4
104,144,23579,6,0,B|72:88|128:64|128:64,1,80,0|0
176,128,23913,2,0,B|208:184|152:208|152:208,1,80,0|0
408,144,24246,6,0,B|440:88|384:64|384:64,1,80,0|0
336,128,24579,2,0,B|304:184|360:208|360:208,1,80,0|0
256,240,24913,6,0,B|256:336|256:336,2,80,2|0|0
256,144,25413,2,0,B|256:48|256:48,2,80,2|0|0
336,192,25913,5,0
384,128,26079,1,0
432,192,26246,1,0
384,256,26413,1,0
176,192,26579,5,0
128,128,26746,1,0
80,192,26913,1,0
128,256,27079,1,0
184,328,27246,6,0,B|264:360|344:328|344:328,1,160
256,192,27746,1,2
328,56,27913,2,0,B|248:24|168:56|168:56,1,160
40,144,28579,5,0
88,208,28746,1,0
136,144,28913,1,0
184,208,29079,1,0
232,144,29246,1,0
280,208,29413,1,0
328,144,29579,1,0
376,208,29746,1,0
424,144,29913,1,0
448,72,30079,5,0
408,56,30163,1,0
368,48,30246,1,0
336,64,30329,1,0
296,72,30413,1,0
256,56,30496,1,0
224,40,30579,1,0
184,40,30663,1,0
152,64,30746,2,0,B|112:96|112:96,4,40
256,184,31246,5,2
80,344,31579,1,2
432,344,31913,1,2
432,40,32246,1,2
80,40,32579,1,2
256,184,32913,1,2
256,184,33246,6,2,B|192:232|336:264|208:336|208:336,1,160
256,184,33913,1,0
256,184,34246,2,2,B|192:136|336:104|208:32|208:32,1,160
152,72,34746,5,0
96,128,34913,1,0
80,208,35079,1,0
136,264,35246,1,0
208,296,35413,1,0
288,296,35579,2,0,B|352:288|352:288,1,40
320,248,35746,2,0,B|376:200|376:200,1,40
320,200,35913,2,0,B|352:152|352:152,1,40
304,152,36079,2,0,B|320:112|320:112,2,40,0|0|4
64,40,36913,6,0,B|184:40|184:40,1,80
88,192,37246,1,8
64,344,37413,2,0,B|184:344|184:344,1,80
256,192,37746,5,0
448,40,37913,6,0,B|328:40|328:40,1,80,8|0
424,192,38246,1,0
448,344,38413,2,0,B|328:344|328:344,1,80,0|8
256,192,38746,5,0
256,192,38913,1,0
256,192,38996,1,0
256,192,39079,1,0
144,144,39246,2,0,B|152:80|232:88|232:88,1,80,8|0
368,240,39579,2,0,B|360:304|280:296|280:296,1,80,8|0
200,320,39913,5,0
160,320,39996,1,0
128,296,40079,1,0
88,224,40246,1,8
88,224,40413,2,0,B|56:168|96:112|96:112,2,80,0|8|0
88,224,40913,1,2
152,120,41079,6,0,B|216:56|216:56,1,80
368,88,41413,1,2
424,240,41579,2,0,B|360:304|360:304,1,80
208,272,41913,1,2
336,336,42246,6,0,B|384:352|424:328|424:328,1,80
480,184,42579,1,8
392,48,42746,2,0,B|344:32|304:56|304:56,1,80
256,192,43079,5,0
176,336,43246,6,0,B|128:352|88:328|88:328,1,80,8|0
32,184,43579,1,0
120,48,43746,2,0,B|168:32|208:56|208:56,1,80,0|8
256,192,44079,5,0
256,192,44246,2,0,B|256:120|256:120,2,40,0|0|0
176,200,44579,6,0,B|176:312|176:312,1,80,8|0
176,280,44913,1,0
336,184,45079,6,0,B|336:72|336:72,1,80,0|8
336,104,45413,1,0
272,56,45579,6,0,B|184:56|184:56,1,80,0|0
240,328,45913,2,0,B|328:328|328:328,1,80,8|0
384,280,46246,5,2
416,256,46329,1,0
424,216,46413,2,0,B|440:160|384:136|384:136,1,80,0|2
328,184,46746,1,0
264,224,46913,1,0
200,176,47079,1,2
144,120,47246,2,0,B|104:160|136:224|136:224,1,80,0|0
112,312,47579,6,0,B|216:312|216:312,1,80
336,232,47913,1,8
184,184,48079,2,0,B|120:168|112:104|112:104,1,80
256,40,48413,5,0
400,72,48579,6,0,B|296:72|296:72,1,80,8|0
176,152,48913,1,0
328,200,49079,2,0,B|392:216|400:280|400:280,1,80,0|8
256,344,49413,5,0
184,304,49579,1,0
184,304,49663,1,0
184,304,49746,1,0
256,344,49913,2,0,B|368:344|368:344,1,80,8|0
336,264,50246,2,0,B|240:264|240:264,1,80,0|0
136,264,50579,6,0,B|96:224|120:176|120:176,1,80,8|0
256,104,50913,1,0
408,152,51079,2,0,B|448:192|424:240|424:240,1,80,0|8
304,328,51413,1,0
256,264,51579,6,0,B|224:216|224:216,2,40,0|0|0
296,192,51913,2,0,B|256:128|256:128,2,40
360,128,52246,2,0,B|320:72|320:72,2,40
360,128,52579,1,2
128,56,52912,6,0,B|96:96|56:16|48:112|48:112,1,80
96,184,53246,1,8
160,288,53412,2,0,B|144:320|72:272|104:360|104:360,1,80
256,192,53746,5,0
384,56,53912,6,0,B|416:96|456:16|464:112|464:112,1,80,8|0
416,184,54246,1,0
352,288,54412,2,0,B|368:320|440:272|408:360|408:360,1,80,0|8
256,192,54746,5,0
224,304,54913,2,0,B|160:304|136:240|136:240,1,80,0|0
288,304,55246,2,0,B|352:304|376:240|376:240,1,80,8|0
256,192,55579,1,2
368,152,55746,5,0
288,56,55913,1,0
168,88,56079,1,0
112,192,56246,1,0
168,304,56413,1,0
280,344,56579,1,0
392,304,56746,1,0
416,184,56912,6,0,B|384:136|384:136,1,40
352,160,57079,2,0,B|312:128|312:128,1,40
296,168,57246,2,0,B|248:152|248:152,1,40
240,192,57412,2,0,B|184:192|184:192,1,40
184,232,57579,2,0,B|136:256|136:256,1,40
168,288,57746,2,0,B|152:320|152:320,12,20
344,312,58412,5,0
408,264,58579,1,8
344,216,58746,1,0
408,168,58913,1,0
336,128,59079,2,0,B|296:104|288:64|288:64,1,80,0|8
232,128,59412,1,0
184,64,59579,2,0,B|144:88|136:128|136:128,1,80,0|0
160,200,59912,2,0,B|200:224|208:264|208:264,1,80,8|0
208,264,60246,1,2
56,328,60913,6,2,B|136:224|112:384|192:256|192:256,1,160,0|8
144,184,61413,1,0
80,120,61579,1,0
128,48,61746,1,0
216,40,61913,1,8
256,120,62079,1,0
296,40,62246,5,0
384,48,62412,1,0
432,120,62579,1,8
368,184,62746,1,0
328,264,62912,2,2,B|408:368|384:208|464:336|464:336,1,160,0|8
296,352,63412,5,0
240,296,63579,1,0
168,320,63746,1,0
128,320,63829,1,0
120,280,63912,2,0,B|168:200|168:200,1,80
192,136,64246,1,0
144,72,64413,1,0
216,48,64579,2,0,B|280:32|288:112|288:112,1,80,0|0
336,144,64913,2,0,B|336:256|336:256,1,80,0|0
336,352,65246,5,2
256,264,65413,1,0
176,352,65579,1,2
56,56,66246,6,2,B|160:56|160:56,1,80
296,56,66579,1,8
408,176,66746,6,2,B|304:176|304:176,1,80
168,176,67079,1,8
88,312,67246,6,2,B|192:312|192:312,1,80
328,312,67579,1,8
256,168,67746,5,0
152,40,67913,5,8
360,40,68079,5,0
256,48,68579,6,0,B|256:88|256:88,8,20
328,80,69079,5,0
320,160,69246,1,8
256,208,69413,1,0
192,160,69579,1,0
184,80,69746,1,0
256,48,69913,2,0,B|256:144|256:144,1,80,8|0
328,80,70246,6,0,B|440:80|440:80,1,80,0|0
184,80,70579,2,0,B|72:80|72:80,1,80,8|0
104,80,70913,1,2
144,304,71579,5,0
216,264,71746,1,0
144,304,71913,1,0
216,264,72079,1,0
368,304,72246,5,0
296,264,72413,1,0
368,304,72579,1,0
296,264,72746,1,0
256,192,72913,6,2,B|256:80|256:80,1,80
184,144,73246,1,0
192,64,73413,1,0
256,24,73579,1,0
320,64,73746,1,0
328,144,73913,1,0
256,192,74079,2,0,B|256:296|256:296,1,80,0|0
256,192,74413,12,0,76579
256,48,76913,5,2
48,40,77246,5,0
160,80,77413,1,0
72,168,77579,1,0
144,264,77746,1,0
232,184,77913,1,0
320,272,78079,1,0
424,216,78246,1,0
408,96,78413,1,0
288,80,78579,1,0
288,80,78746,1,6
80,56,79246,6,0,B|168:56|168:56,1,80
168,136,79746,1,2
224,192,79913,2,0,B|280:192|280:192,2,40
168,248,80412,2,0,B|144:296|192:336|192:336,1,80,2|0
248,272,80912,6,0,B|344:272|344:272,1,80
400,304,81412,2,2,B|440:264|392:216|392:216,1,80
336,176,81912,1,2
256,176,82079,5,0
256,176,82246,2,0,B|224:192|208:120|168:176|168:176,1,80
176,240,82746,2,0,B|144:224|128:296|88:240|88:240,1,80,2|0
112,176,83246,2,0,B|80:160|64:232|24:176|24:176,1,80,0|2
40,112,83746,1,2
40,112,83913,2,0,B|80:72|112:56|112:56,1,80
448,40,84579,6,0,B|504:144|408:192|408:192,1,160
264,152,85246,1,0
112,208,85579,2,0,B|56:312|152:360|152:360,1,160
448,344,86246,6,0,B|504:240|408:192|408:192,1,160
264,232,86912,1,0
112,176,87246,2,0,B|56:72|152:24|152:24,1,160,0|2
256,40,88246,5,2
56,288,88912,5,0
168,168,89246,1,2
328,168,89579,1,0
448,280,89912,1,2
256,344,90246,5,2
344,264,90412,5,0
416,168,90579,1,0
368,56,90746,1,0
256,24,90912,1,0
144,56,91079,1,0
96,168,91246,1,0
168,264,91412,1,0
240,168,91579,6,0,B|280:128|280:128,1,40
280,176,91746,2,0,B|320:160|320:160,1,40
320,200,91912,2,0,B|368:208|368:208,1,40
336,240,92079,2,0,B|368:272|368:272,1,40
328,272,92246,2,0,B|328:320|328:320,1,40
288,296,92412,2,0,B|280:336|280:336|272:336,1,40
240,320,92579,2,0,B|216:360|216:360,1,40
200,320,92746,2,0,B|160:336|160:336,2,40,0|4|0
176,240,93079,5,0
120,184,93246,1,8
160,112,93412,1,0
216,168,93579,1,0
336,240,93746,5,0
392,184,93912,1,8
352,112,94079,1,0
296,168,94246,1,2
256,96,94412,6,2,B|256:8|256:8,1,80,0|2
256,288,94746,6,2,B|256:376|256:376,1,80,0|2
152,304,95079,5,0
72,216,95246,1,8
96,96,95412,1,0
208,64,95579,1,0
192,104,95662,1,0
216,136,95746,1,0
304,64,95912,1,8
320,104,95996,1,0
296,136,96079,1,0
416,96,96246,1,0
440,216,96412,1,0
360,304,96579,1,8
40,336,96912,5,2
472,336,97246,1,2
256,40,97579,1,2
200,96,97746,6,0,B|144:152|144:152,2,40
312,96,98079,2,0,B|368:152|368:152,2,40,0|0|0
256,152,98412,5,0
216,224,98579,1,8
296,224,98746,1,0
256,296,98912,1,0
176,304,99079,6,0,B|128:296|112:240|112:240,1,80,0|8
336,304,99412,6,0,B|384:296|400:240|400:240,1,80,0|2
176,80,99746,6,2,B|128:88|112:144|112:144,1,80,0|2
336,80,100079,6,2,B|384:88|400:144|400:144,1,80,0|2
256,160,100412,6,0,B|256:216|256:216,2,40
256,160,100746,1,0
256,280,100912,5,0
144,248,101079,1,0
112,224,101163,1,0
128,184,101246,2,0,B|168:104|168:104,1,80,8|0
256,40,101579,1,0
352,112,101745,2,0,B|392:184|392:184,1,80,0|8
32,192,102246,5,2
256,352,102579,1,2
480,192,102912,1,2
432,128,103079,6,0,B|376:72|376:72,2,40,0|0|0
360,168,103412,2,0,B|304:224|304:224,2,40,0|0|0
256,48,103746,5,0
216,48,103830,1,0
184,72,103913,1,8
88,144,104079,1,0
104,264,104246,1,0
200,328,104412,1,0
320,328,104579,1,8
392,232,104746,1,0
416,200,104829,1,0
416,160,104912,1,2
368,48,105079,1,0
256,88,105246,1,2
144,48,105412,1,0
136,136,105579,5,2
64,232,105746,1,0
160,304,105912,1,0
232,208,106079,1,0
320,288,106246,6,0,B|328:344|400:344|400:344,1,80,0|0
448,192,106579,1,8
320,96,106746,2,0,B|328:40|400:40|400:40,1,80,0|0
192,96,107079,6,0,B|184:40|112:40|112:40,1,80,0|8
64,192,107412,1,0
192,288,107579,2,0,B|184:344|112:344|112:344,1,80,2|0
256,192,107912,5,2
256,192,108246,1,2
256,192,108412,2,0,B|256:248|256:248,2,40,0|0|0
360,128,108746,5,0
256,64,108912,1,0
152,128,109079,2,0,B|88:128|88:128,2,40,0|8|0
152,256,109412,1,0
256,320,109579,1,0
360,256,109746,2,0,B|424:256|424:256,2,40,0|8|0
440,168,110079,5,0
376,72,110246,1,2
304,168,110412,1,0
232,72,110579,1,2
160,168,110746,1,0
88,72,110912,1,2
24,176,111079,2,0,B|24:240|24:240,2,40
96,272,111412,2,0,B|96:336|96:336,2,40
256,248,111746,6,0,B|320:208|320:208,2,40
136,144,112079,2,0,B|104:168|88:88|40:136|40:136,1,80
216,64,112412,1,0
360,136,112579,1,0
336,296,112746,1,0
184,192,112912,6,0,B|184:128|184:128,2,40,2|0|0
184,192,113246,2,0,B|184:80|184:80,1,80,0|0
256,48,113579,5,4
328,192,113746,5,4
256,336,113912,5,4
184,192,114079,6,0,B|184:128|184:128,2,40,4|0|4
256,48,114412,5,0
408,104,114579,1,2
376,264,114746,1,0
216,280,114912,1,2
128,152,115079,1,0
256,192,115246,12,4,117412
256,200,117579,5,2
432,40,117912,1,2
80,40,118246,1,2
80,344,118579,1,2
432,344,118912,1,2
256,200,119246,1,2
256,200,119579,6,2,B|320:152|176:120|304:48|304:48,1,160
256,200,120246,1,0
256,200,120579,2,2,B|320:248|176:280|304:352|304:352,1,160
360,312,121079,5,0
416,256,121246,1,0
432,176,121412,1,0
376,120,121579,1,0
304,88,121746,1,0
224,88,121912,2,0,B|160:96|160:96,1,40
192,136,122079,2,0,B|136:184|136:184,1,40
192,184,122246,2,0,B|160:232|160:232,1,40
208,232,122412,2,0,B|192:272|192:272,2,40,0|0|4
