osu file format v7

[General]
AudioFilename: Kapanet Nitori.mp3
AudioLeadIn: 0
PreviewTime: 93086
Countdown: 0
SampleSet: Normal
StackLeniency: 0.7
Mode: 0
LetterboxInBreaks: 0

[Editor]
DistanceSpacing: 0.899999976158142
BeatDivisor: 1
GridSize: 8

[Metadata]
Title:Kapanet Nitori
Artist:MiYAMO
Creator:NachoPiggy
Version:Free
Source:Touhou
Tags:Kawashiro Fuujinroku Mountain of Faith Kappa Candid Friend Conagusuri saymun

[Difficulty]
HPDrainRate:1
CircleSize:3
OverallDifficulty:1
SliderMultiplier:1
SliderTickRate:1

[Events]
//Background and Video events
0,0,"NitoriBG.png"
Video,0,"Kapanet Nitori.avi"
//Break Periods
//Storyboard Layer 0 (Background)
//Storyboard Layer 1 (Fail)
//Storyboard Layer 2 (Pass)
//Storyboard Layer 3 (Foreground)
//Storyboard Sound Samples
//Background Colour Transformations
3,100,0,0,0

[TimingPoints]
20579.9244941541,333.333333333333,4,1,0,80,1,0
36913,333.333333333333,4,1,0,80,1,0
79086,-200,4,2,0,80,0,0
84420,-100,4,1,0,80,0,0

[Colours]
Combo1 : 255,255,255
Combo2 : 0,255,128
Combo3 : 128,255,255
Combo4 : 0,0,255
Combo5 : 255,0,0

[HitObjects]
160,144,20579,1,4
160,144,21246,2,0,B|40:200|248:288|24:360|24:360,2,200,0|0|0
344,144,23246,5,4
344,144,23913,2,0,B|464:200|256:288|480:360|480:360,2,200,0|0|0
176,72,25913,5,0
80,224,26579,2,0,B|80:360|80:360,1,100,0|0
256,288,27579,1,0
408,192,28246,2,0,B|408:56|408:56,1,100,0|0
232,104,29246,6,0,B|112:104|112:104,1,100
288,192,30246,2,0,B|408:192|408:192,1,100
256,312,31246,5,2
120,192,31913,1,2
256,80,32579,1,2
392,192,33246,1,2
256,312,33913,2,0,B|184:296|192:424|56:336|56:336,1,200
56,168,35246,2,0,B|128:184|120:56|256:144|256:144,1,200
200,216,36246,1,4
336,96,36913,6,0,B|464:136|432:296|432:296,2,200,0|0|0
152,96,38913,2,0,B|24:136|56:296|56:296,2,200,0|0|0
256,240,40912,5,0
256,240,41579,2,0,B|256:120|256:120,1,100,0|2
328,88,42246,6,0,B|448:112|296:296|480:272|480:272,2,200,0|0|0
176,192,44246,2,0,B|56:216|208:400|24:376|24:376,2,200,0|0|0
288,336,46246,6,0,B|360:344|368:256|368:256,1,100
384,200,46912,1,0
296,176,47246,1,2
208,184,47579,6,0,B|40:232|80:48|80:48,2,200,0|0|0
336,56,49579,2,0,B|504:8|464:192|464:192,2,200,0|0|0
368,232,51579,6,0,B|368:336|368:336,1,100
280,328,52246,2,0,B|280:208|280:208,1,100,0|2
192,248,52912,6,0,B|160:176|40:240|32:96|32:96,1,200,0|0
200,40,54246,2,0,B|232:112|352:48|360:192|360:192,1,200,0|0
408,328,55579,5,0
320,352,55913,1,0
232,336,56246,1,0
168,280,56579,1,0
160,192,56913,1,0
216,120,57246,1,0
304,96,57579,2,0,B|408:224|240:288|240:288,1,200,0|4
200,312,58579,6,0,B|112:216|112:216,2,100
272,256,59579,1,0
360,288,59912,2,0,B|448:384|448:384,1,100
408,184,60912,6,0,B|416:64|280:40|280:40,1,200
144,152,62246,2,0,B|136:272|272:296|272:296,1,200
424,224,63579,6,0,B|472:176|416:120|416:120,1,100
256,184,64579,1,0
80,136,65246,2,0,B|32:184|88:240|88:240,1,100
232,320,66246,6,0,B|352:320|352:320,1,100,2|0
256,208,67079,2,0,B|128:208|128:208,3,100,2|0|0|0
376,176,68912,6,0,B|368:48|216:48|216:48,1,200
120,184,70246,1,0
256,304,70912,1,0
432,288,71579,6,0,B|496:224|320:176|464:56|464:56,1,200,0|0
248,112,72912,2,0,B|184:176|360:224|216:344|216:344,1,200,0|0
256,192,74246,12,2,78746
256,48,79579,6,0,B|168:104|216:200|216:200,1,150,0|2
296,192,80912,2,0,B|384:248|336:344|336:344,1,150,0|2
264,336,82246,2,0,B|176:304|216:216|216:216,2,137.5,0|2|0
120,160,84912,6,0,B|32:264|152:376|152:376,1,200
256,224,86246,1,0
392,344,86912,2,0,B|480:240|360:128|360:128,1,200,0|2
256,32,88246,5,2
176,192,88912,5,0
216,272,89246,1,2
304,272,89579,1,0
336,192,89912,1,2
256,192,90246,12,0,92246
112,80,92912,5,0
112,80,93246,2,0,B|88:208|216:240|216:240,1,200,8|8
256,160,94246,5,2
256,160,94579,1,2
256,160,94912,1,2
392,280,95579,5,0
392,280,95912,2,0,B|456:208|304:168|448:32|448:32,1,200,8|8
320,72,96912,5,2
320,72,97246,1,2
320,72,97579,1,2
144,88,98246,5,0
88,152,98579,2,0,B|88:288|88:288,2,100,8|0|8
40,72,99579,5,2
40,72,99912,1,2
40,72,100246,1,2
200,160,100912,6,0,B|256:184|272:112|344:176|344:176,1,100,0|8
376,192,101579,1,0
344,272,101912,2,0,B|288:296|272:224|200:288|200:288,1,100,8|2
160,296,102579,5,2
160,296,102912,1,2
336,312,103579,6,0,B|440:352|440:352,2,100,0|8|0
344,224,104579,2,0,B|240:184|240:184,2,100,8|2|2
424,176,105579,1,2
264,96,106246,5,0
176,104,106579,1,8
128,184,106912,2,0,B|80:256|176:296|176:296,1,100,0|8
216,216,107579,5,2
304,216,107912,1,2
392,216,108246,1,2
312,56,108912,6,0,B|168:56|168:56,1,100,0|8
168,136,109579,2,0,B|288:136|288:136,1,100,0|8
312,216,110246,5,2
368,288,110579,1,2
280,304,110912,1,2
120,224,111579,6,0,B|144:160|224:112|224:112,2,100,0|8|0
192,280,112579,1,8
280,256,112912,2,0,B|304:320|384:368|384:368,2,100,0|8|0
256,80,114246,5,0
200,152,114579,1,2
288,160,114912,1,0
256,192,115246,12,4,116912
256,72,117579,5,2
392,192,118246,1,2
256,304,118912,1,2
120,192,119579,1,2
256,72,120246,2,0,B|328:88|320:-40|456:48|456:48,1,200
456,216,121579,2,0,B|384:200|392:328|256:240|256:240,1,200
312,168,122579,1,4
