osu file format v12

[General]
AudioFilename: MitiS - Endeavours.mp3
AudioLeadIn: 0
PreviewTime: 67856
Countdown: 0
SampleSet: Soft
StackLeniency: 0.7
Mode: 0
LetterboxInBreaks: 1
StoryFireInFront: 0
WidescreenStoryboard: 0

[Editor]
DistanceSpacing: 1.1
BeatDivisor: 4
GridSize: 4

[Metadata]
Title:Endeavours
TitleUnicode:Endeavours
Artist:MiTiS
ArtistUnicode:MiTiS
Creator:omnee
Version:Normal
Source:
Tags:
BeatmapID:352981
BeatmapSetID:141554

[Difficulty]
HPDrainRate:7
CircleSize:5
OverallDifficulty:7
ApproachRate:7
SliderMultiplier:0.7
SliderTickRate:1

[Events]
//Background and Video events
0,0,"planets-in-the-pinkish-sky-fantasy-hd-wallpaper-1920x1080-5770.jpg",0,0
//Break Periods
2,45470,55664
2,147117,157311
//Storyboard Layer 0 (Background)
//Storyboard Layer 1 (Fail)
//Storyboard Layer 2 (Pass)
//Storyboard Layer 3 (Foreground)
//Storyboard Sound Samples
//Background Colour Transformations
3,100,163,162,255

[TimingPoints]
94,352.941176470588,4,2,0,100,1,0
22682,-100,4,2,0,100,0,1
35094,-100,4,2,0,100,0,0
67858,-100,4,2,0,100,0,1
91682,-100,4,2,0,100,0,0
124329,-100,4,2,0,100,0,1
136946,-100,4,2,0,100,0,0
169505,-100,4,2,0,100,0,1
193417,-100,4,2,0,100,0,0

[Colours]
Combo1 : 170,12,188
Combo2 : 0,150,200
Combo3 : 175,196,250
Combo4 : 142,218,242
Combo5 : 41,46,214

[HitObjects]
72,208,94,38,0,L|192:112,1,140
476,208,1505,38,0,L|368:120,1,140
256,276,2917,38,0,L|256:104,1,157.5
256,192,4329,6,0,L|304:192,1,35
256,256,4682,2,0,L|300:256,1,35
252,188,5388,5,0,0:0:0:0:
192,160,5741,2,0,P|256:108|324:172,1,192.5
256,192,7152,6,0,L|256:48,1,140
256,192,8564,2,0,L|256:336,1,140
124,92,9976,6,0,L|160:92,1,35
124,156,10505,2,0,L|160:156,1,35
124,220,11388,2,0,L|160:220,1,35
256,192,12094,5,0,0:0:0:0:
256,192,12270,1,0,0:0:0:0:
320,192,12799,2,0,P|408:192|456:156,1,140
408,120,13682,1,0,0:0:0:0:
408,120,13858,1,0,0:0:0:0:
176,84,14211,6,0,P|104:128|80:176,1,140
136,200,15094,1,0,0:0:0:0:
136,200,15270,1,0,0:0:0:0:
216,192,15623,6,0,L|320:192,2,105
160,200,17035,6,0,P|248:240|296:220,1,140
336,196,17918,1,0,0:0:0:0:
336,196,18094,1,0,0:0:0:0:
304,128,18446,6,0,P|212:80|172:96,1,140
168,124,19329,1,0,0:0:0:0:
168,124,19505,1,0,0:0:0:0:
164,200,19858,6,0,P|256:220|308:200,1,140
328,180,20741,1,0,0:0:0:0:
328,180,20917,1,0,0:0:0:0:
256,72,21270,5,4,0:0:0:0:
192,176,22682,6,0,L|152:104,2,70,0|0|0,0:0|0:0|0:0,0:0:0:0:
236,236,23741,1,0,0:0:0:0:
276,184,24094,6,0,L|336:120,2,70
308,240,25152,1,0,0:0:0:0:
228,192,25505,6,0,L|152:124,2,70
212,240,26564,1,0,0:0:0:0:
256,192,26917,6,0,L|288:124,2,70
256,256,27976,1,0,0:0:0:0:
320,280,28329,6,0,L|384:336,2,70
300,212,29388,1,0,0:0:0:0:
280,144,29741,6,0,L|280:72,2,70
208,172,30799,1,0,0:0:0:0:
172,224,31152,6,0,L|108:284,2,70
244,232,32211,1,0,0:0:0:0:
220,152,32564,6,0,L|312:152,3,70
208,212,33976,6,0,L|192:300,2,70
280,216,35035,1,0,0:0:0:0:
348,184,35388,6,0,L|348:112,2,70
360,252,36446,1,0,0:0:0:0:
288,256,36799,6,0,L|192:252,2,70
148,248,37858,1,0,0:0:0:0:
196,192,38211,6,0,L|196:120,2,70
264,200,39270,1,0,0:0:0:0:
332,192,39623,6,0,L|428:160,2,70
348,116,40682,1,0,0:0:0:0:
280,120,41035,6,0,L|188:128,2,70
200,192,42094,1,0,0:0:0:0:
136,212,42446,6,0,L|72:148,2,70
184,264,43505,1,0,0:0:0:0:
232,220,43858,6,0,L|276:160,3,70
72,96,45270,5,4,0:0:0:0:
384,192,56564,6,0,P|380:116|304:104,1,140
268,100,57446,1,0,0:0:0:0:
268,100,57623,1,0,0:0:0:0:
332,100,57976,6,0,P|408:104|420:180,1,140
424,216,58858,1,0,0:0:0:0:
424,216,59035,1,0,0:0:0:0:
360,248,59388,6,0,P|356:324|280:336,1,140
244,340,60270,1,0,0:0:0:0:
244,340,60446,1,0,0:0:0:0:
256,192,60799,5,0,0:0:0:0:
376,192,61329,1,0,0:0:0:0:
152,192,61858,1,0,0:0:0:0:
96,140,62211,6,0,P|100:64|176:52,1,140
216,56,63094,1,0,0:0:0:0:
216,56,63270,1,0,0:0:0:0:
312,64,63623,6,0,P|388:68|400:144,1,140
404,180,64505,1,0,0:0:0:0:
404,180,64682,1,0,0:0:0:0:
388,256,65035,6,0,P|384:332|308:344,1,140
272,348,65917,1,0,0:0:0:0:
272,348,66094,1,0,0:0:0:0:
200,348,66446,6,0,P|204:272|280:260,1,140,0|4,0:0|0:0,0:0:0:0:
256,192,67858,6,0,L|256:112,2,70
256,256,68917,1,0,0:0:0:0:
336,192,69270,6,0,L|336:120,2,70
336,256,70329,1,0,0:0:0:0:
180,192,70682,6,0,L|180:120,2,70
180,256,71741,1,0,0:0:0:0:
256,192,72094,6,0,L|256:120,2,70
256,256,73152,1,0,0:0:0:0:
340,192,73505,6,0,L|340:120,2,70
340,256,74564,1,0,0:0:0:0:
176,192,74917,6,0,L|176:120,2,70
176,256,75976,1,0,0:0:0:0:
256,192,76329,6,0,L|256:120,2,70
256,256,77388,1,0,0:0:0:0:
220,108,77741,6,0,L|312:108,3,70
256,192,79152,6,0,L|256:120,2,70
256,256,80211,1,0,0:0:0:0:
328,192,80564,6,0,L|328:120,2,70
328,256,81623,1,0,0:0:0:0:
184,192,81976,6,0,L|184:120,2,70
184,256,83035,1,0,0:0:0:0:
256,192,83388,6,0,L|256:120,2,70
256,256,84446,1,0,0:0:0:0:
332,192,84799,6,0,L|332:120,2,70
332,256,85858,1,0,0:0:0:0:
188,192,86211,6,0,L|188:120,2,70
188,256,87270,1,0,0:0:0:0:
256,192,87623,6,0,L|256:120,2,70
256,260,88682,1,0,0:0:0:0:
256,192,89035,6,0,L|256:116,3,70
256,192,90446,6,0,L|256:120,2,70
256,256,91505,1,0,0:0:0:0:
328,192,91858,6,0,L|328:120,2,70
328,256,92917,1,0,0:0:0:0:
184,192,93270,6,0,L|184:120,2,70
184,256,94329,1,0,0:0:0:0:
256,192,94682,6,0,L|256:120,2,70
256,256,95741,1,0,0:0:0:0:
332,192,96094,6,0,L|332:120,2,70
332,256,97152,1,0,0:0:0:0:
188,192,97505,6,0,L|188:120,2,70
188,256,98564,1,0,0:0:0:0:
256,192,98917,6,0,L|256:120,2,70
256,260,99976,1,0,0:0:0:0:
224,192,100329,6,0,B|224:152|296:152|296:192,2,105
224,192,101741,2,0,L|296:192,2,70,4|0|0,0:0|0:0|0:0,0:0:0:0:
256,124,103152,2,0,L|172:124,2,70
256,232,104564,2,0,L|336:232,2,70
156,196,105976,5,0,0:0:0:0:
220,196,106505,1,0,0:0:0:0:
284,196,107035,1,0,0:0:0:0:
352,196,107388,2,0,L|424:196,2,70
384,128,108799,2,0,L|300:128,2,70
384,236,110211,2,0,L|464:236,2,70
312,236,111623,5,0,0:0:0:0:
236,232,113035,2,0,L|136:232,2,70
236,160,114446,2,0,L|312:160,2,70
236,96,115858,2,0,L|152:96,2,70
304,96,117270,5,0,0:0:0:0:
304,168,117799,1,0,0:0:0:0:
304,236,118329,1,0,0:0:0:0:
304,304,118682,2,0,L|212:304,2,70
140,304,120094,2,0,L|52:304,2,70
140,224,121505,2,0,L|216:224,2,70
212,264,122917,5,0,0:0:0:0:
284,264,123446,1,0,0:0:0:0:
360,264,123976,1,0,0:0:0:0:
428,264,124329,2,0,L|428:120,1,140,0|0,0:0|0:0,0:0:0:0:
428,64,125211,2,0,L|428:28,1,35
356,116,125741,2,0,L|356:272,1,140
356,316,126623,2,0,L|356:356,1,35
288,256,127152,2,0,L|288:100,1,140
288,52,128035,2,0,L|288:12,1,35
228,308,128564,6,0,B|296:264|200:124|304:104,1,210
332,96,129976,6,0,L|332:176,2,70
332,32,130858,1,0,0:0:0:0:
332,32,131035,1,0,0:0:0:0:
264,96,131388,6,0,L|264:172,2,70
264,32,132270,1,0,0:0:0:0:
264,32,132446,1,0,0:0:0:0:
196,92,132799,6,0,L|196:172,2,70
196,28,133682,1,0,0:0:0:0:
196,28,133858,1,0,0:0:0:0:
216,192,134211,6,0,L|296:192,3,70
256,136,135623,6,0,L|324:288,1,140
256,300,136505,1,0,0:0:0:0:
256,300,136682,1,0,0:0:0:0:
328,300,137035,2,0,L|328:224,2,70
328,360,137917,1,0,0:0:0:0:
328,360,138094,1,0,0:0:0:0:
396,220,138446,6,0,L|396:304,2,70
396,156,139329,1,0,0:0:0:0:
396,156,139505,1,0,0:0:0:0:
232,280,139858,6,0,B|304:248|216:120|292:92,1,210
396,220,141270,6,0,L|396:304,2,70
396,156,142152,1,0,0:0:0:0:
396,156,142329,1,0,0:0:0:0:
324,216,142682,6,0,L|324:300,2,70
324,152,143564,1,0,0:0:0:0:
324,152,143741,1,0,0:0:0:0:
256,216,144094,6,0,L|256:300,2,70
256,152,144976,1,0,0:0:0:0:
256,152,145152,1,0,0:0:0:0:
184,216,145505,6,0,L|184:300,2,70
184,152,146388,1,0,0:0:0:0:
184,152,146564,1,0,0:0:0:0:
44,84,146917,5,4,0:0:0:0:
80,192,158211,6,0,L|172:192,2,70
76,136,159094,1,0,0:0:0:0:
104,136,159270,1,0,0:0:0:0:
128,192,159623,6,0,L|200:192,2,70
128,136,160505,1,0,0:0:0:0:
152,136,160682,1,0,0:0:0:0:
184,188,161035,6,0,L|256:188,2,70
184,132,161917,1,0,0:0:0:0:
208,132,162094,1,0,0:0:0:0:
256,192,162446,5,0,0:0:0:0:
256,140,162976,1,0,0:0:0:0:
312,136,163505,1,0,0:0:0:0:
296,188,163858,6,0,L|368:188,2,70
296,132,164741,1,0,0:0:0:0:
324,132,164917,1,0,0:0:0:0:
352,184,165270,6,0,L|428:184,2,70
348,128,166152,1,0,0:0:0:0:
372,128,166329,1,0,0:0:0:0:
408,180,166682,6,0,L|480:180,2,70
404,128,167564,1,0,0:0:0:0:
432,128,167741,1,0,0:0:0:0:
360,180,168094,6,0,L|320:180,3,35
388,232,169505,6,0,L|316:232|312:232,2,70
440,232,170388,2,0,L|480:232,1,35
304,232,170917,6,0,L|376:232|380:232,2,70
252,232,171799,2,0,L|212:232,1,35
148,232,172329,6,0,L|76:232|72:232,2,70
200,232,173211,2,0,L|240:232,1,35
228,280,173741,6,0,B|308:248|224:152|304:100,1,210
368,100,175152,6,0,L|296:100|292:100,2,70
420,100,176035,2,0,L|460:100,1,35
416,160,176564,6,0,L|488:160|492:160,2,70
364,160,177446,2,0,L|324:160,1,35
272,160,177976,6,0,L|344:160|348:160,2,70
220,160,178858,2,0,L|180:160,1,35
256,220,179388,6,0,L|256:168,3,35
312,220,180270,1,0,0:0:0:0:
344,216,180446,1,0,0:0:0:0:
432,216,180799,6,0,B|432:180|376:168|360:172,1,70
368,156,181505,2,0,L|328:156,1,35
272,160,182211,6,0,L|344:160|348:160,2,70
220,160,183094,2,0,L|180:160,1,35
220,220,183623,6,0,L|148:220|144:220,2,70
272,220,184505,2,0,L|312:220,1,35
296,280,185035,6,0,B|352:232|272:112|328:72,1,210
376,128,186446,6,0,L|448:128|452:128,2,70
324,128,187329,2,0,L|284:128,1,35
264,128,187858,6,0,L|176:128,2,70
264,184,188741,2,0,L|264:232,1,35
264,240,189270,6,0,L|264:312,2,70
208,236,190152,2,0,L|168:236,1,35
216,172,190682,6,0,L|296:172,2,70
160,172,191564,2,0,L|120:172,1,35
216,172,192094,6,0,L|308:172,2,70
216,120,192976,2,0,L|216:80,1,35
272,116,193505,6,0,L|272:188,2,70
328,112,194388,2,0,L|368:112,1,35
328,172,194917,6,0,L|328:248,2,70
384,168,195799,2,0,L|424:168,1,35
368,260,196329,6,0,B|336:228|160:280|132:240,1,210
172,220,197741,6,0,L|172:144,2,70
228,216,198623,2,0,L|272:216,1,35
228,156,199152,6,0,L|228:84,2,70
276,156,200035,2,0,L|328:156,1,35
276,216,200564,6,0,L|360:216,2,70
216,216,201446,2,0,L|168:216,1,35
196,148,201976,6,0,L|252:148,1,35
272,148,202505,2,0,L|332:148,3,35
197,181,203388,1,0,0:0:0:0:
247,133,204799,1,0,0:0:0:0:
309,165,206211,1,0,0:0:0:0:
297,234,207623,1,0,0:0:0:0:
228,244,208152,1,0,0:0:0:0:
188,180,208682,1,0,0:0:0:0:
244,124,209035,1,4,0:0:0:0:
392,192,210446,5,0,0:0:0:0:
324,192,211858,1,0,0:0:0:0:
256,192,213270,1,4,0:0:0:0:
256,192,213976,12,0,216094,0:0:0:0:
