osu file format v9

[General]
AudioFilename: 09 Something Missing.mp3
AudioLeadIn: 0
PreviewTime: 38604
Countdown: 1
SampleSet: Normal
StackLeniency: 0.7
Mode: 0
LetterboxInBreaks: 1

[Editor]
Bookmarks: 17580,18375,71783,72379,102180,103770,114895,116087,159796,162379,162975,165359,166154,168140,172511,174895
DistanceSpacing: 0.9
BeatDivisor: 1
GridSize: 8

[Metadata]
Title:Something Missing
Artist:MiChi
Creator:Lizzehb
Version:Torture
Source:
Tags:Bayonetta

[Difficulty]
HPDrainRate:2
CircleSize:3
OverallDifficulty:2
ApproachRate:2
SliderMultiplier:1
SliderTickRate:1

[Events]
//Background and Video events
0,0,"Bayonetta-wallpaper-7.jpg"
//Break Periods
2,64234,66051
2,117877,120289
2,143307,158236
//Storyboard Layer 0 (Background)
//Storyboard Layer 1 (Fail)
//Storyboard Layer 2 (Pass)
//Storyboard Layer 3 (Foreground)
//Storyboard Sound Samples
//Background Colour Transformations
3,100,163,162,255

[TimingPoints]
13174,397.350993377483,4,1,0,70,1,0
38639,-100,4,1,0,70,0,1
64034,-100,4,1,0,70,0,0
92644,-100,4,1,0,70,0,1
118074,-100,4,1,0,70,0,0
121650,-100,4,2,0,100,0,0
143505,-100,4,1,0,70,0,0
186419,-100,4,1,0,70,0,1
211849,-100,4,1,0,70,0,0

[Colours]
Combo1 : 210,210,0
Combo2 : 202,0,0
Combo3 : 0,84,168
Combo4 : 136,2,181

[HitObjects]
112,104,13174,2,0,B|168:128|184:184,1,100,0|8
112,240,13968,2,0,B|168:216|184:160,1,100,0|8
272,184,14763,2,0,B|320:144|384:192,1,100,0|8
320,256,15558,1,0
240,304,15955,1,8
168,248,16352,1,0
240,200,16750,6,0,B|240:144,3,50,8|0|0|0
296,80,17743,2,0,B|360:80,2,50
320,168,18538,1,0
392,216,18935,1,0
464,272,19332,1,0
344,336,19928,6,0,B|288:336,2,50,8|0|0
320,248,20723,2,0,B|320:144,1,100,8|0
232,128,21518,2,0,B|182:128,4,50,8|0|0|0|8
320,120,22710,1,0
288,200,23107,2,0,B|256:240,2,50,8|0|0
328,280,23902,6,0,B|360:336|440:320,1,100,8|0
408,232,24697,1,8
408,184,24895,2,0,B|408:112,3,50,0|0|0|8
224,136,26286,6,0,B|168:240,1,100,8|0
224,296,27081,2,0,B|271:207,1,100,8|0
312,128,27875,6,0,B|352:80,4,50,8|0|0|0|8
344,160,28869,2,0,B|328:264|456:256,1,150,0|8
464,176,29862,2,0,B|520:208|504:288,1,100,0|8
416,256,30657,6,0,B|360:296,2,50,0|0|8
336,208,31452,2,0,B|232:208|232:208|152:128,1,200
248,112,32644,5,8
336,112,33041,1,0
296,192,33438,1,8
296,280,33836,1,0
216,232,34233,1,8
128,232,34630,6,0,B|78:232,2,50,0|0|8
256,192,35425,12,0,38207
256,96,38604,5,0
256,184,39001,2,0,B|256:296,1,100,8|0
176,320,39796,2,0,B|208:376|264:368,1,100,8|0
152,224,40988,6,0,B|120:160,4,50,0|0|8|0|0
224,168,42180,2,0,B|216:96|296:80,1,100,8|0
360,88,42975,2,0,B|413:96|405:168,1,100,8|0
316,294,44167,6,0,B|344:336,4,50,0|0|8|0|0
296,208,45359,1,8
208,224,45756,2,0,B|192:160|272:104,1,100,0|8
328,120,46551,1,0
456,248,47346,6,0,B|400:120|272:192,1,200
352,256,48538,1,8
304,336,48935,2,0,B|416:336,2,100,0|8|0
296,248,50127,1,8
256,168,50524,5,0
216,248,50922,1,8
168,176,51319,1,0
128,256,51717,1,8
88,176,52114,5,0
48,256,52511,1,8
8,176,52909,1,0
8,176,53306,1,8
56,96,53703,2,0,B|96:56|96:56|144:80,1,100,0|8
216,120,54498,2,0,B|256:152|256:152|248:224,1,100,0|8
160,192,55293,5,0
120,272,55690,1,8
208,272,56087,1,0
264,344,56485,1,8
360,328,56882,6,0,B|400:280|376:216,1,100,0|8
320,168,57677,2,0,B|280:120|304:56,1,100,0|8
376,112,58472,2,0,B|422:72|468:91,1,100,0|8
440,176,59266,2,0,B|458:221|418:269,1,100,0|8
352,208,60061,2,0,B|312:160|336:96,1,100,0|8
256,192,60856,12,0,62048
256,192,62445,6,0,B|256:144,3,50,0|0|8|0
256,96,63240,2,0,B|320:8|368:144|448:48,1,200,0|4
344,104,67611,6,0,B|232:104,1,100,8|0
168,104,68405,2,0,B|96:176|96:176|144:288,1,200,8|8
168,296,69399,2,0,B|208:336,1,50
248,320,69796,2,0,B|296:288,1,50,0|8
328,272,70193,2,0,B|392:328,1,50
408,224,70789,6,0,B|432:176,4,50,8|0|0|0|8
368,248,71783,2,0,B|320:264,1,50
272,264,72180,2,0,B|224:232,1,50,0|8
184,248,72577,5,0
184,160,72975,1,0
184,72,73372,1,0
88,168,73968,6,0,B|64:232,1,50,8|0
144,264,74564,2,0,B|184:296,1,50,0|8
256,192,74962,12,0,76750
256,192,77147,6,0,B|256:144,3,50,8|0|0|0
184,88,78140,1,0
96,80,78538,1,0
96,128,78736,1,8
96,176,78935,2,0,B|96:224,1,50
112,272,79332,2,0,B|152:312,1,50,0|8
280,192,80326,5,8
368,192,80723,1,0
320,272,81121,1,8
408,272,81518,1,0
456,192,81915,2,0,B|456:144,5,50,8|0|0|0|8|0
464,96,83107,2,0,B|408:56|336:104,1,100,0|8
368,128,83703,1,0
336,160,83902,2,0,B|280:200|208:152,1,100,0|8
256,192,84498,12,0,86286
256,192,86683,5,8
344,192,87081,1,0
296,112,87478,1,8
208,112,87875,1,0
160,192,88273,2,0,B|112:248,1,50,8|0
96,264,88670,2,0,B|56:312,1,50
32,336,89068,1,8
120,352,89465,5,0
208,352,89862,1,8
256,352,90061,1,0
304,352,90260,2,0,B|360:352,2,50,0|0|8
256,192,90856,12,0,92246
256,192,92644,5,0
256,104,93041,1,8
336,144,93438,1,0
336,56,93836,2,0,B|400:48|432:128,1,100,8|0
320,256,95028,6,0,B|256:296,1,50
232,280,95425,2,0,B|189:253,1,50,8|0
176,208,95823,2,0,B|176:96,1,100,0|8
264,136,96617,2,0,B|384:136,1,100,0|8
360,224,97412,2,0,B|360:344,1,100,0|8
272,296,98207,6,0,B|224:296,1,50
192,264,98604,2,0,B|136:200,1,50,8|0
136,192,99001,1,0
104,112,99399,1,8
152,32,99796,1,0
240,32,100193,1,8
296,104,100591,1,0
272,192,100988,1,8
336,256,101385,6,0,B|384:296,3,50,0|0|8|0
408,320,102180,1,0
464,248,102577,1,8
400,184,102975,1,0
464,120,103372,1,8
392,64,103770,1,0
464,8,104167,1,8
392,64,104564,5,0
320,120,104962,1,8
256,56,105359,2,0,B|200:104|248:176,1,100,0|8
320,120,106154,2,0,B|351:161|295:209,1,100,0|8
208,192,106948,2,0,B|176:233|232:281,1,100,0|8
144,304,107743,6,0,B|112:264,3,50,0|0|8|0
88,224,108538,1,0
128,144,108935,1,8
216,144,109332,1,0
248,224,109730,1,8
208,304,110127,1,0
120,304,110524,1,8
160,224,110922,6,0,B|160:104,1,100,0|8
72,128,111717,2,0,B|72:56|144:32,1,100,0|8
208,48,112511,2,0,B|252:59|252:131,1,100,0|8
224,216,113306,1,0
200,304,113703,1,8
112,328,114101,1,0
48,264,114498,1,8
256,192,114895,12,0,116087
256,192,116485,6,0,B|256:144,4,50
256,280,117677,1,6
336,96,121849,5,0
304,128,122048,1,0
272,160,122246,2,0,B|224:208,2,50,0|2|0
232,80,123041,6,0,B|184:32,2,50,0|2|0
216,120,123637,2,0,B|176:168,2,50,0|0|2
256,192,124233,12,0,126816
88,312,128207,6,0,B|136:312,2,50
56,280,128803,2,0,B|-8:168|128:104,1,200,2|2
108,114,129796,1,0
108,114,129995,1,0
192,136,130392,2,0,B|240:160,2,50,2|0|0
256,192,131187,12,0,133173
184,144,133571,6,0,B|264:208,1,100,2|0
262,206,134366,1,2
312,128,134763,2,0,B|376:144|352:240,1,100,0|2
312,280,135558,1,0
224,280,135955,6,0,B|104:280,1,100,2|0
64,216,136750,2,0,B|8:120,1,100,2|0
256,256,138339,5,2
336,296,138736,1,0
384,216,139134,1,2
256,192,139531,12,0,143107
240,272,159796,6,0,B|328:176|192:176|248:88,1,200,8|8
328,120,160988,1,0
384,48,161385,2,0,B|448:72|424:168,1,100,8|0
328,120,162180,1,8
184,232,162975,6,0,B|136:272,2,50,8|0|0
136,152,163770,2,0,B|192:112|256:168,1,100,8|0
240,56,164564,1,8
312,104,164962,1,0
312,192,165359,1,8
312,192,165558,1,0
312,192,165756,1,0
310,279,166154,6,0,B|70:279|54:23|318:23,1,500,8|0
288,112,168538,1,8
288,112,168736,1,0
288,112,168935,1,0
256,192,169332,12,0,170922
328,128,172511,6,0,B|328:192,2,50,8|0|0
328,40,173306,2,0,B|256:40|232:120,1,100,8|0
328,40,174101,2,0,B|400:40|424:120,1,100
328,128,174895,1,0
152,152,175690,6,0,B|72:240|152:344,1,200
224,296,176882,1,0
312,296,177279,2,0,B|304:224|232:208,1,100
168,216,178074,2,0,B|168:168,2,50
256,192,178869,12,0,180856
256,192,181253,6,0,B|256:144,2,50
256,192,182048,12,0,184034
256,88,186419,5,0
256,176,186816,1,0
256,264,187213,1,0
336,224,187611,1,0
336,136,188008,1,0
168,192,188803,6,0,B|168:256,1,50
192,280,189200,2,0,B|240:328,1,50
264,344,189597,2,0,B|368:304,1,100
400,296,190193,1,0
392,248,190392,2,0,B|496:208,2,100
256,152,191981,6,0,B|200:152,1,50
160,152,192379,2,0,B|104:152,1,50
64,152,192776,1,0
64,240,193173,1,0
128,304,193571,1,0
192,240,193968,1,0
192,152,194366,1,0
368,192,195160,6,0,B|320:136,1,50
304,128,195558,1,0
272,96,195756,1,0
224,96,195955,2,0,B|168:56|96:120,1,100
176,168,196750,2,0,B|120:208|48:144,1,100
40,88,197544,1,0
40,88,197743,1,0
40,88,197942,1,0
128,88,198339,6,0,B|120:144|72:168,1,100
152,216,199134,2,0,B|198:192|206:136,1,100
280,192,199928,2,0,B|272:247|225:270,2,100
160,328,201518,6,0,B|200:296,3,50
232,264,202313,2,0,B|296:264|296:184,1,100
232,264,203107,2,0,B|168:264|168:184,1,100
232,144,203902,2,0,B|232:32,1,100
152,80,204697,6,0,B|80:128,1,50
96,144,205094,2,0,B|96:208,1,50
96,240,205491,1,0
160,304,205889,1,0
224,240,206286,2,0,B|272:192,2,50
136,216,207081,5,0
88,144,207478,1,0
144,72,207875,1,0
200,144,208273,1,0
256,192,208670,12,0,209862
256,192,210260,6,0,B|256:144,1,50
296,120,210657,2,0,B|296:64,1,50
336,48,211054,1,0
376,64,211253,2,0,B|456:104,2,50
256,192,211849,12,4,213438
