osu file format v5

[General]
AudioFilename: Metro Station - wish we were older.mp3
AudioLeadIn: 0
PreviewTime: 68308
Countdown: 1
SampleSet: Normal
StackLeniency: 0.4
Mode: 0
LetterboxInBreaks: 1

[Metadata]
Title:Wish We Were Older
Artist:Metro Station
Creator:Gladi
Version:Normal
Source:
Tags:

[Difficulty]
HPDrainRate:5
CircleSize:4
OverallDifficulty:5
SliderMultiplier:1.4
SliderTickRate:2

[Events]
//Background and Video events
0,0,"metrostationalbum.jpg"
//Break Periods
2,70650,76621
2,120364,125478
//Storyboard Layer 0 (Background)
//Storyboard Layer 1 (Failing)
//Storyboard Layer 2 (Passing)
//Storyboard Layer 3 (Foreground)
//Storyboard Sound Samples
//Background Colour Transformations
3,100,163,162,255

[TimingPoints]
13880,428.571428571429,4,1,0,80,1
27594,428.571428571429,4,1,0,100,0
55022,428.571428571429,4,1,0,80,0
56736,428.571428571429,4,1,0,100,0
104736,428.571428571429,4,1,0,80,0
106450,428.571428571429,4,1,0,100,0
127021,428.571428571429,4,2,0,100,0
133021,428.571428571429,4,2,0,50,0
133878,428.571428571429,4,1,0,100,0

[Colours]
Combo1 : 255,150,0
Combo2 : 5,240,5
Combo3 : 5,5,240
Combo4 : 240,5,5

[HitObjects]
176,152,27594,2,0,B|144:128|168:88,2,70,0|0|4
296,152,28451,1,0
296,152,28665,2,0,B|312:200|352:200,1,70,0|4
232,240,29308,1,0
112,264,29736,1,4
112,200,29951,5,0
112,136,30165,2,0,B|112:88|56:72,1,70
192,80,30808,1,8
296,128,31236,1,0
352,128,31451,5,4
256,192,31879,1,0
336,280,32308,1,4
216,264,32736,1,0
104,296,33165,1,4
120,176,33594,1,0
120,112,33808,6,8,B|120:24,1,70,10|8
232,72,34451,5,0
280,104,34665,2,0,B|328:128|400:112|424:96,2,140
168,152,35951,2,0,B|80:216|144:280,1,140
248,256,36808,1,0
296,216,37022,2,0,B|344:208|368:168,1,70
456,240,37665,2,0,B|496:192|496:120|480:96|440:72|384:80,1,210,0|4
296,88,38736,5,0
176,88,39165,2,0,B|128:144|40:88,1,140,4|0
88,200,40022,1,4
208,216,40451,1,0
256,240,40665,6,0,B|320:280|384:264|416:216|368:168,1,210,0|0
272,96,41736,1,4
392,80,42165,1,0
448,184,42594,1,4
384,184,42808,1,0
272,208,43236,5,0
224,240,43451,2,0,B|152:272|104:240|120:192,1,140,4|0
120,144,44094,2,0,B|107:107|155:75|227:107,1,140,0|8
256,192,44736,12,4,46879
312,272,47522,6,8,B|224:272,1,70,10|8
184,296,47951,1,0
128,272,48165,2,0,B|56:264|37:183|81:144|128:135|189:164|172:184|185:200|184:230|168:240,2,280
168,312,50094,5,0
224,312,50308,2,0,B|272:312|288:272,1,70
312,232,50736,2,0,B|368:184|424:192|456:192|472:152|456:112,1,210,0|4
336,96,51808,6,0,B|248:96,1,70,0|4
208,96,52236,2,2,B|120:96,1,70
96,136,52665,2,0,B|184:136,1,70,0|4
208,176,53094,2,2,B|120:176,1,70
96,216,53522,2,0,B|176:216,1,70,0|4
208,256,53951,2,2,B|120:256,1,70
96,296,54379,2,0,B|184:296,1,70,0|4
224,296,54808,2,0,B|328:296,1,70,0|4
256,192,55129,12,4,56093
312,224,56736,5,4
280,272,56950,2,0,B|216:328|128:312|128:296,2,140
208,184,58236,2,0,B|200:128|320:112,1,140
312,113,58878,1,4
424,112,59307,1,4
424,112,59521,1,0
400,224,59950,6,0,B|376:272|296:280|232:256|184:272,1,210,0|4
152,264,60807,1,0
96,264,61021,2,0,B|32:264|8:232,1,70,4|0
88,152,61664,2,0,B|120:104|184:152|192:176|248:184|272:176|288:152,1,210
320,120,62521,2,0,B|344:80|432:88|464:120,1,140
400,208,63378,6,0,B|352:208,2,35,0|0|4
456,208,63807,2,0,B|488:240|480:312|440:328|352:328,1,210,0|4
353,327,64664,1,0
240,320,65093,2,0,B|192:264|104:336|72:312|72:272|112:240,1,210,0|4
128,200,65950,1,0
128,200,66164,1,4
128,200,66378,1,0
192,112,66807,6,0,B|256:72|312:128|328:168|400:128,1,210,0|4
384,192,67664,1,0
368,240,67878,2,0,B|336:312|304:264,1,70,4|0
216,320,68521,2,4,B|120:336|64:288|56:224|112:200|208:216|264:176|272:136|248:96|200:64|128:72|72:112,1,490
101,95,70450,1,4
416,104,77521,6,0,B|440:144|376:176,1,70
360,208,77950,1,0
320,248,78164,1,0
264,152,78593,2,0,B|240:112|192:112,1,70,4|0
96,112,79236,2,0,B|65:110|41:151,1,70,0|4
40,208,79664,5,0
40,264,79878,2,0,B|40:320|176:312,1,140,0|4
208,312,80521,2,0,B|280:312|320:296|264:240,1,140,8|0
268,244,81164,5,4
264,128,81593,1,0
368,168,82021,2,0,B|400:184|456:160,1,70,4|0
368,80,82664,1,0
312,80,82878,1,4
264,48,83093,1,0
216,80,83307,1,0
160,80,83521,1,0
104,80,83736,2,0,B|56:104|64:192|96:200,1,140,4|0
80,256,84378,6,0,B|72:328|168:352|208:344|200:280|280:280|320:296,1,280
309,292,85450,1,4
400,224,85878,1,0
344,208,86093,5,0
288,224,86307,1,4
232,208,86521,2,0,B|144:208,2,70
312,128,87378,2,0,B|352:80|312:56|288:56|256:64|240:88|216:88|192:80|200:48|216:32,1,210,0|4
120,96,88450,2,0,B|64:144|88:208|128:216|104:224,1,140,0|4
216,200,89307,2,0,B|280:248|216:304|176:288|176:280,1,140,0|4
272,336,90164,1,0
328,328,90378,6,8,B|376:304|408:344,1,70,10|12
448,328,90807,1,0
480,280,91021,2,0,B|472:224|448:224|416:232|376:248|360:216,1,140,0|4
288,152,91878,1,0
176,136,92307,2,0,B|136:176|96:160,1,70,4|0
80,272,92950,5,0
128,296,93164,2,0,B|240:312|336:304|416:224|440:192|432:160,1,350,4|0
432,178,94450,1,0
320,160,94878,1,4
240,80,95307,1,0
152,144,95736,2,0,B|88:152|88:112,1,70,4|0
48,160,96164,2,0,B|16:200|56:280|144:296|200:264|184:240,1,210
280,232,97236,5,0
336,232,97450,2,0,B|400:232|400:264,2,70,4|0|0
280,136,98307,1,4
280,232,98736,1,0
200,304,99164,2,0,B|136:336|128:312,1,70,4|0
80,320,99593,1,0
96,208,100021,5,4
40,192,100236,2,0,B|24:112|80:96|128:120,1,140
224,144,101093,6,0,B|344:192|424:120,1,210,8|0
424,176,101950,2,0,B|424:248,1,70,0|4
424,304,102378,2,2,B|336:304,1,70
296,304,102807,2,0,B|296:232,1,70,0|4
296,176,103236,2,2,B|208:176,1,70
168,176,103664,2,0,B|168:248,1,70,0|4
168,304,104093,2,10,B|88:304,1,70
40,304,104521,2,0,B|40:224,1,70,0|4
40,176,104950,6,8,B|40:96,1,70
144,64,105593,1,4
232,136,106021,1,0
312,224,106450,5,4
280,272,106664,2,0,B|216:328|128:312|128:296,2,140
208,184,107950,2,0,B|200:128|320:112,1,140
312,113,108592,1,4
424,112,109021,1,4
424,112,109235,1,0
400,224,109664,6,0,B|376:272|296:280|232:256|184:272,1,210,0|4
152,264,110521,1,0
96,264,110735,2,0,B|32:264|8:232,1,70,4|0
88,152,111378,2,0,B|120:104|184:152|192:176|248:184|272:176|288:152,1,210
320,120,112235,2,0,B|344:80|432:88|464:120,1,140
400,208,113092,6,0,B|352:208,2,35,0|0|4
456,208,113521,2,0,B|488:240|480:312|440:328|352:328,1,210,0|4
353,327,114378,1,0
240,320,114807,2,0,B|192:264|104:336|72:312|72:272|112:240,1,210,0|4
128,200,115664,1,0
128,200,115878,1,4
128,200,116092,1,0
192,112,116521,6,0,B|256:72|312:128|328:168|400:128,1,210,0|4
384,192,117378,1,0
368,240,117592,2,0,B|336:312|304:264,1,70,4|0
216,320,118235,2,4,B|120:336|64:288|56:224|112:200|208:216|264:176|272:136|248:96|200:64|128:72|72:112,1,490
101,95,119950,1,2
101,95,120164,1,6
256,192,126592,12,0,133021
200,224,133878,5,6
232,272,134092,2,2,B|296:328|384:312|384:296,2,140
304,184,135378,2,2,B|312:128|192:112,1,140
200,113,136020,1,6
88,112,136449,1,6
88,112,136663,1,2
112,224,137092,6,2,B|136:272|216:280|280:256|328:272,1,210,2|6
360,264,137949,1,4
416,264,138163,2,2,B|480:264|504:232,1,70,6|2
424,152,138806,2,2,B|392:104|328:152|320:176|264:184|240:176|224:152,1,210
192,120,139663,2,2,B|168:80|80:88|48:120,1,140
112,208,140520,6,0,B|160:208,2,35,0|0|4
56,208,140949,2,0,B|24:240|32:312|72:328|160:328,1,210,0|4
159,327,141806,1,0
272,320,142235,2,0,B|320:264|408:336|440:312|440:272|400:240,1,210,0|4
384,200,143092,1,0
384,200,143306,1,4
384,200,143520,1,0
320,112,143949,6,0,B|256:72|200:128|184:168|112:128,1,210,0|4
128,192,144806,1,0
144,240,145020,2,0,B|176:312|208:264,1,70,4|0
296,320,145663,2,4,B|392:336|448:288|456:224|400:200|304:216|248:176|240:136|264:96|312:64|384:72|440:112,1,490
411,95,147592,5,4
296,80,148020,1,8
208,152,148449,1,4
112,96,148878,2,0,B|56:136|88:208|128:232,1,140,8|4
208,264,149735,1,8
320,256,150163,1,4
208,264,150592,1,8
240,160,151020,2,0,B|360:168|352:80,1,140,4|8
432,184,151878,2,0,B|464:304|408:312,1,140,4|8
256,192,152735,12,0,154449
256,192,154878,6,0,B|224:248|128:248,1,140,4|0
176,144,155735,2,0,B|224:96|248:96|304:112,1,140,4|0
384,184,156592,1,4
312,272,157020,2,2,B|376:312,3,70
416,344,157878,2,0,B|480:328|480:224,1,140,4|0
408,144,158735,2,0,B|384:128|288:184|256:128,1,140,4|0
160,176,159592,2,0,B|80:224|176:280,1,140,4|0
272,232,160449,2,4,B|360:264|424:224,2,140,4|4|6
