osu file format v5

[General]
AudioFilename: 07 True to Me.mp3
AudioLeadIn: 0
PreviewTime: 31095
Countdown: 1
SampleSet: Normal
StackLeniency: 0.7
Mode: 0
LetterboxInBreaks: 1
EditorBookmarks: 6596,30596,51396,57796,83395,102595,117595,123995,137795

[Metadata]
Title:True to Me
Artist:Metro Station
Creator:mrtn
Version:Hard
Source:
Tags:

[Difficulty]
HPDrainRate:6
CircleSize:5
OverallDifficulty:7
SliderMultiplier:2.1
SliderTickRate:2

[Events]
//Background and Video events
0,0,"MetroStation013.jpg"
//Break Periods
2,51595,54495
2,118795,123095
//Storyboard Layer 0 (Background)
//Storyboard Layer 1 (Failing)
//Storyboard Layer 2 (Passing)
//Storyboard Layer 3 (Foreground)
//Storyboard Sound Samples
//Background Colour Transformations
3,100,163,162,255

[TimingPoints]
6588,400,4,1,0,60,1,0
30396,-100,4,1,0,65,0,0
31196,-100,4,1,0,90,0,1
51595,-100,4,1,0,60,0,0
81595,-100,4,1,0,65,0,0
82395,-100,4,1,0,90,0,1
102595,-100,4,1,0,90,0,0
123395,-100,4,1,0,90,0,1

[Colours]
Combo1 : 113,115,135
Combo2 : 145,0,0
Combo3 : 111,0,55
Combo4 : 255,98,21

[HitObjects]
88,80,7188,1,0
88,184,7388,1,0
144,272,7588,2,0,B|256:352|328:296|336:256,1,210
176,128,8388,1,0
384,128,8788,1,0
176,128,9188,1,0
176,336,9588,2,0,B|264:336|232:264|200:208|312:208,1,210,0|4
40,32,10588,5,2
256,32,10988,1,2
392,192,11388,1,0
320,272,11588,1,2
216,272,11788,1,0
144,192,11988,2,2,B|160:104|232:88|312:152,1,210
392,192,12588,1,2
302,144,12788,1,2
216,208,12988,1,4
480,40,13588,5,0
376,64,13788,1,0
344,168,13988,1,0
136,168,14388,1,0
72,248,14588,6,2,B|104:304|176:256|224:224|280:304,1,210
344,344,15188,1,2
72,40,15588,1,2
72,40,15788,1,2
72,248,16188,5,0
160,296,16388,1,0
264,296,16588,1,0
392,128,16988,2,2,B|360:72|288:72,1,105
392,128,17388,1,2
360,224,17588,1,2
160,296,17988,5,0
72,248,18188,1,0
256,40,18588,1,2
440,248,18988,1,4
256,40,19388,6,0,B|136:80|304:216|128:336,2,315
416,168,20988,5,4
256,304,21388,1,0
256,304,21588,1,0
96,168,21988,1,0
96,168,22188,1,0
256,32,22588,6,0,B|336:40|344:104,1,105
256,32,22988,1,2
152,32,23188,1,0
56,72,23388,2,0,B|72:168|112:176,1,105
56,72,23788,1,2
256,328,24188,5,2
456,72,24588,1,2
456,72,24788,1,2
56,72,25188,1,2
56,72,25388,1,2
256,328,25788,5,4
256,64,26188,1,0
256,64,26388,1,4
256,328,26788,1,0
256,328,26988,1,4
96,184,27388,5,0
96,184,27588,1,0
200,184,27788,2,0,B|320:184,1,105,2|0
256,88,28188,1,0
200,184,28388,1,0
256,280,28588,1,2
440,184,28988,6,2,B|432:272|344:296|280:240,1,210
207,48,29588,2,2,B|148:-3|60:21|52:109,1,210,2|2
152,128,30188,1,2
440,328,30588,5,4
72,328,30988,1,4
440,56,31388,5,0
440,56,31488,1,0
440,56,31588,1,0
440,56,31688,1,0
440,56,31788,1,0
440,56,31888,1,0
440,56,31988,1,0
440,56,32088,1,0
440,56,32188,1,4
256,192,32588,5,0
64,56,32988,2,0,B|56:144|192:88|152:240,1,210
448,240,33788,1,0
448,344,33988,1,0
448,240,34188,2,0,B|448:168|384:152,1,105,4|0
397,156,34588,1,0
296,128,34788,1,0
397,156,34988,1,4
56,40,35388,5,2
56,248,35788,1,2
264,248,36188,2,0,B|336:248|344:184,1,105
352,88,36588,1,4
256,40,36788,1,0
352,88,36988,1,0
456,88,37188,1,0
352,88,37388,1,4
56,192,37788,5,4
56,192,37988,1,8
56,192,38188,1,4
456,192,38588,5,2
256,344,38988,1,2
56,192,39388,1,0
256,192,39588,5,0
256,88,39788,1,0
256,192,39988,1,4
256,296,40188,1,0
256,192,40388,2,0,B|136:192,1,105,0|4
456,56,40988,6,4,B|464:176|296:152,1,210,4|0
200,128,41588,5,0
200,128,41788,2,8,B|200:248,1,105
392,320,42388,2,0,B|448:240|448:168|368:120,2,210,0|0|4
288,320,43388,6,2,B|232:240|232:168|312:120,1,210,2|2
368,64,43988,1,0
264,64,44188,1,2
160,64,44388,1,0
160,64,44488,1,0
160,64,44588,1,0
160,64,44688,1,0
160,64,44788,1,0
160,64,44888,1,0
160,64,44988,1,4
448,328,45388,5,0
64,328,45788,2,0,B|64:256|120:232,1,105
64,328,46188,1,0
168,328,46388,1,0
224,240,46588,2,4,B|280:216|312:144|264:88|208:72,1,210
222,77,47088,1,0
222,77,47188,1,0
120,72,47388,1,2
176,160,47588,1,0
120,248,47788,1,4
448,56,48188,6,0,B|448:184|336:224,1,210
240,232,48788,2,2,B|168:232|160:328|232:360|288:328,1,210
240,232,49388,1,0
343,221,49588,1,2
344,112,49788,1,0
256,48,49988,1,2
344,112,50188,1,4
48,336,50588,5,2
152,336,50788,1,0
152,336,50888,1,0
152,336,50988,1,0
152,336,51088,1,0
152,336,51188,1,0
152,336,51288,1,0
152,336,51388,1,4
256,192,55388,12,4,57788
256,64,58388,5,0
256,192,58588,1,0
256,320,58788,1,0
448,64,59188,2,0,B|456:184|336:136|368:248,1,210
64,320,59988,1,0
152,264,60188,1,0
64,320,60388,1,0
64,64,60788,2,0,B|200:64|232:176,1,210,0|4
448,320,61788,5,2
448,320,61988,1,2
448,320,62188,1,2
448,64,62588,2,0,B|384:64|360:112,1,105,0|2
328,208,62988,1,0
224,208,63188,2,2,B|136:216|104:320|208:352,1,210
280,280,63788,1,2
384,280,63988,1,2
280,280,64188,1,4
64,56,64788,6,0,B|128:48|168:96,2,105
64,264,65588,1,0
144,328,65788,6,2,B|240:336|272:240|224:184,1,210
192,88,66388,2,2,B|272:56|360:112|368:184,1,210
384,264,66988,1,0
296,320,67188,1,2
384,264,67388,1,0
472,320,67588,2,2,B|384:216|288:328,1,210
40,48,68388,5,0
40,48,68588,1,2
472,48,68988,1,0
384,112,69188,1,2
296,176,69388,1,0
208,232,69588,2,2,B|152:288|88:240|72:168|136:128,1,210
192,64,70188,1,2
121,139,70388,1,2
48,216,70588,6,0,B|88:328|232:336|288:328|320:272,2,315
472,48,72188,5,4
472,336,72588,1,0
368,336,72788,2,0,B|288:328|304:208|200:208,1,210
104,208,73388,1,0
256,64,73788,6,0,B|320:72|344:128,1,105
248,168,74188,1,2
184,248,74388,1,0
248,168,74588,1,0
256,64,74788,2,0,B|192:72|168:128,1,105,0|2
456,336,75388,5,2
56,336,75788,1,2
56,336,75988,1,2
56,48,76388,1,2
56,48,76588,1,2
456,48,76988,6,0,B|456:144|320:136|312:208,1,210,4|0
312,296,77588,2,0,B|240:320|200:184|152:168,1,210,4|0
56,136,78188,1,4
456,136,78588,5,0
368,80,78788,1,0
280,136,78988,1,2
192,80,79188,1,0
104,136,79388,1,0
192,192,79588,1,0
280,136,79788,1,2
416,296,80188,6,2,B|416:200|256:232|240:280,1,210,2|2
352,296,80788,2,2,B|352:392|192:360|176:312,1,210,2|2
185,326,81388,1,2
464,40,81788,5,4
48,40,82188,1,4
256,344,82588,1,0
256,344,82688,1,0
256,344,82788,1,0
256,344,82888,1,0
256,344,82988,1,0
256,344,83088,1,0
256,344,83188,1,0
256,344,83288,1,0
256,344,83388,1,4
256,40,83788,5,0
48,344,84188,1,0
464,344,84588,2,0,B|464:216|344:176,1,210
256,216,85188,1,0
176,280,85388,1,4
256,216,85588,1,0
256,112,85788,2,0,B|304:72|376:88,1,105,0|0
256,112,86188,1,4
48,344,86588,6,2,B|48:216|192:208,1,210
464,40,87388,2,0,B|464:160,1,105
464,40,87788,1,4
392,112,87988,1,0
312,40,88188,2,0,B|312:152,1,105
312,40,88588,1,4
48,344,88988,5,4
136,288,89188,1,8
224,224,89388,1,4
48,40,89788,6,2,B|176:48|160:192,1,210
464,40,90588,2,0,B|400:40|392:104,1,105
288,120,90988,1,4
288,224,91188,1,0
376,176,91388,1,0
480,176,91588,1,0
376,176,91788,1,4
168,176,92188,6,4,B|96:184|152:280|168:336|64:344,1,210
192,312,92788,5,0
288,280,92988,2,8,B|360:288|384:224,1,105
272,56,93588,2,0,B|144:56|160:152|72:136,2,210,0|0|4
376,56,94588,6,2,B|440:120|376:224|280:176,1,210
192,168,95188,1,0
300,184,95388,1,2
256,280,95588,1,0
256,280,95688,1,0
256,280,95788,1,0
256,280,95888,1,0
256,280,95988,1,0
256,280,96088,1,0
256,280,96188,1,4
56,336,96588,6,0,B|168:304|40:232|176:184,1,210
264,128,97188,1,0
368,128,97388,1,0
432,208,97588,1,0
432,312,97788,2,4,B|368:344|296:232|224:296,1,210
233,288,98288,1,0
233,288,98388,1,0
184,192,98588,1,2
264,128,98788,1,0
368,128,98988,1,4
40,40,99388,5,0
472,40,99788,1,0
472,144,99988,2,2,B|448:264|304:184|376:120,1,210
472,144,100588,1,0
369,126,100788,1,2
280,72,100988,1,0
176,72,101188,1,2
280,72,101388,1,4
256,344,101788,5,2
216,248,101988,1,0
216,248,102088,1,0
216,248,102188,1,0
216,248,102288,1,0
216,248,102388,1,0
216,248,102488,1,0
216,248,102588,1,4
216,144,102788,6,0,B|160:120|104:160,1,105,0|4
464,344,103388,1,2
48,40,103788,2,0,B|160:48|88:216,1,210,2|0
184,152,104388,1,0
288,152,104588,2,0,B|376:152|368:216,1,105
368,304,104988,1,4
368,200,105188,1,0
368,304,105388,1,4
48,344,105788,6,2,B|88:240|232:248,2,210,2|2|4
152,344,106788,1,8
256,344,106988,1,4
464,40,107388,5,2
360,40,107588,1,0
256,40,107788,2,0,B|208:96|232:144,1,105
256,40,108188,1,4
328,112,108388,1,0
328,216,108588,1,4
48,40,108988,5,2
256,344,109388,1,2
464,40,109788,1,4
256,344,110188,2,4,B|296:272|192:240|288:184|240:128,1,210,4|2
184,224,110788,1,0
247,138,110988,1,0
312,224,111188,1,0
416,224,111388,1,4
312,224,111588,1,0
247,138,111788,1,4
480,352,112188,6,2,B|392:352|448:264|328:272|288:320,1,210
32,32,112988,2,4,B|120:32|64:120|184:112|224:64,1,210
480,352,113788,6,0,B|480:240,1,105,2|0
416,160,114188,1,0
360,72,114388,1,0
256,72,114588,1,4
312,160,114788,1,0
360,72,114988,1,4
32,352,115388,5,2
32,32,115788,1,2
480,32,116188,1,4
480,136,116388,1,8
408,216,116588,1,4
32,352,116988,2,0,B|32:288|96:272,1,105
176,216,117388,1,2
248,136,117588,1,2
176,56,117788,5,0
176,56,117888,1,0
176,56,117988,1,0
176,56,118088,1,0
176,56,118188,1,0
176,56,118288,1,0
176,56,118388,1,0
176,56,118488,1,0
176,56,118588,1,4
120,96,123988,6,0,B|88:184|208:248|200:304,2,210
120,96,124988,1,4
472,344,125388,6,2,B|384:352|360:232|264:264,1,210
40,40,126188,2,4,B|160:40|184:168,1,210
192,272,126788,1,0
264,200,126988,1,4
192,272,127188,1,0
88,272,127388,2,0,B|80:344|144:352,1,105,4|0
88,272,127788,1,4
464,344,128188,6,2,B|464:216|384:216|320:264,1,210
336,152,128788,1,0
256,80,128988,1,0
152,80,129188,2,2,B|80:88|96:176|168:208|80:264,1,210
40,168,129788,2,4,B|8:272|32:320|112:344,1,210
200,304,130388,1,0
256,216,130588,1,2
360,216,130788,1,0
360,216,130888,1,0
360,216,130988,1,0
360,216,131088,1,0
360,216,131188,1,0
360,216,131288,1,0
360,216,131388,1,4
40,344,131788,5,2
40,40,132188,1,2
136,72,132388,1,0
168,168,132588,2,0,B|240:200|280:176,1,105
368,144,132988,2,4,B|392:296|264:296,1,210
273,295,133488,1,0
273,295,133588,1,0
168,272,133788,2,0,B|168:160,1,105
136,72,134188,1,4
472,40,134588,6,2,B|480:128|392:144|368:232,1,210
368,320,135188,2,0,B|280:328|264:240|176:216,1,210,0|0
88,200,135788,1,0
256,192,136188,12,4,137788
