osu file format v5

[General]
AudioFilename: Metro Station - Shake it.mp3
AudioLeadIn: 0
PreviewTime: -1
Countdown: 1
SampleSet: None
StackLeniency: 0.7
Mode: 0
LetterboxInBreaks: 1

[Metadata]
Title:Shake it
Artist:Metro Station
Creator:snowbook
Version:Normal
Source:
Tags:

[Difficulty]
HPDrainRate:4
CircleSize:5
OverallDifficulty:4
SliderMultiplier:1.4
SliderTickRate:1

[Events]
//Background and Video events
0,0,"metrostation.jpg"
//Break Periods
2,31635,32351
2,89067,91204
2,131930,131957
//Storyboard Layer 0 (Background)
//Storyboard Layer 1 (Failing)
//Storyboard Layer 2 (Passing)
//Storyboard Layer 3 (Foreground)
//Storyboard Sound Samples
//Background Colour Transformations
3,100,0,0,0

[TimingPoints]
0,1000,4,0,0,100,1

[HitObjects]
148,194,6179,5,0
307,195,6330,1,0
307,195,7418,1,0
331,124,8174,1,0
236,253,10230,1,0
181,188,11026,1,0
245,171,11817,1,0
245,171,12536,1,0
245,171,12995,1,0
88,189,13786,1,0
168,125,14542,1,0
253,205,15338,1,0
297,151,16197,1,0
174,172,17018,1,0
91,100,17789,1,0
138,226,18527,1,0
80,153,19723,2,0,B|332:155|144:166,4,140
276,262,25005,1,0
208,203,25410,1,0
104,215,26582,5,0
174,215,27260,1,0
244,215,28203,1,0
297,214,28593,1,0
380,175,29428,1,0
273,147,30200,1,0
170,220,31016,1,0
170,220,31435,1,0
132,185,33671,5,0
231,194,34526,1,0
327,196,35415,1,0
327,196,35781,1,0
327,196,36220,1,0
175,215,37002,1,0
224,212,37837,1,0
268,120,38599,1,0
331,205,39409,1,0
188,213,40069,1,0
136,197,42105,1,0
225,204,42534,1,0
82,257,43208,1,0
212,220,44995,1,0
212,220,45424,1,0
68,260,45761,1,0
138,269,46528,1,0
138,269,46967,1,0
258,235,47353,1,0
219,293,48194,1,0
219,293,48574,1,0
159,167,48950,1,0
168,163,51328,5,0
168,163,51738,1,0
311,184,52129,1,0
211,274,52954,1,0
211,274,53393,1,0
129,180,53789,1,0
262,130,55073,1,0
262,130,55469,1,0
262,130,56045,1,0
262,130,56470,1,0
262,130,56909,1,0
262,130,57075,1,0
262,130,57437,1,0
120,240,58237,1,0
120,240,58623,1,0
223,229,59218,1,0
223,229,59610,1,0
223,229,60103,1,0
223,229,60346,1,0
223,229,60660,1,0
317,186,61420,1,0
317,186,61865,1,0
150,177,62475,1,0
150,177,62866,1,0
223,103,63276,1,0
223,103,63472,1,0
223,103,63892,1,0
221,180,64614,1,0
221,180,65010,1,0
98,232,65654,1,0
98,232,66040,1,0
182,246,66489,1,0
182,246,66670,1,0
182,246,67100,1,0
316,203,67807,1,0
316,203,68198,1,0
168,169,68843,1,0
168,169,69209,1,0
149,264,69677,1,0
149,264,69843,1,0
149,264,70195,1,0
270,197,71359,5,0
203,222,72198,1,0
306,210,73019,1,0
156,162,73782,1,0
256,192,74559,1,0
256,192,74887,12,0,79746
180,168,80570,5,0
243,216,81371,1,0
307,237,82200,1,0
307,237,82611,1,0
124,128,84111,5,0
232,200,84765,1,0
132,259,85664,1,0
320,298,86357,1,0
281,276,87954,1,0
287,191,88867,1,0
200,212,92524,5,0
303,176,93358,1,0
362,146,94198,1,0
225,164,94974,1,0
225,164,95345,1,0
75,232,96199,1,0
75,232,96610,1,0
75,232,97069,1,0
204,234,97782,1,0
204,234,98212,1,0
204,234,98583,1,0
369,158,99359,1,0
211,136,99735,1,0
90,200,100130,1,0
184,247,100995,1,0
184,247,101824,1,0
273,228,102586,1,0
273,228,102986,1,0
273,228,103383,1,0
176,263,104188,1,0
92,246,104989,1,0
334,181,106180,1,0
334,181,106571,1,0
165,215,107212,5,0
165,215,107598,1,0
239,213,108057,1,0
239,213,108203,1,0
239,213,108585,1,0
380,171,109395,1,0
380,171,109785,1,0
94,144,110400,1,0
94,144,110777,1,0
183,156,111240,1,0
183,156,111411,1,0
183,156,112002,1,0
240,248,112527,5,0
240,248,112941,1,0
123,260,113567,1,0
123,260,114016,1,0
123,159,114431,1,0
123,159,114611,1,0
123,159,114977,1,0
284,166,115778,1,0
284,166,116169,1,0
174,250,116804,1,0
174,250,117175,1,0
364,273,117558,1,0
364,273,117738,1,0
272,208,118212,1,0
322,99,118964,1,0
322,99,119369,1,0
146,107,120013,1,0
146,107,120409,1,0
201,198,120868,1,0
201,198,121044,1,0
201,198,121391,1,0
329,300,121856,5,0
258,298,122584,1,0
169,281,123409,1,0
163,194,123790,1,0
227,155,124181,1,0
349,184,125006,1,0
253,260,125836,1,0
128,244,126607,1,0
148,140,127003,1,0
246,124,127398,1,0
254,192,127769,1,0
201,265,128599,1,0
96,207,129366,1,0
96,96,129752,1,0
188,88,130153,1,0
281,134,130567,1,0
314,185,130993,1,0
314,185,131730,1,0
211,291,133277,5,0
124,225,133766,1,0
168,196,134151,1,0
20,48,134556,2,0,B|416:328|414:313,1,420
264,94,137827,5,0
264,94,138208,1,0
162,188,138589,1,0
268,219,139389,1,0
268,219,139809,1,0
375,216,140199,1,0
157,280,141006,1,0
157,280,141407,1,0
245,228,141767,1,0
124,124,142593,1,0
124,124,142968,1,0
239,120,143364,1,0
332,224,144199,1,0
332,224,144590,1,0
186,260,144995,1,0
225,133,145781,1,0
225,133,146162,1,0
328,135,146689,1,0
248,149,147837,5,0
248,149,148213,1,0
240,238,148886,1,0
240,238,149223,1,0
128,200,149638,1,0
128,200,149863,1,0
172,176,150244,1,0
331,133,151039,5,0
331,133,151405,1,0
196,196,151998,1,0
196,196,152406,1,0
161,90,152800,1,0
161,90,152972,1,0
161,90,153373,1,0
328,134,154154,1,0
328,134,154549,1,0
328,134,155326,1,0
328,134,155634,1,0
224,196,156078,1,0
224,196,156249,1,0
185,111,156659,1,0
276,200,157421,1,0
276,200,157807,1,0
167,247,158461,1,0
167,247,158837,1,0
165,143,159271,1,0
165,143,159432,1,0
165,143,159828,1,0
394,168,160619,1,0
266,237,160993,5,0
266,237,161656,1,0
266,237,162027,1,0
266,237,162428,1,0
266,237,162594,1,0
264,141,163029,1,0
188,200,163820,1,0
188,200,164196,1,0
281,227,164835,1,0
281,227,165221,1,0
321,163,165641,1,0
321,163,165832,1,0
321,163,166203,1,0
237,256,167172,5,0
237,256,167455,1,0
164,174,168065,1,0
164,174,168412,1,0
244,160,168837,1,0
244,160,169008,1,0
306,163,169404,1,0
199,36,170228,1,0
199,36,170571,1,0
144,197,171215,1,0
144,197,171576,1,0
270,226,172035,1,0
270,226,172221,1,0
270,226,172636,1,0
355,232,173650,5,0
355,232,173899,1,0
144,229,174783,1,0
177,206,175535,1,0
254,202,176302,1,0
293,269,177205,1,0
