osu file format v9

[General]
AudioFilename: Metro Station - shake it.mp3
AudioLeadIn: 0
PreviewTime: 53916
Countdown: 1
SampleSet: Normal
StackLeniency: 0.7
Mode: 0
LetterboxInBreaks: 1

[Editor]
DistanceSpacing: 0.9
BeatDivisor: 4
GridSize: 8

[Metadata]
Title:Shake It
Artist:Metro Station
Creator:EEeee
Version:Trembling
Source:
Tags:minyeob

[Difficulty]
HPDrainRate:2
CircleSize:4
OverallDifficulty:4
ApproachRate:4
SliderMultiplier:1
SliderTickRate:2

[Events]
//Background and Video events
Video,-1200,"Metro Station - Shake It.avi"
0,0,"EL7Ua.png"
//Break Periods
2,6776,18056
2,57976,66056
2,70776,72856
2,76776,79256
2,83176,85256
2,121976,123656
2,134776,136456
//Storyboard Layer 0 (Background)
//Storyboard Layer 1 (Fail)
//Storyboard Layer 2 (Pass)
//Storyboard Layer 3 (Foreground)
//Storyboard Sound Samples
//Background Colour Transformations
3,100,255,255,255

[TimingPoints]
176,400,4,1,1,80,1,0
15319,-100,4,2,2,100,0,0
21876,-100,4,2,1,100,0,0
22190,-100,4,2,2,100,0,0
25076,-100,4,2,1,100,0,0
25476,-100,4,2,2,100,0,0
44776,-100,4,1,2,90,0,0
70776,-100,4,2,2,100,0,0
94076,-100,4,2,1,100,0,0
94276,-100,4,2,2,100,0,0
95476,-100,4,2,1,100,0,0
95676,-100,4,2,2,100,0,0
95976,-100,4,1,2,100,0,0
98676,-100,4,1,1,100,0,0
98876,-100,4,1,2,100,0,0
101876,-100,4,1,1,100,0,0
102076,-100,4,1,2,100,0,0
140276,-100,4,1,1,100,0,0
140476,-100,4,1,2,100,0,0
143476,-100,4,1,1,100,0,0
143676,-100,4,1,2,100,0,0

[Colours]
Combo1 : 50,96,30
Combo2 : 223,0,0
Combo3 : 0,0,128
Combo4 : 106,45,102

[HitObjects]
256,192,6576,1,4
392,136,19376,6,0,B|392:16,4,100,0|8|0|8|0
312,176,21376,2,0,B|392:288|480:165,3,200,8|8|8|8
440,88,24176,2,0,B|392:56|328:96,3,100,0|8|0|8
168,88,26176,5,8
24,192,26976,1,8
168,304,27776,1,8
240,192,28376,2,8,B|312:192,1,50
376,192,28976,6,0,B|376:312,5,100,0|8|0|8|0|8
464,192,31576,2,8,B|464:136,1,50
336,272,32576,5,8
256,112,33376,1,8
80,80,34176,1,8
8,192,34776,2,8,B|8:264,1,50
176,272,35776,5,8
256,112,36576,1,8
432,80,37376,1,8
504,192,37976,2,8,B|504:264,1,50
256,192,38576,12,8,40576
256,56,41176,6,8,B|256:112,1,50
256,192,41776,12,8,43776
256,56,44376,6,8,B|256:112,1,50
160,104,44976,5,0
64,104,45376,1,0
64,200,45776,1,0
160,200,46176,5,0
256,200,46576,1,0
352,200,46976,1,0
352,296,47376,1,0
352,104,48176,5,0
448,104,48576,1,0
448,200,48976,1,0
352,200,49376,5,0
256,200,49776,1,0
160,200,50176,1,0
160,296,50576,1,0
352,200,51376,5,0
256,200,51776,1,0
160,200,52176,1,0
208,112,52576,6,0,B|328:112,2,100
208,16,53776,2,0,B|328:16,2,100
256,104,54976,5,0
256,200,55376,1,0
208,344,55976,5,0
304,344,56376,1,0
256,192,56576,12,4,57776
256,192,67376,12,4,70576
32,80,74176,5,8
208,80,74976,1,8
120,240,75776,1,8
120,240,76376,2,8,B|120:184,1,50
480,80,80576,5,8
304,80,81376,1,8
392,240,82176,1,8
392,240,82776,2,8,B|392:184,1,50
80,248,86576,6,0,B|80:320,2,50,0|0|8
168,248,87376,2,0,B|168:320,2,50,0|0|8
256,248,88176,2,0,B|256:320,2,50,0|0|8
344,248,88976,2,0,B|344:320,2,50,0|8|8
432,248,89776,6,0,B|432:320,2,50,0|0|8
344,248,90576,2,0,B|344:320,2,50,0|0|8
256,248,91376,2,0,B|256:320,2,50,0|0|8
168,248,92176,2,0,B|168:320,2,50,0|8|8
80,96,93376,6,0,B|205:4|320:3|455:101,1,400,8|8
360,120,95376,2,0,B|360:232,1,100,0|8
272,216,96176,5,0
184,224,96576,1,8
184,224,96976,1,0
96,224,97376,5,8
96,224,97776,1,0
64,136,98176,2,0,B|32:80|64:32,2,100,8|0|8
152,136,99376,6,0,B|264:136,2,100,0|8|0
152,224,100576,1,8
240,224,100976,2,0,B|360:224,3,100,0|8|0|8
432,224,102576,5,0
432,312,102976,1,8
432,224,103376,1,0
432,136,103776,6,0,B|384:104|320:136,3,100,8|0|8|0
248,136,105376,2,0,B|136:136,1,100,8|0
72,88,106176,5,8
72,176,106576,1,8
192,240,107176,1,8
192,328,107576,1,8
320,280,108176,5,8
320,192,108576,1,8
320,104,108976,1,4
408,104,109376,5,8
496,104,109776,1,8
496,240,110376,1,8
408,248,110776,1,8
304,328,111376,5,8
216,328,111776,1,8
128,320,112176,1,4
128,232,112576,6,8,B|16:232,1,100
16,96,113576,2,8,B|128:96,1,100
232,128,114576,1,8
232,128,114976,1,8
320,128,115376,6,0,B|432:128,1,100,4|8
416,216,116176,1,8
304,296,116776,1,8
304,296,117176,1,8
168,296,117776,2,8,B|56:296,2,100,8|8|4
168,208,118976,5,8
80,208,119376,1,8
80,72,119976,1,8
80,72,120376,1,8
216,72,120976,2,8,B|256:96|320:72,2,100,8|8|4
256,112,124976,5,0
256,112,125376,2,0,B|368:112,2,100,8|0|8
256,200,126576,1,0
256,248,126776,1,0
256,296,126976,1,8
168,296,127376,1,0
120,296,127576,1,8
72,296,127776,1,8
32,216,128176,5,0
56,128,128576,1,8
136,88,128976,1,0
224,80,129376,1,8
304,120,129776,1,0
344,200,130176,1,8
432,200,130576,1,0
344,200,130976,1,8
344,288,131376,5,0
256,288,131776,1,8
168,288,132176,1,0
80,288,132576,2,0,B|80:224,10,50,8|0|0|0|8|0|0|8|8|0|4
120,72,137776,5,4
120,72,138176,1,8
120,72,138576,1,0
208,72,138976,6,0,B|320:72,2,100,8|0|8
208,160,140176,2,0,B|328:160,1,100,0|8
400,160,140976,6,0,B|456:264,2,100,0|8|0
312,168,142176,1,8
312,256,142576,1,0
312,344,142976,2,0,B|256:376|200:344,2,100,8|0|8
312,256,144176,5,0
224,256,144576,1,8
136,256,144976,1,0
48,256,145376,5,8
24,168,145776,1,0
112,168,146176,1,8
200,168,146576,5,0
288,168,146976,1,8
376,168,147376,1,0
376,80,147776,5,8
376,80,148176,1,8
240,80,148776,1,8
152,80,149176,1,8
56,176,149776,2,8,B|56:288,2,100,8|8|12
144,176,150976,5,8
144,176,151376,1,8
280,176,151976,1,8
368,176,152376,1,8
464,272,152976,2,8,B|464:384,2,100,8|8|4
376,272,154176,6,8,B|272:272,1,100
168,352,155176,2,8,B|56:352,1,100
8,232,156176,2,8,B|8:112,2,100,8|8|4
96,232,157376,6,8,B|200:232,1,100
304,312,158376,2,8,B|416:312,1,100
464,192,159376,2,8,B|464:72,2,100,8|8|4
376,192,160576,6,8,B|272:192,1,100
168,272,161576,2,8,B|56:272,1,100
64,136,162576,2,8,B|112:96|176:136,2,100,8|8|4
64,224,163776,5,8
240,224,164576,1,8
416,224,165376,1,8
416,360,165976,1,8
416,360,166176,1,8
416,184,166976,5,8
240,184,167776,1,8
64,184,168576,1,8
64,320,169176,1,8
64,320,169376,1,8
64,144,170176,5,8
240,144,170976,1,8
416,144,171776,1,8
416,280,172376,1,8
416,280,172576,1,8
256,192,173376,12,4,176176
