osu file format v5

[General]
AudioFilename: 01-metro_station-seventeen_forever.mp3
AudioLeadIn: 0
PreviewTime: -1
Countdown: 1
SampleSet: Soft
StackLeniency: 0.7
Mode: 0
LetterboxInBreaks: 1

[Metadata]
Title:Seventeen Forever
Artist:Metro Station
Creator:EEeee
Version:Hard
Source:
Tags:

[Difficulty]
HPDrainRate:5
CircleSize:5
OverallDifficulty:5
SliderMultiplier:1.6
SliderTickRate:2

[Events]
//Background and Video events
0,0,"metrobanner1xs9.jpg"
1,-2820,"video_001.avi"
//Break Periods
2,138205,140234
//Storyboard Layer 0 (Background)
//Storyboard Layer 1 (Failing)
//Storyboard Layer 2 (Passing)
//Storyboard Layer 3 (Foreground)
//Storyboard Sound Samples
//Background Colour Transformations
3,100,163,162,255

[TimingPoints]
7720,428.571428571429,4,2,0,100,1
28271,428.571428571429,4,1,0,100,0
41985,428.571428571429,4,2,0,81,0
54434,428.571428571429,4,1,0,69,0
55714,428.571428571429,4,1,0,100,0
96842,428.571428571429,4,2,0,100,0
110556,428.571428571429,4,1,0,100,0

[Colours]
Combo1 : 255,128,0
Combo2 : 255,0,0
Combo3 : 0,255,0
Combo4 : 128,0,255

[HitObjects]
88,112,14577,2,0,B|312:112|352:112,1,240
448,320,15862,5,0
448,240,16077,2,0,B|176:240,1,240
208,320,16934,1,0
208,160,17362,1,0
440,152,18005,5,0
280,152,18434,1,0
248,224,18648,2,0,B|496:224,1,240
488,144,19505,1,0
456,320,20148,5,0
376,320,20362,1,0
296,320,20577,1,0
216,320,20791,2,0,B|112:280|216:192|216:192,1,160
280,240,21434,5,0
360,240,21648,1,0
440,240,21862,1,0
448,160,22077,2,0,B|336:160,3,80
208,120,23148,5,0
208,40,23362,2,0,B|320:40,3,80
288,120,24220,2,0,B|360:192|296:296,1,160
80,328,25291,5,0
160,328,25505,2,0,B|160:64,1,240
240,88,26362,2,0,B|240:336,1,240
160,328,27220,6,0,B|64:328,4,80
240,328,28291,1,0
384,264,28720,1,0
384,184,28934,2,0,B|304:48|160:80,1,240
112,112,29791,2,2,B|80:232|168:352,1,240
240,344,30648,5,0
400,344,31077,1,0
400,184,31505,1,0
400,104,31720,1,0
320,104,31934,2,2,B|272:184|192:56|184:160,1,160
256,280,32791,5,0
112,200,33220,1,0
232,96,33648,1,0
72,96,34077,2,0,B|184:96,3,80
312,120,35148,6,0,B|288:56|224:64,2,80
312,200,35791,2,2,B|312:312,3,80
232,304,36648,2,2,B|336:392|472:320,1,240
464,248,37505,1,0
464,88,37934,1,0
304,104,38362,5,0
224,104,38577,1,0
144,104,38791,1,0
224,104,39005,1,0
304,104,39220,1,4
96,224,39862,5,0
176,224,40077,1,0
256,224,40291,1,4
384,128,40720,5,0
304,128,40934,1,0
224,128,41148,1,0
224,208,41362,2,6,B|136:208,3,80
144,48,42434,5,0
224,48,42648,1,8
224,288,43291,1,0
144,288,43505,1,8
344,152,44148,5,0
344,232,44362,1,8
184,192,44791,1,4
184,192,45005,1,4
112,152,45219,1,8
112,232,45434,1,8
272,232,45862,1,8
272,152,46077,1,8
416,232,46505,1,0
416,64,46934,1,0
256,96,47362,5,0
176,96,47577,1,0
176,176,47791,1,0
256,176,48005,1,0
176,176,48219,1,0
176,96,48434,1,0
256,96,48648,1,0
256,176,48862,1,4
416,176,49291,5,0
336,176,49505,1,0
88,176,50148,1,0
168,176,50362,1,0
384,56,51005,1,0
304,56,51219,1,0
304,216,51648,2,0,B|304:328,1,80
208,160,52291,5,0
128,160,52505,1,0
128,80,52719,1,0
208,80,52934,1,0
128,80,53148,1,0
128,160,53362,1,0
208,160,53577,1,0
208,80,53791,1,0
128,80,54005,1,0
128,160,54219,1,0
208,160,54434,5,0
208,160,54648,1,0
208,160,54862,1,0
208,160,55077,1,0
208,160,55291,1,0
208,160,55505,1,0
256,96,55719,5,0
408,160,56148,1,0
408,240,56362,2,0,B|328:376|184:344,1,240
208,264,57219,2,2,B|176:144|264:24,1,240
336,40,58077,5,0
336,200,58505,1,0
176,224,58934,1,0
104,192,59148,1,0
144,120,59362,2,2,B|96:40|16:168|8:64,1,160
160,40,60219,1,2
160,40,60434,1,2
160,40,60648,1,2
272,144,61077,1,4
264,296,61505,2,0,B|376:296,3,80
152,312,62577,6,0,B|128:376|64:368,2,80
152,232,63219,2,0,B|152:120,3,80
232,136,64077,2,2,B|336:48|472:120,1,240
456,192,64934,1,0
456,352,65362,1,0
296,360,65791,5,0
216,360,66005,1,0
136,360,66219,1,0
56,360,66434,1,0
56,280,66648,1,4
56,200,66862,1,0
56,120,67077,1,0
136,120,67291,1,0
216,120,67505,1,0
296,120,67719,1,0
216,120,67934,1,0
296,120,68148,1,0
216,120,68362,1,0
360,184,68791,2,6,B|272:184,3,80
80,264,70291,6,4,B|64:144|136:128,1,160
200,280,71148,2,4,B|184:160|256:144,1,160
312,296,72005,2,4,B|296:176|376:160,1,160
232,80,72862,5,0
96,168,73291,1,0
232,248,73719,1,0
384,168,74148,1,0
224,168,74577,1,8
144,168,74791,1,8
64,168,75005,1,8
224,168,75434,1,8
304,168,75648,1,8
384,168,75862,1,8
384,328,76291,5,0
224,328,76719,1,0
376,272,77148,1,0
216,272,77577,1,0
368,216,78005,1,0
208,216,78434,1,0
360,160,78862,1,0
200,160,79291,1,0
40,176,79719,5,8
40,96,79934,1,8
120,96,80148,1,8
40,240,80577,1,8
40,320,80791,1,8
120,320,81005,1,8
280,328,81434,5,8
360,328,81648,1,8
440,328,81862,1,8
360,328,82077,1,8
360,248,82291,1,8
360,328,82505,1,8
280,328,82719,1,4
80,264,84005,5,0
112,104,84434,1,0
192,104,84648,1,0
232,264,85077,1,0
392,264,85505,1,0
432,104,85934,5,8
352,104,86148,1,8
272,104,86362,1,8
192,104,86577,1,4
80,320,87219,5,0
160,320,87434,1,0
320,320,87862,1,0
400,320,88077,1,0
400,160,88505,1,0
240,160,88934,1,0
240,320,89362,1,8
320,320,89577,1,8
240,320,89791,1,8
320,320,90005,1,4
392,80,90648,5,0
312,80,90862,1,0
152,80,91291,1,0
152,160,91505,1,0
312,168,91934,1,0
312,328,92362,1,0
64,328,93005,5,0
64,168,93434,1,0
176,56,93862,2,0,B|192:144,1,80
192,296,94505,1,0
352,296,94934,1,0
336,48,95577,2,0,B|352:136,1,80
256,192,96219,5,0
256,192,96327,1,0
256,192,96434,1,0
256,192,96541,1,0
256,192,96648,1,0
256,192,96862,12,0,99648
440,160,100077,5,0
448,80,100291,1,0
368,88,100505,2,2,B|320:168|240:40|232:144,1,160
240,288,101362,5,0
80,288,101791,1,0
240,288,102219,1,0
240,128,102648,2,0,B|352:128,3,80
160,128,103719,6,0,B|136:64|72:72,2,80
160,208,104362,2,2,B|160:320,3,80
240,288,105219,2,2,B|344:376|480:304,1,240
448,232,106077,1,0
296,176,106505,1,0
144,120,106934,5,0
144,200,107148,1,0
144,120,107362,1,0
72,160,107577,1,0
144,200,107791,1,4
216,128,108434,5,0
296,128,108648,1,0
376,128,108862,1,4
376,288,109291,5,0
296,288,109505,1,0
216,288,109719,1,0
280,240,109934,2,0,B|192:240,3,80
208,160,110791,5,4
208,80,111005,1,4
128,104,111219,2,4,B|128:304|128:304|184:304,1,240
248,288,112077,6,0,B|352:272|336:264,1,80
456,176,112719,1,0
456,96,112934,1,0
376,96,113148,1,0
296,96,113362,1,0
232,144,113577,1,0
176,200,113791,5,0
120,256,114005,1,0
176,200,114219,2,2,B|224:280|304:152|312:256,1,160
464,256,115077,1,8
464,256,115291,1,8
464,256,115505,1,8
304,240,115934,1,4
304,80,116362,2,0,B|192:80,3,80
376,80,117434,6,0,B|400:16|464:24,2,80
376,160,118077,2,2,B|376:272,3,80
344,312,118934,2,2,B|240:400|104:328,1,240
72,272,119791,1,0
72,112,120219,1,0
224,104,120648,5,0
304,104,120862,1,0
384,104,121077,1,0
304,104,121291,1,0
224,104,121505,1,4
224,184,121719,1,0
304,184,121934,1,8
384,184,122148,1,8
304,184,122362,1,0
224,184,122577,1,0
304,184,122791,1,0
224,184,123005,1,0
144,184,123219,1,0
152,312,123648,2,6,B|240:312,3,80
256,192,124398,12,0,127077
104,256,127505,5,0
104,176,127719,1,0
160,120,127934,2,2,B|208:200|288:72|296:176,1,160
416,264,128791,1,8
416,184,129005,1,8
336,184,129219,1,8
176,184,129648,1,2
200,24,130077,2,8,B|88:24,3,80,2|8|2|8
272,72,131148,6,0,B|296:8|360:16,2,80
272,152,131791,2,2,B|272:264,3,80
272,312,132648,2,2,B|168:400|32:328,1,240,2|4
48,256,133505,1,8
56,96,133934,1,8
216,88,134362,5,0
296,88,134577,1,0
376,88,134791,1,0
296,88,135005,1,0
216,88,135219,1,4
136,88,135434,1,0
136,168,135648,1,0
136,248,135862,1,0
216,248,136077,1,0
296,248,136291,1,0
216,248,136505,1,0
136,248,136719,1,0
136,168,136934,5,0
216,168,137148,1,6
296,168,137362,1,6
376,168,137577,1,6
296,168,137791,1,6
376,168,138005,1,6
64,64,141434,5,0
224,64,141862,1,0
384,64,142291,1,0
384,224,142719,1,0
248,328,143148,5,8
328,328,143362,1,8
408,328,143577,1,8
248,328,144005,1,8
168,328,144219,1,8
88,328,144434,1,8
448,320,144862,5,0
288,320,145291,1,0
128,320,145720,1,0
128,160,146148,1,0
264,56,146577,5,8
184,56,146791,1,8
104,56,147005,1,8
264,56,147434,1,8
344,56,147648,1,8
424,56,147862,1,8
256,192,148291,12,0,151720
