osu file format v5

[General]
AudioFilename: Metro Station - Disco.mp3
AudioLeadIn: 3000
PreviewTime: -1
Countdown: 0
SampleSet: Normal
StackLeniency: 0.7
Mode: 0
LetterboxInBreaks: 1
EditorBookmarks: 125,24725,38625,64125,77125,82725,95925,97325,121525,147325

[Metadata]
Title:Disco
Artist:Metro Station
Creator:mrtn
Version:Normal
Source:
Tags:

[Difficulty]
HPDrainRate:4
CircleSize:4
OverallDifficulty:5
SliderMultiplier:1
SliderTickRate:2

[Events]
//Background and Video events
0,0,"disco.jpg"
//Break Periods
2,16325,23525
2,57525,63125
2,111525,119525
//Storyboard Layer 0 (Background)
//Storyboard Layer 1 (Failing)
//Storyboard Layer 2 (Passing)
//Storyboard Layer 3 (Foreground)
//Storyboard Sound Samples
//Background Colour Transformations
3,100,163,162,255

[TimingPoints]
130,400,4,1,0,100,1
25730,3000,4,2,0,100,0
38630,3000,4,1,0,100,0
64130,3000,4,2,0,100,0
77030,3000,4,1,0,100,0
95930,3000,4,2,0,100,0
97330,3000,4,1,0,100,0
120530,3000,4,2,0,100,0
121430,3000,4,1,0,100,0
159930,3000,4,2,0,100,0

[Colours]
Combo1 : 0,121,255
Combo2 : 18,218,213
Combo3 : 73,99,199
Combo4 : 20,218,104

[HitObjects]
112,96,130,2,0,B|288:160|200:264,2,200
112,272,2530,5,4
288,272,3330,6,0,B|448:192|352:112,2,200
192,120,5730,5,4
368,120,6530,6,0,B|376:216|288:216|456:296,2,200
232,120,8730,5,0
144,120,9130,1,0
144,208,9530,1,0
144,208,9730,6,0,B|240:216|152:280|312:256|256:152,2,200
224,320,11930,5,0
312,320,12330,1,0
312,232,12730,5,0
312,232,12930,1,0
312,232,13130,2,0,B|264:208,3,50
184,168,14130,5,0
136,168,14330,1,0
136,216,14530,1,0
184,216,14730,2,0,B|200:280,7,50
176,96,24730,5,0
176,96,24930,1,0
176,184,25330,1,0
312,184,25930,5,0
312,184,26130,2,0,B|376:224,1,50
392,232,26530,1,0
408,272,26730,2,0,B|432:344,3,50,0|0|0|0
296,264,27930,6,0,B|224:264,1,50
200,264,28330,2,0,B|162:256|200:184,1,50,0|0
184,176,28730,1,0
216,88,29130,5,0
216,88,29330,1,0
216,88,29530,1,0
304,88,29930,6,0,B|368:88,3,50
304,216,31130,6,0,B|296:288|192:256,1,100
152,224,31930,1,0
160,136,32330,5,0
160,136,32530,2,0,B|208:136|224:80|240:96,1,75
272,48,33130,1,0
272,48,33330,1,0
272,48,33530,2,0,B|328:56,1,50
384,168,34330,5,0
384,216,34530,2,0,B|328:256,1,50
304,264,34930,1,0
304,264,35130,2,0,B|224:264,2,50
304,216,35730,6,0,B|224:184|224:216,1,75
160,192,36330,2,0,B|96:192,3,50
184,304,37530,6,0,B|264:304,2,50
136,304,38130,1,0
136,304,38330,1,0
136,304,38530,1,0
136,256,38730,5,0
136,256,38930,2,0,L|136:144|232:144,1,200
360,144,40330,5,0
360,192,40530,1,0
312,192,40730,1,0
264,192,40930,2,0,B|260:277|192:240,1,100
128,136,41930,6,0,B|200:136,4,50
128,224,43130,2,4,B|240:336|352:208|224:120|392:88|456:152|432:208,1,400
435,190,44930,5,0
432,280,45330,2,0,B|432:336,2,50
344,280,46130,5,0
344,280,46330,1,0
344,280,46530,1,0
256,280,46930,6,0,B|256:344,2,50,0|0|0
168,280,47730,1,0
168,192,48130,5,0
168,192,48330,1,0
168,192,48530,1,0
256,192,48930,6,0,B|256:128,2,50
344,192,49730,5,0
432,192,50130,1,0
432,192,50330,2,0,B|448:248|416:256|376:272,1,100
296,280,51130,5,0
296,280,51330,1,0
296,280,51530,1,0
208,280,51930,5,0
208,280,52130,2,0,B|176:231|150:143|101:223|224:200,2,150
256,280,53530,5,4
304,280,53730,1,4
304,232,53930,5,0
304,184,54130,1,0
304,96,54530,2,0,B|506:178|408:96,2,150
256,96,55930,5,0
208,96,56130,2,0,B|168:152|208:320|208:272,2,150,0|0|0
72,288,64330,5,0
72,288,64530,2,0,B|136:288,1,50
168,288,64930,2,0,B|254:237|200:232,1,50
240,232,65330,1,0
280,208,65530,2,0,B|318:245|280:288,1,50
280,120,66330,5,0
240,96,66530,1,0
168,152,66930,1,0
168,240,67330,5,0
168,240,67530,1,0
168,240,67730,2,0,B|224:240,2,50
168,152,68530,6,0,B|224:152,2,50
304,152,69530,5,0
304,152,69730,1,0
304,152,69930,2,0,B|304:208,3,50,0|0|0|0
224,248,70930,6,0,B|272:280|336:240,3,100
448,208,72730,5,0
448,208,72930,2,0,B|416:136,4,50
408,224,73930,6,0,B|312:264,3,100
272,272,75330,1,0
136,296,75930,5,0
136,248,76130,2,0,B|108:184|192:168,1,100
216,168,76730,1,0
264,168,76930,1,0
264,168,77130,5,0
264,168,77330,1,0
264,256,77730,2,0,B|336:264|336:192,1,100
264,88,78730,5,0
264,88,78930,1,0
216,88,79130,1,0
216,88,79330,2,0,B|184:96|168:192,1,100
280,256,80330,6,0,B|280:336,2,50
280,208,80930,1,0
280,160,81130,2,0,B|344:120|232:88,1,100
104,256,82530,5,4
104,168,82930,5,0
104,168,83130,1,0
104,168,83330,1,4
192,160,83730,5,0
192,160,83930,1,0
240,160,84130,1,0
240,160,84330,1,0
288,160,84530,5,0
288,160,84730,1,0
336,160,84930,1,0
336,160,85130,1,0
384,160,85330,6,0,B|464:128,2,50
384,248,86130,5,0
352,280,86330,1,0
312,304,86530,2,0,B|264:336|240:184|158:348|184:216,1,150,0|0
144,128,87730,5,0
144,128,87930,1,0
144,128,88130,1,0
232,128,88530,5,0
232,128,88730,2,0,B|160:41|224:56,1,100
264,128,89530,6,0,B|320:128,3,50
400,128,90530,6,0,B|400:224,3,50
400,264,91530,5,0
400,264,91730,1,0
352,264,91930,1,0
352,264,92130,1,0
240,128,92930,6,0,B|200:288|136:224,1,150
352,128,94530,6,0,B|424:200|272:208,2,150
264,128,96130,5,0
176,128,96530,1,0
176,216,96930,1,0
312,216,97530,5,0
312,216,97730,1,0
400,216,98130,2,0,B|424:304,2,50
376,128,98930,1,0
376,128,99130,6,0,B|320:128,1,50
256,184,99730,1,0
256,272,100130,1,0
192,208,100530,5,0
192,208,100730,1,0
192,208,100930,1,0
192,120,101330,1,0
280,120,101730,2,0,B|344:192,2,50
272,72,102330,5,0
320,72,102530,1,0
408,72,102930,1,0
408,160,103330,1,0
408,296,103930,5,0
408,296,104130,1,0
408,296,104330,2,0,B|344:280,3,50
272,264,105330,1,0
272,264,105530,5,0
272,216,105730,1,0
272,128,106130,2,0,B|227:82|176:136,1,100
184,216,106930,5,0
96,216,107330,2,0,B|96:104,3,100
176,80,108930,6,0,B|240:56,4,50
184,256,110530,2,0,B|243:211|168:208,4,50,0|0|0|0|0
88,64,120730,6,0,B|88:160,1,50
88,200,121330,1,0
88,200,121530,5,0
88,200,121730,1,0
176,208,122130,6,0,B|208:264|264:232,1,100
344,208,122930,6,0,B|400:152|304:120|280:192|264:184|272:88|264:80|176:160|152:144|184:48,1,300
96,80,124530,5,0
96,168,124930,2,0,B|176:216|248:208,1,150,0|0
440,312,126530,5,0
440,224,126930,1,0
440,224,127130,2,0,B|336:200|392:304,1,100
112,88,128930,6,0,B|184:160|56:122|56:208,1,150
144,216,129930,6,0,B|208:216,3,50
280,216,130930,5,0
368,208,131330,6,0,B|456:312|416:160,1,150
200,104,132930,5,0
96,192,133530,1,0
200,280,134130,1,0
48,56,135330,5,0
48,144,135730,1,0
48,144,135930,1,0
344,256,137130,5,0
344,256,137330,1,0
344,168,137730,2,0,B|480:200|424:104,1,150
240,232,139330,5,0
152,232,139730,1,0
152,184,139930,2,0,B|208:152|232:88|264:136,1,100
80,88,141730,6,0,B|145:133|216:48,1,150
272,120,142730,5,0
272,120,142930,1,0
272,120,143130,1,0
272,120,143330,1,0
360,120,143730,5,0
360,208,144130,2,0,B|464:264|320:304,1,150,0|0
200,280,145330,5,0
200,280,145530,1,0
200,280,145730,1,0
200,192,146130,2,0,B|200:136,1,50
280,96,146730,1,0
280,96,146930,1,0
280,96,147130,1,0
280,96,147330,6,0,B|376:168|480:112,2,200
144,104,149530,5,0
144,152,149730,2,0,B|128:264|88:280,1,100,0|0
208,232,150530,2,0,B|376:216|400:312,2,200
192,96,152730,5,0
192,96,152930,1,0
104,96,153330,1,0
176,144,153730,6,0,B|42:183|184:280,2,200
312,136,155930,5,0
312,136,156130,1,0
368,208,156530,1,0
280,216,156930,6,0,B|357:307|168:328,2,200
176,136,159130,5,0
176,136,159330,1,0
176,224,159730,2,0,B|224:256|272:232,1,100
