osu file format v5

[General]
AudioFilename: Metro Station - Disco.mp3
AudioLeadIn: 3000
PreviewTime: -1
Countdown: 0
SampleSet: Normal
StackLeniency: 0.7
Mode: 0
LetterboxInBreaks: 1
EditorBookmarks: 125,24725,38625,64125,77125,82725,96325,97325,120125,121525,147325

[Metadata]
Title:Disco
Artist:Metro Station
Creator:mrtn
Version:Hard
Source:
Tags:

[Difficulty]
HPDrainRate:7
CircleSize:5
OverallDifficulty:7
SliderMultiplier:2
SliderTickRate:3

[Events]
//Background and Video events
0,0,"disco.jpg"
//Break Periods
2,16325,23525
2,57525,63425
2,111525,119825
//Storyboard Layer 0 (Background)
//Storyboard Layer 1 (Failing)
//Storyboard Layer 2 (Passing)
//Storyboard Layer 3 (Foreground)
//Storyboard Sound Samples
//Background Colour Transformations
3,100,163,162,255

[TimingPoints]
130,400,4,1,0,100,1
25730,3000,4,2,0,100,0
38630,3000,4,1,0,100,0
64130,3000,4,2,0,100,0
77030,3000,4,1,0,100,0
96330,3000,4,2,0,100,0
97330,3000,4,1,0,100,0
120530,3000,4,2,0,100,0
121430,3000,4,1,0,100,0
159930,3000,4,2,0,100,0

[Colours]
Combo1 : 0,121,255
Combo2 : 18,218,213
Combo3 : 73,99,199
Combo4 : 20,218,104

[HitObjects]
96,104,130,2,0,B|128:248|352:72|416:320,2,400
408,294,2530,5,4
80,312,3330,6,0,B|88:128|392:304|360:88,2,400
362,106,5730,5,4
96,64,6530,6,0,B|48:176|404:-11|-7:313|352:184|368:360,2,400
392,128,8730,5,0
208,48,9130,1,0
144,240,9530,1,0
240,240,9730,6,0,B|376:216|176:88|48:136|40:328,2,400
464,56,11930,5,0
264,96,12330,1,0
424,208,12730,5,0
320,208,12930,1,0
320,304,13130,1,0
216,304,13330,1,0
216,200,13530,2,0,B|96:200,1,100
272,72,14130,5,0
368,72,14330,1,0
440,136,14530,1,0
440,232,14730,1,0
440,328,14930,2,0,B|336:280,1,100
256,240,15330,1,0
200,160,15530,1,0
96,160,15730,2,4,B|96:280,2,100,0|0|4
176,96,24730,5,0
176,192,24930,1,0
336,312,25330,1,0
88,136,25930,5,0
88,232,26130,2,0,B|135:289|176:288,1,100
248,232,26530,1,0
320,160,26730,1,0
416,152,26930,2,0,B|474:237|464:264,1,100
416,328,27330,1,0
112,320,27930,5,0
56,232,28130,1,0
112,144,28330,2,0,B|161:171|224:136,1,100
296,96,28730,1,0
448,336,29130,5,0
448,176,29330,1,0
288,176,29530,1,0
144,304,29930,5,0
144,200,30130,1,0
232,248,30330,1,0
144,200,30530,1,0
448,248,31130,5,0
360,200,31330,1,0
360,200,31430,1,0
360,200,31530,1,0
360,96,31730,1,0
256,96,31930,1,0
64,328,32330,5,0
64,224,32530,1,0
160,224,32730,1,0
160,224,32830,1,0
296,288,33130,1,0
392,288,33330,1,0
392,192,33530,1,0
296,192,33730,1,0
48,56,34330,5,0
144,56,34530,2,0,B|200:144,1,100
248,224,34930,1,0
160,272,35130,1,0
104,192,35330,1,0
160,272,35530,1,0
248,224,35730,5,0
328,168,35930,1,0
328,168,36030,1,0
440,264,36330,1,0
440,168,36530,1,0
384,88,36730,1,0
288,88,36930,1,0
104,304,37530,6,0,B|208:304,2,100
104,208,38130,1,0
160,136,38330,1,0
256,136,38530,1,0
320,208,38730,5,0
416,208,38930,1,0
88,320,39330,1,0
368,80,39730,1,0
80,88,40330,5,0
80,184,40530,1,0
168,224,40730,1,0
264,224,40930,2,0,B|352:367|368:176,1,200
112,320,41930,6,0,B|224:320,2,100
212,320,42530,1,0
212,320,42730,1,0
440,184,43130,1,0
384,104,43330,5,4
192,104,43730,1,4
88,264,44130,1,4
264,184,44530,1,4
344,240,44730,5,0
264,184,44930,1,0
88,104,45330,5,0
88,200,45530,1,0
184,200,45730,1,0
376,184,46130,5,0
320,104,46330,1,0
264,184,46530,1,0
168,152,46730,1,0
80,96,46930,2,0,B|70:25|192:48,2,100,0|0|0
80,296,47730,1,0
272,240,48130,5,0
368,240,48330,1,0
320,152,48530,1,0
120,160,48930,5,0
160,72,49130,1,0
200,160,49330,1,0
392,160,49730,5,0
272,312,50130,1,0
176,312,50330,2,0,B|72:296|264:240|280:152,1,200
104,80,51130,5,0
104,80,51330,1,0
104,80,51530,1,0
104,80,51730,1,0
408,304,52130,6,0,B|448:184|358:67|281:312|488:144,2,300
312,320,53530,5,4
216,320,53730,1,4
216,224,53930,5,0
120,224,54130,1,0
312,224,54530,2,0,B|514:306|272:56,1,300
192,48,55330,5,0
152,136,55530,1,0
120,224,55730,1,0
184,288,55930,5,0
280,288,56130,2,0,B|336:328|504:288|376:72,2,300
88,64,64330,5,0
88,160,64530,1,0
152,232,64730,1,0
248,232,64930,2,0,B|334:181|304:128,1,100
312,64,65330,1,0
408,64,65530,2,0,B|448:136|424:184,1,100
192,320,66330,5,0
96,304,66530,1,0
96,112,66930,1,0
432,192,67330,5,0
336,192,67530,1,0
280,112,67730,1,0
224,192,67930,1,0
280,112,68130,1,0
224,296,68530,6,0,B|328:296,2,100
56,56,69530,6,0,B|28:96|64:168,1,100
152,152,69930,1,0
152,248,70130,1,0
248,248,70330,2,0,B|221:324|256:352,1,100
448,80,70930,5,0
384,152,71130,1,0
320,80,71330,1,0
256,152,71530,1,0
184,80,71730,1,0
120,152,71930,1,0
48,80,72130,1,0
440,328,72730,5,0
344,328,72930,2,0,B|296:232,1,100
264,152,73330,1,0
184,208,73530,1,0
184,304,73730,1,0
96,256,73930,6,0,B|64:176|96:144,1,100
136,80,74330,1,0
232,80,74530,2,0,B|328:88|352:120,1,100
368,192,74930,1,0
440,256,75130,1,0
368,192,75330,1,0
112,328,75930,5,0
112,232,76130,2,0,B|144:160|216:168|248:88,1,200
304,160,76730,1,0
232,224,76930,1,0
296,296,77130,5,0
232,224,77330,1,0
112,72,77730,1,0
304,72,78130,1,0
456,320,78730,5,0
456,224,78930,1,0
360,224,79130,1,0
360,320,79330,1,0
360,128,79730,1,0
72,128,80330,6,0,B|72:232,2,100
168,128,80930,1,0
264,128,81130,1,0
264,320,81530,1,0
336,256,81730,5,0
336,256,81930,2,0,B|440:256,1,100
64,88,82530,5,4
424,88,82930,5,0
424,184,83130,1,0
344,136,83330,1,4
200,264,83730,5,0
104,264,83930,1,0
200,264,84130,2,0,B|232:344|280:264,1,100
288,184,84530,5,0
208,136,84730,1,0
120,96,84930,1,0
64,168,85130,1,0
120,96,85330,6,0,B|224:64,2,100
360,328,86130,5,0
264,328,86330,1,0
168,328,86530,2,0,B|136:280|288:256|136:136|360:144,1,300
72,72,87730,5,0
72,168,87930,1,0
168,168,88130,1,0
416,328,88530,5,0
416,232,88730,2,0,B|336:112|240:112,1,200
72,328,89530,5,0
72,232,89730,1,0
168,232,89930,1,0
168,136,90130,1,0
368,136,90530,6,0,B|368:240,3,100
80,320,91530,5,0
80,224,91730,1,0
168,264,91930,1,0
264,264,92130,1,0
168,88,92530,5,0
360,40,92930,2,0,B|520:80|400:288,1,300,0|0
80,232,93930,5,0
80,328,94130,1,0
176,328,94330,1,0
176,232,94530,2,0,B|288:232,1,100
376,232,94930,5,0
320,144,95130,1,0
224,144,95330,1,0
144,88,95530,1,0
48,88,95730,2,0,B|48:200,2,100
48,280,96530,5,0
240,280,96930,1,0
440,64,97530,5,0
344,64,97730,1,0
144,64,98130,2,0,B|168:168,1,100
184,256,98530,1,0
368,320,98930,1,0
432,248,99130,5,0
368,176,99330,1,0
184,256,99730,1,0
368,176,100130,1,0
184,104,100530,5,0
280,104,100730,1,0
184,104,100930,1,0
64,256,101330,1,0
256,256,101730,2,0,B|328:336,2,100
240,160,102330,5,0
336,160,102530,1,0
64,72,102930,1,0
64,336,103330,1,0
448,64,103930,5,0
448,160,104130,1,0
352,160,104330,1,0
280,232,104530,2,0,B|232:280|184:216,1,100
120,160,104930,1,0
352,328,105330,1,0
352,232,105530,5,0
280,160,105730,1,0
56,40,106130,1,0
56,304,106530,1,0
304,304,106930,5,0
304,40,107330,1,0
56,40,107730,1,0
56,304,108130,1,0
304,304,108530,1,0
176,168,108930,5,0
264,120,109130,1,0
264,216,109330,1,0
176,168,109530,1,0
88,120,109730,1,0
432,312,110530,1,0
432,216,110730,1,0
336,216,110930,2,0,B|395:171|320:104,2,100
88,64,120730,6,0,B|88:176,1,100
192,328,121330,1,0
264,264,121530,5,0
264,168,121730,1,0
432,64,122130,5,0
352,120,122330,1,0
264,64,122530,1,0
96,168,122930,5,0
96,264,123130,1,0
168,328,123330,1,0
248,264,123530,1,0
320,328,123730,1,0
392,264,123930,1,0
320,192,124130,1,0
168,64,124530,5,0
464,128,124930,2,0,B|384:80|267:28|216:216,1,300
80,328,125930,5,0
80,328,126130,1,0
80,328,126330,1,0
176,328,126530,5,0
456,160,126930,1,0
360,128,127130,2,0,B|256:104|376:280,1,200
80,80,127930,5,0
80,176,128130,1,0
176,176,128330,1,0
176,80,128530,1,0
336,184,128930,6,0,B|486:308|236:365|314:64|192:288,1,300
376,128,129930,1,0
464,168,130130,1,0
464,264,130330,1,0
376,304,130530,1,0
72,304,130930,5,0
224,64,131330,6,0,B|312:168|88:184|296:328,1,300
448,64,132330,6,0,B|472:112|416:176,3,100
104,304,133530,5,0
104,208,133730,1,0
200,208,133930,1,0
192,304,134130,2,0,B|240:312|304:264,2,100
480,40,135330,5,0
304,120,135730,1,0
400,120,135930,1,0
240,224,136330,5,0
192,304,136530,1,0
240,224,136730,1,0
144,224,136930,1,0
48,48,137330,5,0
240,48,137730,2,0,B|376:80|360:208|440:272,1,300
352,320,138530,5,0
256,320,138730,1,0
240,224,138930,1,0
104,88,139330,5,0
104,280,139730,1,0
104,184,139930,2,0,B|160:152|184:88|280:72,1,200
344,128,140530,5,0
400,200,140730,1,0
400,200,140830,1,0
400,200,140930,1,0
360,288,141130,1,0
264,288,141330,1,0
104,184,141730,2,0,B|133:312|176:56|184:184|160:344|240:80|240:352|296:56,1,300
264,288,142730,5,0
168,312,142930,1,0
72,280,143130,2,0,B|80:168,1,100
256,104,143730,6,0,B|368:104,1,100
256,104,144130,2,0,B|152:160|448:216|448:304,1,300
152,320,145330,5,0
88,248,145530,1,0
88,152,145730,1,0
272,88,146130,2,0,B|332:91|336:160,1,100
240,320,146730,1,0
240,224,146930,1,0
168,152,147130,1,0
240,224,147330,6,0,B|336:296|488:176|440:64|352:56|208:104,2,400
432,320,149530,5,0
336,320,149730,2,0,B|224:304|232:104,1,200
64,64,150530,2,0,B|232:48|432:176|384:272,2,400
248,288,152730,5,0
152,288,152930,1,0
344,288,153330,1,0
344,96,153730,6,0,B|232:48|136:176|488:280,2,400
56,136,155930,5,0
56,232,156130,1,0
232,320,156530,1,0
232,128,156930,6,0,B|376:88|208:216|168:248|448:280|400:40,2,400
448,328,159130,5,0
448,232,159330,1,0
256,192,159730,12,0,160130
