osu file format v5

[General]
AudioFilename: 02 Control.mp3
AudioLeadIn: 0
PreviewTime: -1
Countdown: 1
SampleSet: Soft
StackLeniency: 0.7
Mode: 0
LetterboxInBreaks: 1
EditorBookmarks: 32267

[Metadata]
Title:Control
Artist:Metro Station
Creator:Larto
Version:Under Control
Source:
Tags:

[Difficulty]
HPDrainRate:4
CircleSize:5
OverallDifficulty:4
SliderMultiplier:0.9
SliderTickRate:2

[Events]
//Background and Video events
0,0,"header1.jpg"
//Break Periods
2,42708,44345
2,47760,49398
2,71113,80900
2,92918,94872
2,98286,99924
//Storyboard Layer 0 (Background)
//Storyboard Layer 1 (Failing)
//Storyboard Layer 2 (Passing)
//Storyboard Layer 3 (Foreground)
//Storyboard Sound Samples
//Background Colour Transformations
3,100,163,162,255

[TimingPoints]
20396.8014276489,315.789473684211,4,1,0,60,1
20583,-100,4,2,0,60,0
22794,-100,4,1,0,60,0
23109,-100,4,2,0,60,0
24767,-100,4,1,0,60,0
24925,-100,4,2,0,60,0
25320,-100,4,1,0,60,0
25636,-100,4,2,0,60,0
27215,-100,4,1,0,60,0
27530,-100,4,2,0,60,0
27846,-100,4,1,0,60,0
28161,-100,4,2,0,60,0
29109,-100,4,1,0,60,0
29346,-100,4,2,0,60,0
29820,-100,4,1,0,60,0
29977,-100,4,2,0,60,0
30452,-100,4,1,0,60,0
30767,-100,4,2,0,60,0
49929,-100,4,1,0,31,0
50583,-100,4,1,0,60,0
70951,-100,4,2,0,60,0
100455,-100,4,1,0,33,0
101087,-100,4,1,0,59,0
121282,-100,4,2,0,60,0
126177,-100,4,2,0,71,0
131229,-100,4,1,0,51,0
136124,-100,4,1,0,70,0
140229,-100,4,1,0,0,0
141192,-100,4,2,0,60,0
151754,-100,4,1,0,100,0
171839,-100,4,2,0,100,0

[Colours]
Combo1 : 64,128,128
Combo2 : 0,128,64
Combo3 : 255,255,255
Combo4 : 174,0,0

[HitObjects]
128,192,20396,1,4
208,232,20712,2,0,B|232:200|224:168|208:136,2,90,2|0|2
304,232,21659,2,0,B|280:200|288:168|304:136,2,90,2|2|2
384,192,22607,1,8
384,192,22923,1,8
344,112,23238,5,0
304,32,23554,1,0
216,32,23870,1,0
128,32,24186,2,4,B|128:104|152:96|272:96,2,180,0|4|0
72,104,25765,6,2,B|96:176|168:184|240:184,1,180,0|2
256,264,26712,1,8
448,104,27344,6,0,B|424:176|352:184|280:184,1,180
352,104,28291,2,0,B|336:80|288:72|264:120,2,90,2|2|2
376,16,29238,1,0
136,16,29870,1,4
256,184,30502,1,4
312,40,31133,5,0
312,128,31449,1,0
392,80,31765,2,0,B|456:80|456:136,2,90,2|2|0
248,80,32949,2,0,B|168:80|168:136,2,101.25,2|2|0
336,88,33975,1,0
336,176,34291,1,2
336,264,34607,1,2
256,216,34923,2,0,B|256:112,2,90
152,320,36186,6,0,B|96:264|232:264|144:208,1,135,0|2
216,192,36975,1,2
360,320,37449,6,0,B|416:264|280:264|368:208,1,135,0|2
296,192,38238,1,2
256,72,38712,5,0
256,72,39186,1,2
256,160,39502,2,0,B|256:256,3,90,0|2|0|2
256,250,40607,5,8
160,96,41238,1,8
344,96,41870,1,8
256,248,42502,1,14
192,240,45659,6,0,B|192:144,1,90,8|0
256,240,46291,2,0,B|256:136,1,90,8|0
320,240,46923,2,8,B|320:136,2,90,8|8|14
256,88,50712,6,2,B|192:88|152:128|152:192|152:256|192:296|256:296|320:296|360:248|360:192|360:128|320:88|256:192,1,540,2|0
432,120,53238,2,2,B|496:152|496:248|424:272,2,180
376,192,54817,1,8
376,192,55133,1,8
256,192,55765,12,4,57186
88,192,57817,6,0,B|136:168|136:216|192:192,1,90
256,88,58607,1,8
424,192,59081,2,0,B|376:168|376:216|320:192,1,90
256,88,59870,1,8
208,160,60186,1,2
304,160,60502,1,2
344,240,60817,6,6,B|256:208|256:264|152:224,1,180,6|8
168,320,62081,2,2,B|256:352|256:296|360:336,1,180,2|12
320,152,63344,5,10
256,88,63659,1,0
192,152,63975,1,10
256,216,64291,2,0,B|256:312,3,90,0|8|0|8
256,192,65870,12,4,67291
112,248,68081,6,0,B|80:200|80:176|112:112,1,135,0|2
160,184,68870,1,2
400,248,69659,6,0,B|432:200|432:176|400:112,1,135,0|2
352,184,70607,1,12
352,184,70765,1,12
48,224,81659,6,0,B|48:256|88:256,1,45
160,216,82133,2,0,B|160:160|96:160,3,90,2|0|2|0
152,288,83554,5,8
152,288,83712,1,8
256,296,84028,2,0,B|256:184,2,90,2|0|2
360,288,84975,1,8
360,288,85291,1,8
256,296,85607,2,2,B|256:184,1,90
304,32,86712,6,0,B|328:72|344:112|344:168,1,135
343,159,87502,1,8
208,32,87975,6,0,B|184:72|168:112|168:168,1,135
169,159,88765,1,8
160,296,89238,6,0,B|192:344|256:352|328:344|360:288,1,225,2|2
256,264,90344,1,8
256,264,90659,1,8
168,192,91133,6,4,B|256:152|256:224|344:184,1,180
256,24,92396,1,8
256,24,92712,1,8
192,232,96186,6,0,B|144:208|152:144,2,90,4|0|0
320,232,97449,2,0,B|368:208|360:144,2,90,4|0|2
256,16,101238,6,2,B|256:104|256:104|144:128|128:192|192:256|256:320|320:256|384:192|384:128|256:128|256:192,1,540,2|0
432,128,103765,2,8,B|464:160|464:208|464:232,1,90
408,280,104396,2,8,B|344:280|320:256,1,90
288,184,105028,2,8,B|296:136|352:112,1,90
376,192,105659,1,4
256,192,106291,12,0,107712
144,192,108344,6,0,B|144:224|168:224,2,45,0|0|2
256,112,109133,1,8
368,192,109607,2,0,B|368:224|344:224,2,45,0|0|2
256,112,110396,1,8
256,112,110712,1,0
256,112,111028,1,8
320,168,111344,6,2,C|296:248|256:166|224:250|192:163,2,360
256,48,114502,1,8
224,248,115133,2,8,C|256:280|288:248,2,90
256,184,116081,5,4
208,112,116396,2,2,C|208:64|256:120|256:120|312:64|312:120,2,270
176,192,118607,5,0
176,280,118923,1,8
256,240,119238,1,0
336,280,119554,1,8
336,192,119870,1,12
336,192,120028,1,12
256,192,120186,12,4,121291
