osu file format v5

[General]
AudioFilename: 02 Control.mp3
AudioLeadIn: 0
PreviewTime: -1
Countdown: 1
SampleSet: Normal
StackLeniency: 0.7
Mode: 0
LetterboxInBreaks: 1
EditorBookmarks: 32267

[Metadata]
Title:Control
Artist:Metro Station
Creator:Larto
Version:CrazEEeee
Source:
Tags:

[Difficulty]
HPDrainRate:7
CircleSize:5
OverallDifficulty:8
SliderMultiplier:1.4
SliderTickRate:4

[Events]
//Background and Video events
0,0,"header1.jpg"
//Break Periods
2,48061,49953
2,70956,80900
2,98587,100479
2,141219,151006
//Storyboard Layer 0 (Background)
//Storyboard Layer 1 (Failing)
//Storyboard Layer 2 (Passing)
//Storyboard Layer 3 (Foreground)
//Storyboard Sound Samples
//Background Colour Transformations
3,100,163,162,255

[TimingPoints]
20395.8014276489,315.789473684211,4,1,0,60,1
20583,-100,4,2,0,62,0
22794,-100,4,1,0,62,0
23109,-100,4,2,0,62,0
24767,-100,4,1,0,62,0
24925,-100,4,2,0,62,0
25320,-100,4,1,0,62,0
25636,-100,4,2,0,62,0
27215,-100,4,1,0,62,0
27530,-100,4,2,0,62,0
27846,-100,4,1,0,62,0
28161,-100,4,2,0,62,0
29109,-100,4,1,0,62,0
29346,-100,4,2,0,62,0
29820,-100,4,1,0,62,0
29977,-100,4,2,0,62,0
30452,-100,4,1,0,62,0
30767,-100,4,2,0,62,0
50583,-100,4,1,0,94,0
70951,-100,4,2,0,60,0
101229,-100,4,1,0,100,0
121282,-100,4,2,0,43,0
126177,-100,4,2,0,71,0
131229,-100,4,1,0,51,0
136124,-100,4,1,0,70,0
140229,-100,4,1,0,12,0
141334,-100,4,2,0,61,0
151754,-100,4,1,0,100,0

[HitObjects]
72,80,20395,2,0,L|216:80,2,140,0|8|0
72,152,21185,1,8
72,224,21343,2,8,L|216:224,2,140
72,80,22290,1,8
72,80,22448,1,8
72,80,22606,1,8
224,80,22922,6,8,L|376:80,2,140
224,152,23711,1,8
224,224,23869,2,8,L|376:224,1,140
224,224,24501,2,0,L|224:72,1,140
224,224,25132,2,8,L|120:224,1,70
80,224,25448,6,0,L|80:80,2,140,0|8|0
152,224,26237,1,8
224,224,26395,2,8,L|224:72,2,140
360,224,27343,1,8
360,224,27501,1,8
360,224,27658,1,8
368,80,27974,6,8,L|520:80,2,140
320,136,28764,1,8
368,184,28922,2,8,L|520:184,1,140
368,184,29553,2,8,L|216:184,1,140
368,184,30185,2,8,L|368:232,3,46.6666666666667,8|8|8|4
176,312,30974,6,2,B|176:24,1,280
248,152,31922,1,2
104,152,32237,1,2
176,32,32553,1,10
312,32,32869,2,2,B|424:40|376:208,1,210,2|10
304,312,33658,2,2,B|384:248|384:168,1,140
384,56,34290,5,2
280,56,34527,1,2
192,144,34843,1,2
104,248,35158,1,2
192,144,35474,2,2,B|416:144,1,210,2|2
400,264,36185,5,2
336,224,36343,1,2
168,224,36737,1,2
168,224,37053,1,2
176,16,37448,1,2
232,64,37606,1,2
344,64,37843,2,0,B|368:120|368:120|320:160|384:200,1,140,0|0
96,192,38711,5,2
96,192,38869,1,2
232,192,39185,1,2
96,192,39501,1,2
232,192,39816,1,2
96,192,40132,1,2
232,192,40448,1,6
256,192,40606,12,6,43132
256,48,43764,6,6,B|256:192,1,140,2|10
116,188,44395,2,6,L|256:188,1,140
396,188,45027,2,6,L|256:188,1,140
256,192,45658,12,4,47869
400,200,50711,5,0
256,200,51027,1,0
400,200,51343,1,2
400,200,51501,1,2
400,200,51658,1,2
400,56,51974,5,0
256,56,52290,1,0
400,56,52606,1,2
328,56,52764,1,2
256,56,52922,1,2
112,56,53237,5,0
112,192,53553,1,0
248,192,53869,1,8
248,192,53948,1,8
248,192,54027,1,8
248,264,54185,1,2
384,264,54501,5,0
384,120,54816,1,0
248,88,55132,1,8
248,88,55211,1,8
248,88,55290,1,8
248,160,55448,1,2
104,160,55764,5,0
104,304,56080,1,0
104,160,56395,1,0
104,232,56553,1,0
104,304,56711,1,0
240,304,57027,5,0
240,160,57343,1,0
240,304,57658,1,0
240,232,57816,1,0
240,160,57974,1,0
376,160,58290,5,0
376,304,58606,1,0
376,160,58922,1,0
376,232,59080,1,0
376,304,59237,1,0
240,304,59553,5,0
240,160,59869,1,0
240,304,60185,1,8
240,264,60264,1,8
240,232,60343,1,8
240,160,60501,1,4
256,192,60816,12,4,62711
256,24,63343,6,0,C|256:336,3,280
256,192,65711,12,0,67764
256,192,68080,5,0
256,192,68237,1,0
256,192,68395,1,0
256,192,68553,1,0
112,192,68869,1,2
256,192,69658,5,0
256,192,69816,1,0
256,48,70132,2,2,C|256:136,1,70,0|0
256,256,70606,1,0
256,256,70764,1,4
336,72,81658,6,2,B|336:360,1,280
264,232,82606,1,2
408,232,82922,1,2
336,352,83237,1,10
200,352,83553,2,2,B|88:344|136:176,1,210,2|10
208,72,84343,2,2,B|128:136|128:216,1,140
128,328,84974,5,2
264,328,85290,1,2
400,328,85606,1,2
400,184,85922,2,2,B|176:184,1,210,2|2
88,88,86711,5,2
144,136,86869,1,2
280,136,87185,1,2
416,136,87501,1,2
416,328,87895,1,2
352,280,88053,1,2
200,280,88369,2,0,B|176:224|176:224|224:184|152:128,1,175,0|0
368,48,89237,5,2
408,112,89395,1,2
408,264,89711,1,2
408,112,90027,1,2
408,264,90343,1,2
408,112,90658,1,2
408,264,90974,1,6
256,192,91132,12,6,93658
256,336,94290,6,6,B|256:192,1,140,2|10
116,196,94922,2,6,L|256:196,1,140
396,196,95553,2,6,L|256:196,1,140
256,192,96185,12,4,98395
112,200,101237,5,0
256,200,101553,1,0
112,200,101869,1,2
112,200,102027,1,2
112,200,102185,1,2
112,56,102501,5,0
256,56,102816,1,0
112,56,103132,1,2
184,56,103290,1,2
256,56,103448,1,2
400,56,103764,5,0
400,192,104080,1,0
264,192,104395,1,8
264,192,104474,1,8
264,192,104553,1,8
264,264,104711,1,2
128,264,105027,5,0
128,120,105343,1,0
264,88,105658,1,8
264,88,105737,1,8
264,88,105816,1,8
264,160,105974,1,2
408,160,106290,5,0
408,304,106606,1,0
408,160,106922,1,0
408,232,107080,1,0
408,304,107237,1,0
272,304,107553,5,0
272,160,107869,1,0
272,304,108185,1,0
272,232,108343,1,0
272,160,108501,1,0
136,160,108816,5,0
136,304,109132,1,0
136,160,109448,1,0
136,232,109606,1,0
136,304,109764,1,0
272,304,110080,5,0
272,160,110395,1,0
272,304,110711,1,8
272,264,110790,1,8
272,232,110869,1,8
272,160,111027,1,12
256,192,111343,12,0,113237
256,192,113553,5,0
256,48,113869,1,0
256,120,114027,1,0
256,192,114185,1,0
256,336,114501,1,0
256,336,114816,5,0
256,264,114974,1,0
256,192,115132,1,0
256,120,115290,1,0
256,48,115448,1,0
256,192,115764,1,4
256,192,116080,12,0,118290
256,192,118606,5,0
256,192,118764,1,0
256,192,118922,1,0
256,192,119080,1,0
400,192,119395,1,0
256,192,120185,5,0
256,192,120343,1,0
256,48,120658,2,2,C|256:136,1,70,0|0
256,256,121132,1,0
256,256,121290,1,4
336,256,121448,5,2
336,256,121606,1,2
336,256,121764,1,2
336,184,121922,2,2,C|336:272,1,70
64,184,122711,5,2
200,120,123027,1,2
336,184,123343,1,2
336,184,123974,5,2
200,248,124290,1,2
64,184,124606,1,2
64,184,125237,5,2
200,120,125553,1,2
336,184,125869,1,2
176,256,126501,5,2
176,256,126658,1,2
176,256,126816,1,2
176,184,126974,2,2,C|176:272,1,70
448,184,127764,5,2
312,120,128080,1,2
176,184,128395,1,2
176,184,129027,5,2
312,248,129343,1,2
448,184,129658,1,2
448,184,130290,5,2
312,120,130606,1,2
176,184,130922,1,2
336,256,131553,5,8
336,256,131711,1,8
336,256,131869,1,8
336,184,132027,2,8,C|336:272,1,70
64,184,132816,5,8
200,120,133132,1,8
336,184,133448,1,8
336,184,134080,5,8
200,248,134395,1,8
64,184,134711,1,8
64,184,135343,5,8
200,120,135658,1,8
336,184,135974,1,8
176,184,136606,5,2
176,184,136685,1,0
176,184,136764,1,2
176,184,136843,1,0
176,184,136922,1,0
176,256,137080,2,2,C|176:168,1,70,2|2
448,256,137869,5,2
312,320,138185,1,2
176,256,138501,1,2
176,256,139132,5,2
312,192,139448,1,2
448,256,139764,1,2
448,256,140395,5,2
312,320,140711,1,2
176,256,141027,1,2
240,48,151764,5,0
240,184,152080,1,0
240,48,152395,1,2
240,48,152553,1,2
240,48,152711,1,6
376,48,153027,5,0
376,192,153343,1,0
376,48,153658,1,2
376,120,153816,1,2
376,192,153974,1,2
376,328,154290,5,0
232,328,154606,1,0
304,208,154922,1,8
304,208,155001,1,8
304,208,155080,1,8
304,136,155237,1,2
160,136,155553,5,0
160,272,155869,1,0
296,272,156185,1,8
296,272,156264,1,8
296,272,156343,1,8
296,344,156501,1,2
296,344,156816,5,0
160,344,157132,1,0
304,344,157448,1,0
232,344,157606,1,0
160,344,157764,1,0
160,200,158080,5,0
304,200,158395,1,0
160,200,158711,1,0
232,200,158869,1,0
304,200,159027,1,0
304,56,159343,5,0
160,56,159658,1,0
304,56,159974,1,0
232,56,160132,1,0
160,56,160290,1,0
160,200,160606,5,0
304,200,160922,1,0
160,200,161237,1,0
200,200,161316,1,0
232,200,161395,1,0
304,200,161553,1,0
256,192,161869,12,0,163764
248,192,164080,5,0
392,192,164395,1,0
320,192,164553,1,0
248,192,164711,1,0
112,192,165027,1,0
112,192,165343,5,0
184,192,165501,1,0
248,192,165658,1,0
320,192,165816,1,0
392,192,165974,1,0
248,192,166290,1,0
256,192,166606,12,0,168737
248,192,169132,5,0
248,192,169290,1,0
248,192,169448,1,0
248,192,169606,1,0
248,328,169922,1,2
248,192,170711,5,0
248,192,170869,1,0
384,192,171185,2,0,C|296:192,1,70
176,192,171658,1,0
176,192,171816,1,4
