osu file format v5

[General]
AudioFilename: 09 California.mp3
AudioLeadIn: 3000
PreviewTime: 34019
Countdown: 0
SampleSet: Normal
StackLeniency: 0.7
Mode: 0
LetterboxInBreaks: 1
EditorBookmarks: 578,11254,22375,33930,45225,50342,57754,62166,73283,84842,95783,107519,112813,118636,129754,140695,152342

[Metadata]
Title:California
Artist:Metro Station
Creator:Symbolic
Version:Hard
Source:
Tags:

[Difficulty]
HPDrainRate:7
CircleSize:5
OverallDifficulty:8
SliderMultiplier:1.4
SliderTickRate:2

[Events]
//Background and Video events
0,0,"background.jpg"
//Break Periods
2,45424,50122
2,62188,72886
2,107541,112416
2,129777,140651
//Storyboard Layer 0 (Background)
//Storyboard Layer 1 (Failing)
//Storyboard Layer 2 (Passing)
//Storyboard Layer 3 (Foreground)
//Storyboard Sound Samples
//Background Colour Transformations
3,100,163,162,255

[TimingPoints]
578,352.941176470588,4,1,0,70,1
11254,3000,4,2,0,100,0
22375,3000,4,1,0,70,0
50342,3000,4,2,0,100,0
73283,3000,4,1,0,70,0
84842,3000,4,2,0,100,0
95783,-100,4,1,0,70,0
158254,-100,4,1,0,0,0

[Colours]
Combo1 : 1,146,102
Combo2 : 17,255,4
Combo3 : 0,85,0
Combo4 : 17,255,136

[HitObjects]
256,192,225,1,0
392,192,578,1,12
296,296,930,2,0,B|224:296,1,70
152,296,1283,1,12
296,56,1989,1,12
152,56,2342,1,0
224,176,2695,2,12,B|224:248,2,70,12|0|0
360,168,3401,1,12
360,312,3754,1,0
360,240,3930,1,0
432,240,4107,1,12
152,240,4813,1,12
152,96,5166,1,0
296,96,5519,1,12
296,240,5872,5,2
224,240,6048,2,2,B|184:288|240:320,1,70
40,176,6754,1,0
40,320,7107,1,0
304,72,7989,2,2,B|304:144,1,70
88,144,8695,1,0
88,72,8872,1,0
296,280,9577,6,2,B|152:280,2,140
368,280,10460,1,0
368,208,10636,1,0
296,208,10813,2,4,B|224:208,1,70
152,208,11166,1,4
152,136,11342,5,0
224,136,11519,1,0
224,280,11872,1,0
368,280,12225,1,0
368,136,12577,1,0
296,136,12754,2,0,B|208:192|296:272|384:192,1,210
376,264,13460,1,0
376,336,13636,1,0
304,336,13813,1,0
232,336,13989,1,0
88,336,14342,5,0
88,192,14695,1,0
232,192,15048,1,0
376,192,15401,1,0
376,120,15577,1,0
160,120,16107,1,0
208,168,16283,2,0,B|264:224,1,70
328,216,16636,1,0
400,216,16813,1,0
400,72,17166,5,0
328,72,17342,1,0
328,144,17519,1,0
328,216,17695,2,0,B|328:264|288:264,1,70
144,264,18225,1,2
72,264,18401,2,2,B|48:184|80:96,1,140
144,128,18930,1,2
216,126,19107,2,2,B|240:206|208:294,1,140,0|0
360,264,19813,6,0,B|360:184,1,70
360,120,20166,1,0
432,120,20342,1,2
432,192,20519,1,2
432,264,20695,1,2
304,328,21048,2,0,B|248:328|248:264,1,70
244,147,21577,1,0
99,147,21930,2,0,B|88:72|208:48,1,140
328,40,22636,6,0,B|328:88|376:88,1,70
368,160,22989,1,0
296,160,23166,1,0
224,160,23342,1,0
224,232,23519,1,0
368,232,23872,6,0,B|296:232,1,70
152,232,24401,1,0
152,160,24577,1,0
80,160,24754,1,0
80,232,24930,2,0,B|80:280|128:280,1,70
192,280,25283,1,0
320,336,25636,5,0
392,336,25813,1,0
392,264,25989,2,0,B|448:208,1,70
392,160,26342,1,0
248,160,26695,2,4,B|280:120|240:88,1,70
104,96,27225,1,0
104,168,27401,1,0
176,168,27577,1,0
176,96,27754,2,0,B|208:56|168:24,2,70
312,96,28460,5,0
312,240,28813,1,0
456,240,29166,1,0
312,240,29519,2,0,B|240:240,1,70
96,240,30048,1,2
96,312,30225,1,2
168,312,30401,1,2
240,312,30577,1,2
240,240,30754,5,8
240,168,30930,1,8
384,168,31283,5,0
336,112,31460,1,0
272,72,31636,1,0
200,56,31813,1,0
128,56,31989,2,0,B|128:128,1,70
128,200,32342,1,0
80,256,32519,2,0,B|160:312|232:240,1,140
352,256,33225,1,0
352,184,33401,2,4,B|424:184,2,70
208,184,34107,5,0
208,112,34283,1,0
280,112,34460,2,0,B|320:80|280:56,1,70
136,56,34989,1,0
136,200,35342,1,0
136,344,35695,1,0
208,344,35872,2,4,B|280:344,1,70
278,271,36225,2,4,B|320:224|248:200,1,70
203,211,36577,5,0
240,144,36754,1,0
312,144,36930,2,0,B|384:144,1,70
280,40,37460,2,0,B|136:40,1,140,4|0
140,112,37989,1,0
67,112,38166,1,0
104,248,38519,1,0
176,248,38695,1,0
176,320,38872,2,2,B|106:320,2,70
248,320,39401,1,4
240,176,39754,6,0,B|320:176,1,70
312,248,40107,1,0
384,248,40283,1,0
384,176,40460,1,0
384,32,40813,1,2
312,32,40989,1,2
168,32,41342,2,0,B|120:32|120:80,1,70
184,104,41695,2,0,B|184:152|136:152,1,70
144,296,42225,1,4
288,296,42577,5,0
288,224,42754,2,0,B|288:176|240:176,2,70
432,224,43460,1,0
432,80,43813,1,0
288,80,44166,1,0
216,80,44342,2,2,B|216:152,1,70
144,152,44695,1,2
144,80,44872,2,2,B|72:80|72:184,1,140
72,192,50872,5,0
144,192,51048,1,0
288,192,51401,1,0
288,264,51577,1,0
216,264,51754,1,0
216,120,52107,2,2,B|168:88|256:88,1,70
384,88,52636,1,0
384,160,52813,1,0
384,232,52989,2,0,B|464:232,1,70
456,88,53519,1,4
312,88,53872,5,0
312,160,54048,1,0
312,232,54225,1,0
312,304,54401,2,0,B|248:304|248:240,1,70
112,272,54930,1,2
112,200,55107,1,2
112,56,55460,1,0
184,56,55636,1,0
184,128,55813,1,0
184,200,55989,2,4,B|272:200|272:304,1,140
440,152,56872,5,0
296,152,57225,1,2
296,80,57401,2,2,B|400:80|400:184,1,140
400,224,57930,1,0
328,224,58107,1,0
328,296,58283,1,0
184,296,58636,1,4
184,80,59166,5,0
112,80,59342,1,0
112,152,59519,2,0,B|80:184|112:216,2,70
184,152,60048,1,2
184,224,60225,1,2
328,224,60577,5,0
400,224,60754,2,0,B|400:152,1,70
288,64,61283,1,2
216,64,61460,1,2
144,64,61636,2,2,B|144:128|208:128|208:208,1,140
304,192,73636,5,0
304,264,73812,1,0
232,264,73989,2,0,B|192:296|232:320,1,70
376,320,74518,1,0
376,176,74871,1,0
376,32,75224,1,0
304,32,75401,2,2,B|232:32,1,70
234,105,75754,2,2,B|192:152|264:176,1,70
309,165,76106,5,0
272,232,76283,1,0
200,232,76459,2,0,B|128:232,1,70
232,336,76989,2,0,B|376:336,1,140,4|0
372,264,77518,1,0
445,264,77695,1,0
408,128,78048,5,0
336,128,78224,1,0
336,56,78401,2,2,B|406:56,2,70
264,56,78930,1,4
272,200,79283,6,0,B|192:200,1,70
200,128,79636,1,0
128,128,79812,1,0
128,200,79989,1,0
128,344,80342,1,2
200,344,80518,1,2
344,344,80871,2,0,B|392:344|392:296,1,70
328,272,81224,2,0,B|328:224|376:224,1,70
368,80,81754,1,4
224,80,82106,5,0
224,152,82283,2,0,B|224:200|272:200,2,70
80,152,82989,1,0
80,296,83342,1,0
224,296,83695,1,0
296,296,83871,2,2,B|296:224,1,70
368,224,84224,1,2
368,296,84401,2,2,B|440:296|440:192,1,140
440,120,84930,5,0
296,120,85283,1,0
224,120,85460,2,0,B|136:120|136:24,1,140
208,32,85989,1,0
208,104,86166,1,0
208,176,86342,2,2,B|208:248,1,70
280,248,86695,2,2,B|352:248,1,70
352,104,87225,1,4
352,248,87578,5,0
352,320,87754,2,0,B|280:320,1,70
136,320,88283,1,0
136,104,88813,1,0
208,104,88989,1,0
208,176,89166,1,0
136,176,89342,2,4,B|64:176|64:72,1,140
352,72,90401,5,0
352,144,90578,2,2,B|352:216,1,70
440,328,91107,1,4
304,272,91460,2,0,C|280:336|248:288|224:320,1,140
168,296,91989,2,2,C|120:296|120:256,1,70
112,128,92519,1,4
464,40,93401,6,0,C|464:112,1,70
464,256,93930,1,2
320,256,94283,1,0
320,112,94636,1,2
176,112,94989,1,0
176,256,95342,2,0,B|88:256|104:152,1,140,2|0
104,88,95872,5,0
248,88,96225,2,0,B|336:88|336:184,1,140
336,320,96930,1,4
48,320,97636,2,0,B|192:320|192:112,1,280
480,120,99048,5,0
264,312,99754,1,0
48,120,100460,2,0,B|280:120,1,210,0|4
464,344,101872,5,0
176,344,102577,1,0
176,56,103283,2,0,B|232:56|232:224|336:224,1,210,0|4
480,104,104342,5,0
336,112,104695,1,2
336,184,104872,1,2
480,184,105225,2,0,B|480:256|376:256,1,140
304,264,105754,1,2
232,264,105930,1,2
88,264,106283,1,0
40,136,106636,1,0
176,136,106989,2,2,C|248:136|248:64,1,140
216,144,113166,5,2
288,144,113342,2,2,B|328:96|272:64,1,70,0|0
472,208,114048,1,0
472,64,114401,1,0
208,312,115283,2,2,B|208:240,1,70
424,240,115989,1,0
424,312,116166,1,0
216,104,116871,6,2,B|360:104,2,140
144,104,117754,1,0
144,176,117930,1,0
216,176,118107,2,4,B|288:176,1,70
360,176,118460,1,4
360,320,118813,5,0
288,320,118989,1,0
216,320,119166,1,0
216,248,119342,1,0
216,104,119695,1,0
72,104,120048,1,0
72,240,120401,1,0
144,240,120577,2,2,B|216:272,1,70
208,336,120930,2,2,B|240:352|272:304,1,70
312,256,121283,5,0
336,192,121460,1,0
344,120,121636,2,0,B|352:80|320:48,1,70
184,48,122166,1,4
184,184,122519,2,0,B|96:184,2,70
280,288,123225,1,0
352,288,123401,1,0
424,288,123577,1,2
424,216,123754,2,2,B|344:216,1,70
354,144,124107,1,4
256,40,124460,6,0,B|176:40,1,70
112,40,124813,2,0,B|112:128,1,70
184,112,125166,1,0
184,256,125519,1,2
184,184,125695,1,2
304,256,126048,2,0,B|344:256|344:208,1,70
344,136,126401,2,0,B|384:136|384:88,1,70
240,88,126930,1,4
96,88,127283,5,0
152,40,127460,1,0
224,40,127636,1,0
296,40,127813,1,0
440,40,128166,2,0,B|440:184,1,140
440,320,128872,1,0
368,320,129048,2,2,B|296:320,3,70
80,72,141401,6,0,B|24:96|80:120,1,70
144,117,141754,2,0,B|194:96|138:72,1,70,0|0
136,216,142283,1,0
280,216,142636,2,0,B|424:216,1,140
416,288,143166,2,2,B|344:288,1,70
272,288,143519,2,2,B|272:328|224:328,1,70
152,328,143872,5,0
152,256,144048,1,0
152,184,144225,2,0,B|224:184,1,70
360,184,144754,1,4
360,40,145107,2,0,B|280:40,2,70
480,112,145813,5,0
408,112,145989,1,0
408,184,146166,1,2
336,184,146342,2,2,B|336:104,1,70
264,112,146695,1,4
120,112,147048,6,0,B|64:128|120:152,1,70
192,152,147401,2,0,B|192:224,1,70
120,224,147754,1,4
208,328,148107,1,2
280,328,148283,1,2
424,328,148636,2,0,B|424:256,1,70
352,256,148989,1,0
352,184,149166,2,0,B|352:80|248:152,1,140,0|4
120,144,149871,5,0
120,216,150048,2,0,B|56:232|120:256,2,70
264,216,150754,1,0
264,72,151107,2,0,B|408:72,1,140
404,143,151636,2,2,B|404:228,1,70
332,213,151989,2,2,B|332:130,1,70
120,144,152695,5,2
192,144,152872,1,2
192,216,153048,1,2
376,320,153577,2,0,B|448:320|448:216|368:216,1,140
80,64,154812,2,2,B|150:64,1,70
360,64,155519,2,0,B|360:160,1,70
168,344,156400,6,2,B|28:344,2,140
240,344,157283,2,0,B|304:320|240:296,1,70
181,300,157636,2,4,B|111:300,1,70,4|4
112,224,157989,1,4
256,192,158342,12,0,159401
