osu file format v6

[General]
AudioFilename: Metro Station - After the Fall.mp3
AudioLeadIn: 0
PreviewTime: 25775
Countdown: 0
SampleSet: Normal
StackLeniency: 0.4
Mode: 0
LetterboxInBreaks: 1

[Editor]
Bookmarks: 28721,32565,36900,47921
DistanceSpacing: 0.899999976158142
BeatDivisor: 4
GridSize: 8

[Metadata]
Title:After the Fall
Artist:Metro Station
Creator:Yumiko
Version:Normal
Source:
Tags:

[Difficulty]
HPDrainRate:5
CircleSize:4
OverallDifficulty:4
SliderMultiplier:1.1
SliderTickRate:1

[Events]
//Background and Video events
0,0,"07.jpg"
//Break Periods
2,52564,57458
2,113392,114562
2,120013,121182
//Storyboard Layer 0 (Background)
//Storyboard Layer 1 (Fail)
//Storyboard Layer 2 (Pass)
//Storyboard Layer 3 (Foreground)
//Storyboard Sound Samples
//Background Colour Transformations
3,100,0,0,0

[TimingPoints]
434,413.793103448276,4,1,0,100,1,0
11985,-100,4,2,0,81,0,0
23476,-100,4,1,0,65,0,0
24059,-100,4,1,0,72,0,0
24368,-100,4,2,0,92,0,0
24698,-100,4,1,0,61,0,0
25225,-100,4,1,0,72,0,0
25377,-100,4,1,0,69,0,0
25902,-100,4,1,0,100,0,0
26008,-100,4,1,0,45,0,0
26343,-100,4,1,0,71,0,0
26434,-100,4,1,0,83,0,0
26541,-100,4,1,0,87,0,0
26649,-100,4,1,0,97,0,0
38027,-200,4,1,0,100,0,0
39268,-100,4,1,0,89,0,0
39821,-200,4,1,0,87,0,0
40244,-200,4,1,0,87,0,1
43119,-100,4,1,0,100,0,1
49582,-100,4,1,0,87,0,1
50395,-200,4,1,0,89,0,1
51585,-100,4,1,0,100,0,1
52763,-100,4,1,0,100,0,0
58027,-100,4,2,0,91,0,0
66620,-200,4,1,0,80,0,0
67405,-100,4,1,0,100,0,0
67640,-100,4,2,0,99,0,0
68108,-100,4,1,0,76,0,0
69178,-100,4,2,0,90,0,0
69854,-200,4,2,0,90,0,0
71872,-100,4,1,0,71,0,0
83030,-200,4,1,0,61,0,0
84603,-100,4,1,0,75,0,0
84977,-200,4,1,0,91,0,0
85315,-100,4,1,0,100,0,0
85521,-100,4,1,0,61,0,0
85876,-100,4,1,0,83,0,0
85876,-100,4,1,0,94,0,0
86257,-100,4,1,0,99,0,0
86499,-100,4,1,0,99,0,0
100920,-200,4,1,0,86,0,0
102502,-100,4,1,0,100,0,1
108930,-200,4,1,0,87,0,1
109479,-200,4,1,0,100,0,1
110035,-200,4,1,0,91,0,1
110453,-200,4,1,0,100,0,1
112599,-100,4,1,0,100,0,0
113168,-200,4,1,0,100,0,0
115159,-100,4,1,0,100,0,0
115799,-200,4,2,0,94,0,0
118739,-100,4,1,0,100,0,0
119752,-100,4,1,0,100,0,0
121951,-200,4,2,0,90,0,0
125647,-200,4,1,1,73,0,0
130246,-200,4,1,0,73,0,0
131398,-200,4,1,1,73,0,0
132714,-200,4,1,1,81,0,0
138784,-100,4,1,0,75,0,0
139212,-100,4,1,0,83,0,0
139336,-100,4,1,0,89,0,0
139410,-100,4,1,0,93,0,1
139447,-100,4,1,0,93,0,1
139612,-100,4,1,0,98,0,1
139679,-100,4,1,0,100,0,1
147590,-200,4,1,0,100,0,1
148575,-100,4,1,0,100,0,0
151276,-100,4,1,0,100,0,0
152768,-100,4,1,0,100,0,1
152997,-100,4,1,0,100,0,1
153986,-200,4,1,0,84,0,1
155377,-100,4,1,0,100,0,1
161971,-100,4,1,1,87,0,1
162608,-200,4,1,0,93,0,1
163044,-100,4,1,1,92,0,1
163143,-200,4,1,1,100,0,1
164239,-200,4,1,1,86,0,1
165816,-100,4,1,0,21,0,1
165847,-100,4,1,0,21,0,0
166790,-100,4,1,0,0,0,0

[Colours]
Combo1 : 182,182,182
Combo2 : 251,255,166
Combo3 : 192,1,6
Combo4 : 0,114,168

[HitObjects]
112,56,12640,2,0,B|176:56,5,55
296,56,14296,2,0,B|336:80|336:120|336:184|296:216,1,165,0|8
88,208,16365,5,0
88,248,16571,1,2
168,288,16985,2,0,B|168:160,1,110,0|0
168,176,17606,1,0
248,216,18020,1,2
328,184,18433,1,4
216,48,19675,6,0,B|136:48,1,55
112,48,20089,2,0,B|64:112|72:184|112:216,1,165,0|8
232,200,21330,1,0
320,200,21744,2,0,B|384:240|360:336|328:344,1,165,0|8
192,240,23192,5,0
192,192,23399,2,0,B|168:96|232:72|272:64,1,165
304,64,24227,1,0
368,120,24640,1,0
296,168,25054,1,8
368,208,25468,1,0
256,192,26502,12,0,27537
112,112,28158,5,0
112,200,28571,2,0,B|184:240|272:200,1,165,0|8
400,208,29813,5,0
400,296,30227,2,0,B|360:344|288:344|240:280,1,165,0|8
120,288,31468,2,0,B|120:224,3,55
120,144,32502,1,8
248,144,33123,5,0
288,144,33330,1,0
328,144,33537,2,0,B|328:264,2,110,0|0|8
328,56,34778,1,0
416,56,35192,2,0,B|456:64|480:112|480:168|400:192,1,165,0|8
360,296,36434,5,0
360,296,36640,1,0
224,296,37261,1,0
224,296,37468,1,8
296,184,38089,1,0
296,184,38296,2,0,B|248:144|312:120|288:80,1,110
288,48,39330,5,0
240,48,39537,1,0
200,48,39744,1,8
152,48,39951,2,0,B|112:104|184:144|128:184,1,137.5
136,264,41399,1,8
256,192,41606,12,0,43054
280,72,43468,2,0,B|280:184,1,110,0|8
232,184,44089,2,0,B|232:64,1,110
184,72,44709,1,8
80,72,45123,2,0,B|40:112|40:176|64:224|80:232,1,165,0|8
288,232,46778,6,0,B|408:232,2,110,0|8|0
256,192,48020,12,0,49261
112,64,49675,5,8
112,152,50089,2,0,B|112:232|184:232,2,110,0|0|0
200,152,51330,1,8
288,152,51744,2,0,B|352:144|344:80,2,82.5,0|0|0
56,184,58778,5,0
128,224,59192,1,0
128,136,59606,1,2
296,192,60640,2,0,B|464:192,1,165,0|0
128,312,62916,6,0,B|56:312,1,55,0|0
72,312,63330,1,8
48,224,63744,2,0,B|104:176,1,55,0|0
160,128,64365,1,0
160,128,64571,1,0
160,128,64778,1,4
424,128,66020,6,0,B|480:160|480:232|440:272|408:264,1,165
344,264,67054,1,0
344,264,67261,1,8
256,264,67675,1,0
256,264,67882,1,8
256,176,68296,2,0,B|224:120|152:120|112:160|120:192,1,165,0|8
120,304,69537,6,0,B|200:304,1,55
208,304,69951,2,0,B|264:296|256:256,1,55,0|2
256,240,70571,1,0
368,240,70985,1,0
312,160,71399,1,4
144,88,72227,6,0,B|144:152,1,55
144,232,72847,1,8
232,232,73261,1,0
320,232,73675,2,0,B|320:304,2,55
320,144,74502,1,8
64,264,76158,5,0
96,288,76365,1,0
136,304,76571,2,0,B|192:336|248:296,1,110,0|8
256,224,77192,2,0,B|200:176|128:216,1,110
152,160,77813,1,0
152,160,78020,1,4
416,152,79261,5,0
416,192,79468,1,0
416,232,79675,2,0,B|392:304|280:328|240:216,1,220,0|0
288,104,81123,1,0
288,104,81330,1,0
200,104,81744,2,0,B|136:112|104:176|112:176,1,110,0|8
216,264,82778,5,0
272,296,82985,1,0
272,232,83192,2,0,B|288:184|320:184,1,55,0|8
344,144,83813,1,0
424,192,84227,5,0
424,80,84640,1,0
288,80,85054,1,0
64,80,86089,6,0,B|64:152,3,55
64,176,86916,1,0
64,264,87330,1,8
152,264,87744,2,0,B|280:264,2,110
152,216,88778,1,8
240,120,89399,5,0
328,120,89813,2,0,B|328:232,1,110,0|0
328,272,90434,2,0,B|248:272,1,55,8|0
184,272,91054,1,0
184,168,91468,2,0,B|160:120|208:56,1,110
248,56,92089,1,0
312,184,92709,5,0
312,184,92916,1,0
360,184,93123,2,0,B|360:72,1,110,0|8
312,72,93744,1,0
272,72,93951,1,0
184,72,94365,5,8
184,72,94778,2,0,B|104:152|192:216,1,165,0|8
320,216,96020,5,0
320,216,96227,1,0
232,312,96847,2,0,B|232:256,1,55,0|8
144,216,97675,1,0
144,216,97882,1,8
320,216,98709,6,0,B|320:144,1,55
377,164,99123,2,0,B|377:236,1,55,0|8
425,220,99537,1,0
256,192,99744,12,0,102227
208,72,102640,5,0
208,160,103054,2,0,B|192:216|144:208,2,82.5,0|0|8
304,72,104296,5,0
304,160,104709,2,0,B|320:216|368:208,2,82.5,0|0|8
112,256,106365,6,0,B|144:304|216:288,1,110
224,248,106985,2,0,B|280:200|344:256,1,110,0|0
352,272,107606,2,0,B|408:312|456:248,1,110
256,192,108227,12,0,109261
168,104,109675,6,0,B|192:80|240:112|240:120,1,55
232,152,110296,2,0,B|200:184|160:176,1,55,0|8
144,200,110916,1,0
192,272,111330,2,0,B|232:304|272:272|280:264,1,82.5,0|8
368,264,112571,5,0
368,192,112778,1,4
232,192,113192,1,0
128,56,115882,5,0
104,96,116089,1,0
88,136,116296,1,8
104,184,116502,1,0
120,224,116709,1,0
120,224,116916,2,0,B|160:184|192:224|192:224|200:216,1,82.5,0|8
192,272,117744,2,0,B|291:272,1,82.5,0|0
296,112,119192,5,0
368,112,119399,1,4
440,216,119813,1,0
352,80,122502,5,0
384,104,122709,2,0,B|432:144|408:192|408:192|408:192,1,82.5,0|8
400,216,123537,1,0
304,216,123951,1,0
208,216,124365,1,0
112,216,124778,1,8
176,48,125813,5,0
216,48,126020,2,0,B|256:64|264:104,1,55,0|8
256,120,126640,1,0
208,128,126847,2,0,B|176:160|216:200,1,55
200,216,127468,1,8
248,216,127675,2,0,B|280:240|264:280,1,55
272,304,128296,1,0
232,328,128502,2,0,B|192:352|168:304,1,55,0|8
128,224,129537,6,0,B|88:208|80:168,1,55,0|0
88,144,130158,1,0
88,96,130365,2,0,B|120:64|144:104,1,55,0|8
176,88,130985,1,0
216,88,131192,2,0,B|248:112|232:152,1,55
232,176,131813,1,0
232,224,132020,2,0,B|272:248|296:200,1,55,0|8
416,224,132847,5,0
416,136,133261,1,0
416,136,133468,1,0
272,136,134089,1,0
272,136,134296,2,0,B|232:96|192:144,1,82.5,0|8
200,176,135123,1,0
200,264,135537,1,0
376,264,136158,6,0,B|376:184,1,55
376,168,136778,2,0,B|304:168,1,55,0|0
240,168,137606,1,0
152,240,138020,5,0
232,320,138434,1,0
312,248,138847,1,0
256,192,139054,12,0,140296
256,104,140709,5,0
168,104,141123,2,0,B|104:104,3,55,0|0|0|8
112,240,142365,5,0
200,240,142778,2,0,B|248:184|304:248,1,110,0|8
296,272,143399,1,0
296,312,143606,1,0
384,312,144020,5,0
424,280,144227,1,0
424,232,144434,1,8
384,200,144640,1,0
384,200,144847,1,0
384,200,145054,1,0
240,200,145675,6,0,B|240:136,1,55,0|0
200,144,146089,1,8
112,144,146502,1,0
112,232,146916,1,0
112,320,147330,1,0
200,320,147744,2,0,B|264:336|272:272,1,82.5,0|8
296,120,148985,6,0,B|368:120,1,55,0|4
216,120,149813,2,0,B|152:120,1,55
256,208,150640,2,0,B|256:280,1,55,0|0
128,104,151675,5,0
192,104,151882,1,0
256,104,152089,1,8
320,104,152296,1,0
384,104,152502,1,0
384,176,152709,6,0,B|320:224|272:152|224:200,1,165
232,328,153951,1,0
144,328,154365,2,0,B|112:288|184:256|128:208,1,110,0|0
144,104,155606,5,0
232,104,156020,2,0,B|296:112|304:176,1,110,0|8
303,174,156640,1,0
232,280,157261,1,8
320,280,157675,2,0,B|368:344|424:264,1,110,0|8
408,280,158296,1,0
408,104,159123,5,0
360,104,159330,2,0,B|232:104,1,110,0|8
248,144,159951,2,0,B|248:224,1,55,0|0
248,288,160571,1,0
256,192,160778,12,0,161813
256,40,162227,5,0
208,128,162640,2,0,B|208:184,1,55,0|8
256,184,163261,2,0,B|328:184,1,55
312,232,163882,1,8
224,304,164296,6,0,B|264:344|304:296,1,82.5,0|0
296,304,165537,1,0
256,192,165951,12,0,169261
