osu file format v14

[General]
AudioFilename: pv.mp3
AudioLeadIn: 0
PreviewTime: 405
Countdown: 0
SampleSet: Soft
StackLeniency: 0.3
Mode: 0
LetterboxInBreaks: 0
WidescreenStoryboard: 0

[Editor]
DistanceSpacing: 0.5
BeatDivisor: 4
GridSize: 4
TimelineZoom: 1.5

[Metadata]
Title:Unknown Title
TitleUnicode:Unknown Title
Artist:Meto
ArtistUnicode:めと
Creator:imoutosan
Version:Normal
Source:紙の上の魔法使い
Tags:Metomate uguisukagura ウグイスカグラ visual novel eroge Misure
BeatmapID:1026138
BeatmapSetID:277049

[Difficulty]
HPDrainRate:3
CircleSize:3
OverallDifficulty:4
ApproachRate:4
SliderMultiplier:0.90000000596046
SliderTickRate:1

[Events]
//Background and Video events
0,0,"ag.jpg",0,0
Video,0,"pv.flv"
//Break Periods
2,51787,64807
2,104165,105043
//Storyboard Layer 0 (Background)
//Storyboard Layer 1 (Fail)
//Storyboard Layer 2 (Pass)
//Storyboard Layer 3 (Foreground)
//Storyboard Sound Samples

[TimingPoints]
405,479.727710843374,3,2,2,30,1,0
1364,-100,3,2,1,20,0,0
1844,-100,3,2,2,30,0,0
3043,-100,3,2,2,30,0,0
4242,-100,3,2,1,20,0,0
4722,-100,3,2,2,30,0,0
5682,-100,3,2,1,30,0,0
6160,472.44094488189,3,2,2,30,1,0
7577,-100,3,2,2,30,0,0
7695,-100,3,2,2,20,0,0
8994,-100,3,2,2,30,0,0
9112,-100,3,2,2,20,0,0
10415,487,3,2,2,20,1,0
11876,464.927710843374,3,2,1,30,1,0
11876,-100,3,2,1,30,0,0
12805,-100,3,2,2,30,0,0
13270,-100,3,2,2,30,0,0
13355,-100,3,2,1,10,0,0
14200,466.238461538462,3,2,1,20,1,0
14666,-100,3,2,2,30,0,0
15600,534.201680672269,3,2,1,15,1,0
16135,627.666666666667,3,2,1,20,1,0
16213,-100,3,2,1,5,0,0
18020,438.27611395179,3,2,1,30,1,1
18074,-100,3,2,1,30,0,0
22950,-100,3,2,1,20,0,0
23169,-100,3,2,1,10,0,0
23279,-100,3,2,1,30,0,0
25908,-100,3,2,1,20,0,0
26785,-100,3,2,1,30,0,0
28538,437.081222707424,3,2,1,30,1,0
29412,-100,3,2,1,30,0,0
29849,-100,3,2,1,30,0,0
30723,-100,3,2,1,30,0,0
32253,-100,3,2,1,30,0,0
33345,-100,3,2,1,30,0,0
33673,-100,3,2,1,10,0,0
33782,-100,3,2,1,30,0,0
34875,-100,3,2,1,30,0,0
35094,-100,3,2,1,30,0,0
37825,-100,3,2,1,20,0,0
39030,433.212996389892,3,2,2,20,1,0
41626,434.153400868307,3,2,2,25,1,0
44229,443.363636363636,3,2,1,30,1,0
45560,465.015267175573,3,2,1,35,1,0
46960,479.327572663001,3,2,1,40,1,0
48400,483.870967741935,3,2,1,45,1,0
49670,-100,3,2,1,40,0,0
49730,-100,3,2,1,35,0,0
49791,-100,3,2,1,30,0,0
49851,-100,3,2,1,25,0,0
51787,595,3,2,1,30,1,0
66127,606.060606060606,3,2,2,20,1,0
67917,599,3,2,2,30,1,0
69115,-100,3,2,1,5,0,0
69714,576.923076923077,3,2,2,20,1,0
72598,-100,3,2,2,5,0,0
73175,-100,3,2,1,10,0,0
73752,-100,3,2,1,15,0,0
74040,-100,3,2,1,20,0,0
74910,550.45871559633,3,2,2,30,1,0
77662,-100,3,2,1,20,0,0
78212,605.5,3,2,2,20,1,0
79423,-100,3,2,1,10,0,0
80028,508.354576271186,3,2,1,20,1,0
81553,-100,3,2,1,30,0,0
82315,-100,3,2,1,5,0,0
82569,-100,3,2,1,30,0,0
83586,-100,3,2,1,5,0,0
83713,-100,3,2,1,20,0,0
84476,-100,3,2,1,5,0,0
84603,-100,3,2,1,30,0,0
84730,-100,3,2,1,15,0,0
86128,-100,3,2,1,30,0,0
86636,-100,3,2,1,20,0,0
87653,-100,3,2,1,30,0,0
89168,508.354576271186,3,2,1,30,1,0
90703,508.354576271186,3,2,1,30,1,0
92235,485.82995951417,3,2,1,30,1,1
92295,-100,3,2,1,30,0,0
95149,481.927710843374,3,2,1,30,1,0
96594,497.367768595041,3,2,1,30,1,0
98086,-100,3,2,1,35,0,0
101069,484.4,3,2,1,40,1,0
101069,-100,3,2,1,40,0,0
102280,-100,3,2,1,45,0,0
102526,479.803278688525,3,2,1,50,1,0
102526,-100,3,2,1,50,0,0
102556,-100,3,2,1,30,0,0
106363,490.596892886345,3,2,2,30,1,0
107344,-100,3,2,1,20,0,0
107834,-100,3,2,2,30,0,0
108325,-100,3,2,1,10,0,0
108815,-100,3,2,1,20,0,0
109306,-100,3,2,2,30,0,0
110287,-100,3,2,1,20,0,0
110778,-100,3,2,2,30,0,0
111268,-100,3,2,1,10,0,0
111759,-100,3,2,1,20,0,0
112250,500,3,2,2,30,1,0
113250,-100,3,2,1,20,0,0
113500,-100,3,2,2,30,0,0
115250,-100,3,2,2,20,0,0

[Colours]
Combo1 : 255,170,255
Combo2 : 170,255,170
Combo3 : 170,170,255
Combo4 : 255,223,170

[HitObjects]
86,217,405,6,0,P|171:235|239:181,1,180.000001192092,2|0,0:0|0:0,0:0:0:0:
256,92,1844,1,8,0:0:0:0:
428,296,3283,6,0,P|342:314|275:259,1,180.000001192092,2|0,0:0|0:0,0:0:0:0:
258,170,4722,1,8,0:0:0:0:
256,352,5682,1,0,0:0:0:0:
344,324,6161,6,0,P|392:254|368:168,1,180.000001192092,8|0,0:0|0:0,0:0:0:0:
292,120,7577,2,0,P|284:60|368:100,1,180.000001192092,2|0,0:0|0:0,0:0:0:0:
368,168,8994,6,0,P|336:212|212:224,1,180.000001192092,2|0,0:0|0:0,0:0:0:0:
140,184,10415,2,0,P|80:176|40:192,2,90.000000596046
216,252,11876,6,0,L|360:384,1,180.000001192092,8|0,0:0|0:0,0:0:0:0:
436,372,13270,2,0,P|468:332|452:212,1,180.000001192092,0|2,0:0|0:0,0:0:0:0:
376,164,14666,6,0,P|349:80|391:3,1,180.000001192092
480,20,16134,1,2,0:0:0:0:
176,260,18020,6,0,P|184:196|176:168,1,90.000000596046,4|0,0:0|0:0,0:0:0:0:
128,96,18896,1,0,0:0:0:0:
212,60,19334,2,0,P|300:56|364:120,1,180.000001192092,2|0,0:0|0:0,0:0:0:0:
376,204,20649,6,0,P|424:184|444:152,2,90.000000596046
288,216,21964,2,0,P|256:264|344:284,1,180.000001192092,2|2,0:0|0:0,0:0:0:0:
376,204,23279,6,0,P|360:160|320:132,1,90.000000596046,4|0,0:0|0:0,0:0:0:0:
236,144,24155,1,0,0:0:0:0:
148,128,24594,2,0,P|104:56|168:4,1,180.000001192092,2|0,0:0|0:0,0:0:0:0:
224,76,25908,6,0,P|296:84|384:16,1,180.000001192092,8|0,0:0|0:0,0:0:0:0:
464,60,27223,1,0,0:0:0:0:
464,152,27662,1,2,0:0:0:0:
464,244,28100,1,8,0:0:0:0:
384,288,28538,6,0,B|332:316|332:316|200:272,1,180.000001192092,4|0,0:0|0:0,0:0:0:0:
132,244,29849,1,0,0:0:0:0:
12,376,30723,1,2,0:0:0:0:
84,320,31160,6,0,L|84:136,1,180.000001192092,0|2,0:0|0:0,0:0:0:0:
84,52,32471,1,0,0:0:0:0:
196,192,33345,1,2,0:0:0:0:
272,140,33782,6,0,P|336:132|404:216,1,180.000001192092,4|0,0:0|0:0,0:0:0:0:
412,304,35094,1,2,0:0:0:0:
500,148,35968,1,0,0:0:0:0:
424,200,36405,6,0,P|360:208|292:124,1,180.000001192092,2|0,0:0|0:0,0:0:0:0:
284,36,37716,2,0,L|104:80,1,180.000001192092
56,152,39030,6,0,P|48:196|64:248,2,90.000000596046,4|0|0,0:0|0:0|0:0,0:0:0:0:
136,192,40329,2,0,P|161:228|209:254,2,90.000000596046
220,163,41626,6,0,P|264:171|316:155,2,90.000000596046,8|0|0,0:0|0:0|0:0,0:0:0:0:
260,83,42928,2,0,P|296:57|320:12,2,90.000000596046
232,0,44229,6,0,P|195:25|169:73,2,90.000000596046,4|0|0,0:0|0:0|0:0,0:0:0:0:
260,84,45560,2,0,P|252:128|267:176,2,90.000000596046
339,123,46960,6,0,P|364:159|410:182,2,90.000000596046,4|0|0,0:0|0:0|0:0,0:0:0:0:
423,95,48400,2,0,P|467:102|515:87,3,90.000000596046,4|0|0|8,0:0|0:0|0:0|0:0,0:0:0:0:
412,32,66127,6,0,P|418:117|343:158,1,180.000001192092,8|0,0:0|0:0,0:0:0:0:
256,148,67917,1,2,0:0:0:0:
92,368,69714,6,0,P|88:282|163:240,1,180.000001192092,8|0,0:0|0:0,0:0:0:0:
252,260,71444,1,2,0:0:0:0:
440,68,73175,5,2,0:0:0:0:
360,176,74040,1,0,0:0:0:0:
328,208,74329,2,0,P|268:216|236:204,1,90.000000596046,2|8,0:0|0:0,0:0:0:0:
168,152,75460,2,0,P|112:140|72:152,2,90.000000596046
276,296,77662,5,0,0:0:0:0:
352,332,78212,2,0,P|400:268|330:230,1,180.000001192092
232,184,80028,6,0,P|162:144|210:81,1,180.000001192092,4|0,0:0|0:0,0:0:0:0:
296,116,81553,2,0,P|392:116|456:64,1,180.000001192092,8|0,0:0|0:0,0:0:0:0:
512,136,83078,6,0,B|512:224|512:224|480:260,1,135.000000894069,4|0,0:0|0:0,0:0:0:0:
448,288,84094,1,0,0:0:0:0:
364,252,84603,2,0,B|316:236|316:236|196:296,1,180.000001192092,2|0,0:0|0:0,0:0:0:0:
136,356,86128,6,0,P|112:284|148:220,1,135.000000894069
172,208,87144,1,2,0:0:0:0:
232,144,87653,2,0,P|240:92|228:56,2,90.000000596046,8|0|0,0:0|0:0|0:0,0:0:0:0:
260,228,89168,6,0,B|372:280|372:280|436:260,1,180.000001192092,2|0,0:0|0:0,0:0:0:0:
512,232,90703,1,0,0:0:0:0:
468,152,91211,1,0,0:0:0:0:
380,184,91720,1,0,0:0:0:0:
296,220,92235,6,0,L|212:188,2,90.000000596046,4|0|0,0:0|0:0|0:0,0:0:0:0:
380,184,93692,2,0,L|464:152,2,90.000000596046,2|0|0,0:0|0:0|0:0,0:0:0:0:
308,132,95149,6,0,P|304:64|320:32,2,90.000000596046,4|0|0,0:0|0:0|0:0,0:0:0:0:
380,184,96594,2,0,P|384:252|368:284,2,90.000000596046,2|0|0,0:0|0:0|0:0,0:0:0:0:
392,92,98086,5,4,0:0:0:0:
476,60,98583,1,0,0:0:0:0:
464,148,99080,1,0,0:0:0:0:
380,184,99578,5,2,0:0:0:0:
368,272,100075,1,0,0:0:0:0:
452,240,100572,1,0,0:0:0:0:
380,184,101069,6,0,L|308:128,2,90.000000596046,4|0|0,0:0|0:0|0:0,0:0:0:0:
368,272,102526,6,0,B|320:272|320:272|144:136,1,270.000001788138,4|8,0:0|0:0,0:0:0:0:
426,167,106363,6,0,P|341:149|273:203,1,180.000001192092,2|0,0:0|0:0,0:0:0:0:
256,292,107834,1,8,0:0:0:0:
84,88,109306,6,0,P|170:70|237:125,1,180.000001192092,2|0,0:0|0:0,0:0:0:0:
254,214,110778,1,8,0:0:0:0:
168,60,112250,6,0,P|120:130|144:216,1,180.000001192092,2|0,0:0|0:0,0:0:0:0:
220,264,113750,2,0,P|228:324|144:284,1,180.000001192092,8|0,0:0|0:0,0:0:0:0:
140,212,115250,6,0,B|168:176|168:176|352:156|352:156|384:144|388:96|348:81|320:96|316:128,1,360.000002384184,0|8,0:0|0:0,0:0:0:0:
