osu file format v14

[General]
AudioFilename: Over the Testament.mp3
AudioLeadIn: 0
PreviewTime: 51080
Countdown: 0
SampleSet: Soft
StackLeniency: 0.7
Mode: 0
LetterboxInBreaks: 0
WidescreenStoryboard: 0

[Editor]
DistanceSpacing: 1
BeatDivisor: 4
GridSize: 4
TimelineZoom: 1

[Metadata]
Title:Over The Testament ( Tv Size )
TitleUnicode:Over The Testament ( Tv Size )
Artist:Metamorphose feat. Yoko Ishida
ArtistUnicode:Metamorphose feat. Yoko Ishida
Creator:Kuriman
Version:Insane
Source:新妹魔王の契約者 Burst
Tags:shinmai maou no testament burst op tv size
BeatmapID:822489
BeatmapSetID:375566

[Difficulty]
HPDrainRate:6.6
CircleSize:4
OverallDifficulty:7.1
ApproachRate:8.5
SliderMultiplier:1.4
SliderTickRate:1

[Events]
//Background and Video events
Video,0,"22.flv"
0,0,"bg.jpg",0,0
//Break Periods
//Storyboard Layer 0 (Background)
//Storyboard Layer 1 (Fail)
//Storyboard Layer 2 (Pass)
//Storyboard Layer 3 (Foreground)
//Storyboard Sound Samples

[TimingPoints]
810,324.324324324324,4,2,1,85,1,0
5999,-100,4,2,1,85,0,0
11188,-100,4,2,1,85,0,1
21566,-100,4,2,1,85,0,0
21891,-117.647058823529,4,2,1,85,0,0
52701,-74.0740740740741,4,2,1,100,0,0
52864,-74.0740740740741,4,2,1,100,0,1
61782,-74.0740740740741,4,2,1,100,0,0
62918,-68.9655172413793,4,2,1,100,0,1
71837,-68.9655172413793,4,2,1,100,0,0
72647,-66.6666666666667,4,2,1,100,0,1
74593,-83.3333333333333,4,2,1,100,0,1
89188,-68.9655172413793,4,2,1,5,0,0

[HitObjects]
244,192,5999,5,2,0:0:0:0:
268,88,6323,2,2,L|196:88,1,70
244,192,6647,2,2,L|316:192,1,70
268,296,6972,2,2,L|196:300,1,70
40,296,7296,6,2,L|116:304,1,70
88,192,7620,2,2,L|4:196,1,70
48,96,7945,2,2,L|124:88,1,70
256,64,8269,6,2,L|336:64,1,70
292,172,8593,2,0,B|204:224|204:224|248:280,1,140,6|0,0:0|0:0,0:0:0:0:
328,324,9080,2,0,B|360:348|360:348|416:264,1,140,6|0,0:0|0:0,0:0:0:0:
432,168,9566,2,0,B|436:120|436:120|328:104,1,140,6|0,0:0|0:0,0:0:0:0:
232,80,10053,2,0,B|168:72|168:72|120:144,1,140,6|0,0:0|0:0,0:0:0:0:
126,134,10539,1,2,0:0:0:0:
126,134,10701,1,2,0:0:0:0:
352,116,11188,6,0,B|416:72|416:72|496:112,1,140,6|8,0:0|0:0,0:0:0:0:
256,240,11837,2,0,B|176:268|176:268|160:188,1,140,2|8,0:0|0:0,0:0:0:0:
220,64,12485,2,0,L|364:60,1,140,2|8,0:0|0:0,0:0:0:0:
384,212,13134,2,0,L|216:220,1,140,2|8,0:0|0:0,0:0:0:0:
72,132,13782,2,0,L|224:132,1,140,2|8,0:0|0:0,0:0:0:0:
380,132,14431,1,2,0:0:0:0:
156,136,14755,5,8,0:0:0:0:
156,136,15080,2,0,B|148:204|148:204|188:288,1,140,6|2,0:0|0:0,0:0:0:0:
178,268,15566,1,6,0:0:0:0:
320,200,15891,2,0,L|472:196,1,140,6|6,0:0|0:0,0:0:0:0:
316,72,16539,5,2,0:0:0:0:
316,72,16701,2,0,L|168:76,1,140,8|8,0:0|0:0,0:0:0:0:
128,192,17350,1,2,0:0:0:0:
128,192,17512,2,0,L|264:232,1,140,6|2,0:0|0:0,0:0:0:0:
324,248,17999,2,0,L|404:268,1,70,8|2,0:0|0:0,0:0:0:0:
456,288,18323,2,2,L|532:312,1,70,8|2,0:0|0:0,0:0:0:0:
484,220,18647,5,2,0:0:0:0:
484,220,18809,2,0,L|332:148,1,140,6|2,0:0|0:0,0:0:0:0:
300,124,19296,2,0,L|236:80,1,70,8|2,0:0|0:0,0:0:0:0:
188,48,19620,2,0,L|128:8,1,70,8|2,0:0|0:0,0:0:0:0:
144,104,19945,1,2,0:0:0:0:
144,104,20107,2,0,L|264:192,1,140,6|0,0:0|0:0,0:0:0:0:
92,232,20755,5,0,0:0:0:0:
116,260,20837,1,0,0:0:0:0:
140,288,20918,1,0,0:0:0:0:
164,304,20999,1,0,0:0:0:0:
196,320,21080,1,0,0:0:0:0:
232,328,21161,1,0,0:0:0:0:
268,332,21242,1,0,0:0:0:0:
380,332,21404,2,2,L|472:332,1,70
450,332,21728,1,2,0:0:0:0:
384,208,21891,6,0,B|312:200|312:200|248:208,1,119.000002269745,8|2,0:0|0:0,0:0:0:0:
184,264,22377,1,2,0:0:0:0:
116,196,22539,2,0,B|104:112|104:112|148:84,1,119.000002269745,8|2,0:0|0:0,0:0:0:0:
232,128,23026,1,2,0:0:0:0:
280,44,23188,2,0,B|344:24|344:24|428:32,1,119.000002269745,8|2,0:0|0:0,0:0:0:0:
476,80,23674,1,0,0:0:0:0:
456,176,23837,2,0,P|420:240|364:248,1,119.000002269745,8|2,0:0|0:0,0:0:0:0:
288,212,24323,1,2,0:0:0:0:
204,256,24485,2,0,L|68:256,1,119.000002269745,8|2,0:0|0:0,0:0:0:0:
24,184,24972,5,2,0:0:0:0:
80,100,25134,2,0,L|216:100,1,119.000002269745,8|2,0:0|0:0,0:0:0:0:
296,144,25620,1,2,0:0:0:0:
376,88,25782,2,0,P|408:144|464:176,1,119.000002269745,8|2,0:0|0:0,0:0:0:0:
448,264,26269,1,2,0:0:0:0:
348,264,26431,2,0,P|284:252|220:268,1,119.000002269745,8|2,0:0|0:0,0:0:0:0:
144,304,26918,1,2,0:0:0:0:
48,268,27080,2,0,L|48:144,1,119.000002269745,8|2,0:0|0:0,0:0:0:0:
52,56,27566,5,2,0:0:0:0:
152,56,27728,2,0,P|212:76|272:44,1,119.000002269745,8|2,0:0|0:0,0:0:0:0:
360,56,28215,1,2,0:0:0:0:
460,56,28377,2,0,L|460:180,1,119.000002269745,8|2,0:0|0:0,0:0:0:0:
456,268,28864,1,2,0:0:0:0:
452,360,29026,2,0,L|324:360,1,119.000002269745,8|2,0:0|0:0,0:0:0:0:
136,364,29674,2,0,B|104:320|104:320|136:264,1,119.000002269745,8|2,0:0|0:0,0:0:0:0:
176,184,30161,1,2,0:0:0:0:
223,100,30323,2,0,B|259:48|259:48|335:48,1,119.000002269745,8|6,0:0|0:0,0:0:0:0:
315,48,30728,1,2,0:0:0:0:
315,48,30809,1,2,0:0:0:0:
440,56,30972,6,0,L|440:148,1,59.5000011348725,2|6,0:0|0:0,0:0:0:0:
444,236,31458,2,0,L|372:236,1,59.5000011348725,2|6,0:0|0:0,0:0:0:0:
240,240,31945,6,2,L|240:168,1,59.5000011348725
240,88,32269,2,0,L|316:88,1,59.5000011348725,8|0,0:0|0:0,0:0:0:0:
416,88,32593,2,2,L|360:136,1,59.5000011348725
336,220,32918,2,0,L|416:256,1,59.5000011348725,8|0,0:0|0:0,0:0:0:0:
120,96,33404,5,2,0:0:0:0:
120,96,33566,2,0,L|172:148,1,59.5000011348725,8|0,0:0|0:0,0:0:0:0:
120,224,33891,2,2,L|180:280,1,59.5000011348725
248,320,34215,2,0,L|348:304,1,59.5000011348725,8|0,0:0|0:0,0:0:0:0:
408,268,34539,2,0,P|392:196|404:120,1,119.000002269745,2|8,0:0|0:0,0:0:0:0:
400,64,35026,6,0,L|324:64,1,59.5000011348725
240,60,35350,2,2,L|180:60,1,59.5000011348725
200,160,35674,2,0,P|216:224|196:284,1,119.000002269745,8|2,0:0|0:0,0:0:0:0:
96,272,36161,2,0,L|96:192,1,59.5000011348725,8|0,0:0|0:0,0:0:0:0:
96,112,36485,2,0,L|160:112,1,59.5000011348725,6|0,0:0|0:0,0:0:0:0:
268,120,36809,1,2,0:0:0:0:
268,120,36972,2,0,P|288:180|340:112,1,178.500003404617,6|8,0:0|0:0,0:0:0:0:
304,48,37620,5,0,0:0:0:0:
304,48,37782,2,0,L|304:148,1,59.5000011348725
300,192,38107,2,2,L|300:264,1,59.5000011348725
192,252,38431,2,0,B|104:252|104:252|64:196,1,119.000002269745,2|8,0:0|0:0,0:0:0:0:
64,144,38918,2,0,L|152:116,1,59.5000011348725
192,52,39242,2,0,L|288:56,1,59.5000011348725
344,56,39566,1,2,0:0:0:0:
348,60,39728,2,0,B|408:88|408:88|420:140,1,119.000002269745,6|2,0:0|0:0,0:0:0:0:
419,139,40215,1,6,0:0:0:0:
328,248,40539,6,0,P|256:232|192:248,1,119.000002269745,2|6,0:0|0:0,0:0:0:0:
96,192,41026,2,0,L|156:152,1,59.5000011348725
145,158,41350,1,0,0:0:0:0:
236,92,41431,5,2,0:0:0:0:
264,80,41512,1,2,0:0:0:0:
292,76,41593,1,2,0:0:0:0:
320,76,41674,1,2,0:0:0:0:
348,84,41755,1,2,0:0:0:0:
376,96,41837,1,2,0:0:0:0:
396,116,41918,1,2,0:0:0:0:
412,140,41999,2,2,L|456:200,2,59.5000011348725,2|2|6,0:0|0:0|0:0,0:0:0:0:
288,188,42647,5,2,0:0:0:0:
288,188,42809,2,0,L|288:280,1,59.5000011348725,6|0,0:0|0:0,0:0:0:0:
284,340,43134,2,2,L|200:336,1,59.5000011348725
132,332,43458,2,0,P|96:292|140:252,1,119.000002269745,6|2,0:0|0:0,0:0:0:0:
133,252,43945,1,8,0:0:0:0:
284,248,44269,6,0,L|284:112,1,119.000002269745,2|8,0:0|0:0,0:0:0:0:
160,84,44918,2,0,L|160:208,1,119.000002269745,6|2,0:0|0:0,0:0:0:0:
160,203,45404,1,8,0:0:0:0:
164,312,45728,2,0,L|228:312,1,59.5000011348725,0|2,0:0|0:0,0:0:0:0:
223,312,46053,1,8,0:0:0:0:
352,312,46377,5,2,0:0:0:0:
352,312,46539,2,0,L|352:244,1,59.5000011348725,8|0,0:0|0:0,0:0:0:0:
416,168,46864,2,0,L|364:136,1,59.5000011348725
268,92,47188,2,2,L|196:92,2,59.5000011348725
424,92,47837,5,2,0:0:0:0:
304,76,47999,2,0,L|272:160,1,59.5000011348725,8|0,0:0|0:0,0:0:0:0:
388,240,48323,1,2,0:0:0:0:
244,216,48485,2,0,L|220:276,1,59.5000011348725,8|0,0:0|0:0,0:0:0:0:
424,92,48809,1,2,0:0:0:0:
304,76,48972,2,0,L|276:152,1,59.5000011348725,8|0,0:0|0:0,0:0:0:0:
160,324,49296,1,2,0:0:0:0:
160,324,49458,2,0,L|248:328,1,59.5000011348725,8|0,0:0|0:0,0:0:0:0:
312,332,49782,5,2,0:0:0:0:
312,332,49945,2,0,P|356:268|308:184,1,178.500003404617,8|0,0:0|0:0,0:0:0:0:
152,136,50755,1,2,0:0:0:0:
284,68,51080,1,2,0:0:0:0:
284,68,51242,1,2,0:0:0:0:
284,68,51404,1,2,0:0:0:0:
284,68,52701,6,0,L|236:172,1,94.5000003604889,6|0,0:0|0:0,0:0:0:0:
368,148,53026,2,0,L|316:228,1,94.5000003604889,8|0,0:0|0:0,0:0:0:0:
228,260,53350,1,8,0:0:0:0:
144,216,53512,1,0,0:0:0:0:
124,124,53674,2,0,L|232:80,1,94.5000003604889,8|0,0:0|0:0,0:0:0:0:
304,60,53999,5,8,0:0:0:0:
360,136,54161,1,0,0:0:0:0:
344,228,54323,2,0,L|256:272,1,94.5000003604889,8|0,0:0|0:0,0:0:0:0:
176,312,54647,1,8,0:0:0:0:
88,284,54809,2,0,L|164:220,1,94.5000003604889,0|8,0:0|0:0,0:0:0:0:
252,192,55134,2,0,L|336:120,1,94.5000003604889,0|8,0:0|0:0,0:0:0:0:
176,80,55458,5,0,0:0:0:0:
176,80,55620,2,0,L|128:184,1,94.5000003604889,8|0,0:0|0:0,0:0:0:0:
232,172,55945,2,0,L|352:172,1,94.5000003604889,8|0,0:0|0:0,0:0:0:0:
400,232,56269,2,0,L|320:308,1,94.5000003604889,8|0,0:0|0:0,0:0:0:0:
236,292,56593,2,0,P|168:272|52:296,1,189.000000720978,8|8,0:0|0:0,0:0:0:0:
54,294,57080,1,0,0:0:0:0:
56,200,57242,6,0,L|56:84,1,94.5000003604889,8|0,0:0|0:0,0:0:0:0:
136,52,57566,1,8,0:0:0:0:
220,96,57728,2,0,P|328:108|424:88,1,189.000000720978,0|2,0:0|0:0,0:0:0:0:
484,40,58215,2,0,L|486:151,1,94.5000003604889,8|0,0:0|0:0,0:0:0:0:
460,224,58539,2,0,L|348:264,1,94.5000003604889,8|0,0:0|0:0,0:0:0:0:
288,208,58864,2,0,L|192:236,1,94.5000003604889,8|0,0:0|0:0,0:0:0:0:
96,240,59188,1,8,0:0:0:0:
168,132,59350,1,0,0:0:0:0:
256,52,59512,2,0,L|364:56,1,94.5000003604889,8|0,0:0|0:0,0:0:0:0:
380,244,59999,5,0,0:0:0:0:
380,244,60161,2,0,L|296:300,1,94.5000003604889,8|0,0:0|0:0,0:0:0:0:
208,284,60485,2,0,L|144:200,1,94.5000003604889,8|0,0:0|0:0,0:0:0:0:
164,116,60809,2,0,L|276:92,1,94.5000003604889,8|0,0:0|0:0,0:0:0:0:
352,88,61134,2,0,L|468:120,1,94.5000003604889,8|0,0:0|0:0,0:0:0:0:
380,184,61458,2,0,L|284:232,1,94.5000003604889,8|0,0:0|0:0,0:0:0:0:
204,196,61782,6,0,P|136:276|48:232,1,189.000000720978,6|2,0:0|0:0,0:0:0:0:
48,164,62269,2,0,L|164:120,1,94.5000003604889,6|0,0:0|0:0,0:0:0:0:
224,96,62593,1,6,0:0:0:0:
400,28,62918,5,0,0:0:0:0:
400,28,62999,1,0,0:0:0:0:
400,28,63080,2,0,L|404:152,1,101.500003097534
372,224,63404,6,0,L|268:284,1,101.500003097534,8|0,0:0|0:0,0:0:0:0:
184,268,63728,2,0,P|108:248|96:200,1,101.500003097534,8|0,0:0|0:0,0:0:0:0:
108,132,64053,2,0,B|152:92|152:92|208:84,1,101.500003097534,8|0,0:0|0:0,0:0:0:0:
288,48,64377,2,0,B|356:40|356:40|416:72,1,101.500003097534,8|0,0:0|0:0,0:0:0:0:
400,156,64701,2,0,B|336:176|336:176|288:220,1,101.500003097534,8|0,0:0|0:0,0:0:0:0:
208,204,65026,2,0,B|144:192|144:192|104:132,1,101.500003097534,8|0,0:0|0:0,0:0:0:0:
192,88,65350,6,0,L|308:64,1,101.500003097534,8|0,0:0|0:0,0:0:0:0:
392,56,65674,2,0,L|380:168,1,101.500003097534,8|0,0:0|0:0,0:0:0:0:
348,252,65999,2,0,L|244:264,1,101.500003097534,8|0,0:0|0:0,0:0:0:0:
192,180,66323,2,0,L|288:132,1,101.500003097534,8|0,0:0|0:0,0:0:0:0:
236,44,66647,2,0,L|124:60,1,101.500003097534,8|0,0:0|0:0,0:0:0:0:
36,72,66972,1,8,0:0:0:0:
156,236,67296,6,0,P|224:216|356:236,1,203.000006195069,0|8,0:0|0:0,0:0:0:0:
196,104,67945,2,0,L|308:108,1,101.500003097534
288,32,68269,2,0,P|264:116|296:224,1,203.000006195069,6|0,0:0|0:0,0:0:0:0:
339,167,68755,2,0,P|255:171|159:239,1,203.000006195069,6|0,0:0|0:0,0:0:0:0:
160,237,69242,6,0,L|271:295,1,101.500003097534,6|0,0:0|0:0,0:0:0:0:
348,316,69566,2,0,L|388:200,1,101.500003097534,8|0,0:0|0:0,0:0:0:0:
384,120,69891,2,0,L|268:144,1,101.500003097534,8|0,0:0|0:0,0:0:0:0:
184,124,70215,2,0,L|68:100,1,101.500003097534,8|0,0:0|0:0,0:0:0:0:
88,204,70539,1,8,0:0:0:0:
88,204,70701,2,0,L|196:248,1,101.500003097534,0|6,0:0|0:0,0:0:0:0:
376,184,71188,1,2,0:0:0:0:
376,184,71350,1,8,0:0:0:0:
232,124,71674,5,2,0:0:0:0:
236,128,71999,2,0,P|152:148|224:32,1,304.500009292603
316,48,72647,1,0,0:0:0:0:
444,88,72809,1,0,0:0:0:0:
252,152,72972,1,0,0:0:0:0:
384,196,73134,1,0,0:0:0:0:
180,256,73296,1,0,0:0:0:0:
320,312,73458,1,0,0:0:0:0:
128,108,74107,5,2,0:0:0:0:
128,108,74269,1,2,0:0:0:0:
128,108,74431,1,2,0:0:0:0:
128,108,74593,2,0,P|204:88|304:112,1,167.999994873047,6|2,0:0|0:0,0:0:0:0:
232,168,75080,2,0,L|152:256,1,83.9999974365235,8|0,0:0|0:0,0:0:0:0:
276,288,75404,5,2,0:0:0:0:
276,288,75566,2,0,L|392:248,1,83.9999974365235,2|0,0:0|0:0,0:0:0:0:
448,192,75891,2,0,P|388:148|380:60,1,167.999994873047,6|0,0:0|0:0,0:0:0:0:
264,76,76377,2,0,L|160:104,1,83.9999974365235,8|2,0:0|0:0,0:0:0:0:
112,200,76701,1,2,0:0:0:0:
112,200,76864,2,2,L|232:228,1,83.9999974365235
324,224,77188,6,0,P|300:160|320:56,1,167.999994873047,6|0,0:0|0:0,0:0:0:0:
376,120,77674,2,0,P|300:152|212:128,1,167.999994873047,8|2,0:0|0:0,0:0:0:0:
264,76,78161,2,0,P|276:160|216:224,1,167.999994873047,2|6,0:0|0:0,0:0:0:0:
96,108,78809,2,2,L|92:196,1,83.9999974365235
88,280,79134,2,0,P|152:304|268:256,1,167.999994873047,6|0,0:0|0:0,0:0:0:0:
332,208,79620,5,0,0:0:0:0:
332,208,79701,1,0,0:0:0:0:
332,208,79782,2,0,L|332:116,1,83.9999974365235
260,44,80107,2,0,L|184:92,1,83.9999974365235,2|8,0:0|0:0,0:0:0:0:
116,184,80431,2,0,L|208:236,1,83.9999974365235
296,160,80755,2,0,L|384:120,1,83.9999974365235,2|8,0:0|0:0,0:0:0:0:
456,56,81080,2,0,P|460:152|416:232,1,167.999994873047
308,232,81566,5,8,0:0:0:0:
308,232,81647,1,0,0:0:0:0:
308,232,81728,2,0,L|216:240,1,83.9999974365235
108,240,82053,2,0,L|144:156,1,83.9999974365235,0|8,0:0|0:0,0:0:0:0:
160,64,82377,2,0,P|260:48|340:72,1,167.999994873047
352,160,82864,2,0,L|272:204,1,83.9999974365235,8|0,0:0|0:0,0:0:0:0:
200,256,83188,2,0,L|152:176,1,83.9999974365235
72,116,83512,5,0,0:0:0:0:
72,116,83593,1,0,0:0:0:0:
72,116,83674,2,0,P|56:180|72:228,1,83.9999974365235,6|0,0:0|0:0,0:0:0:0:
224,68,83999,5,0,0:0:0:0:
224,68,84080,1,0,0:0:0:0:
224,68,84161,2,0,P|292:64|320:64,1,83.9999974365235,0|6,0:0|0:0,0:0:0:0:
464,84,84647,6,2,L|412:188,1,83.9999974365235
348,232,84972,2,0,L|176:228,2,167.999994873047,2|2|2,0:0|0:0|0:0,0:0:0:0:
288,112,85945,2,2,L|372:112,1,83.9999974365235
472,112,86269,2,0,L|468:280,2,167.999994873047,6|6|6,0:0|0:0|0:0,0:0:0:0:
256,192,87080,12,0,89188,0:0:0:0:
