osu file format v14

[General]
AudioFilename: Over the Testament.mp3
AudioLeadIn: 0
PreviewTime: 51080
Countdown: 0
SampleSet: None
StackLeniency: 0.7
Mode: 0
LetterboxInBreaks: 0
WidescreenStoryboard: 1

[Editor]
DistanceSpacing: 1
BeatDivisor: 4
GridSize: 4
TimelineZoom: 1

[Metadata]
Title:Over The Testament ( Tv Size )
TitleUnicode:Over The Testament ( Tv Size )
Artist:Metamorphose feat. Yoko Ishida
ArtistUnicode:Metamorphose feat. Yoko Ishida
Creator:Kuriman
Version:Easy
Source:新妹魔王の契約者 Burst
Tags:shinmai maou no testament burst op tv size
BeatmapID:822488
BeatmapSetID:375566

[Difficulty]
HPDrainRate:0
CircleSize:2
OverallDifficulty:2
ApproachRate:3
SliderMultiplier:1.4
SliderTickRate:1

[Events]
//Background and Video events
Video,0,"22.flv"
0,0,"bg.jpg",0,0
//Break Periods
2,49982,51261
//Storyboard Layer 0 (Background)
//Storyboard Layer 1 (Fail)
//Storyboard Layer 2 (Pass)
//Storyboard Layer 3 (Foreground)
//Storyboard Sound Samples

[TimingPoints]
810,324.324324324324,4,2,1,85,1,0
5999,-133.333333333333,4,2,1,85,0,0
11188,-133.333333333333,4,2,1,85,0,1
21566,-133.333333333333,4,2,1,85,0,0
52701,-133.333333333333,4,2,1,85,0,0
52864,-133.333333333333,4,2,1,100,0,1
61782,-133.333333333333,4,2,1,100,0,0
62918,-133.333333333333,4,2,1,100,0,1
71837,-133.333333333333,4,2,1,100,0,0
72647,-133.333333333333,4,2,1,100,0,1
89188,-133.333333333333,4,2,1,5,0,0

[HitObjects]
112,172,5999,5,6,0:0:0:0:
112,60,6323,2,2,L|240:60,1,105.000004005432
324,60,6972,2,2,L|444:60,1,105.000004005432
424,164,7620,2,2,L|420:288,1,105.000004005432
316,268,8269,2,2,L|192:268,1,105.000004005432,0|6,0:0|0:0,0:0:0:0:
104,268,8918,1,2,0:0:0:0:
104,164,9242,1,2,0:0:0:0:
208,164,9566,1,2,0:0:0:0:
312,164,9891,2,2,L|420:164,1,105.000004005432
416,60,10539,1,2,0:0:0:0:
204,56,11188,6,0,L|88:56,1,105.000004005432,6|8,0:0|0:0,0:0:0:0:
100,160,11837,2,0,L|200:228,1,105.000004005432,2|8,0:0|0:0,0:0:0:0:
288,248,12485,2,0,L|408:256,1,105.000004005432,2|8,0:0|0:0,0:0:0:0:
404,152,13134,2,0,L|308:80,1,105.000004005432,2|8,0:0|0:0,0:0:0:0:
220,60,13782,2,0,L|104:88,1,105.000004005432,2|8,0:0|0:0,0:0:0:0:
128,188,14431,2,0,B|152:252|152:252|196:284,1,105.000004005432,2|8,0:0|0:0,0:0:0:0:
284,288,15080,2,0,B|372:276|372:276|440:248,1,157.500006008148,6|6,0:0|0:0,0:0:0:0:
412,148,15891,2,0,B|320:88,1,105.000004005432,2|6,0:0|0:0,0:0:0:0:
168,72,16701,6,0,L|88:144,1,105.000004005432,8|2,0:0|0:0,0:0:0:0:
164,220,17350,1,8,0:0:0:0:
244,288,17674,1,2,0:0:0:0:
348,296,17999,1,8,0:0:0:0:
452,296,18323,2,0,P|440:224|456:132,1,157.500006008148,2|2,0:0|0:0,0:0:0:0:
452,36,19134,2,0,P|372:52|280:32,1,157.500006008148,2|8,0:0|0:0,0:0:0:0:
192,36,19945,1,2,0:0:0:0:
192,140,20269,1,8,0:0:0:0:
188,244,20593,1,2,0:0:0:0:
188,348,20918,2,0,L|68:348,1,105.000004005432,8|2,0:0|0:0,0:0:0:0:
72,148,21891,6,0,L|180:148,1,105.000004005432,8|2,0:0|0:0,0:0:0:0:
280,148,22539,2,0,L|392:132,1,105.000004005432,8|2,0:0|0:0,0:0:0:0:
444,44,23188,2,0,L|328:44,1,105.000004005432,8|2,0:0|0:0,0:0:0:0:
232,40,23837,2,0,B|160:40|160:40|104:56,1,105.000004005432,8|2,0:0|0:0,0:0:0:0:
72,140,24485,2,0,B|100:200|100:200|148:244,1,105.000004005432,8|2,0:0|0:0,0:0:0:0:
224,268,25134,2,0,L|344:292,1,105.000004005432,8|2,0:0|0:0,0:0:0:0:
432,288,25782,2,0,L|432:172,1,105.000004005432,8|2,0:0|0:0,0:0:0:0:
428,76,26431,2,0,L|288:48,1,105.000004005432,8|2,0:0|0:0,0:0:0:0:
220,56,27080,6,0,P|156:104|140:136,1,105.000004005432,8|2,0:0|0:0,0:0:0:0:
100,220,27728,2,0,P|132:280|164:304,1,105.000004005432,8|2,0:0|0:0,0:0:0:0:
264,308,28377,2,0,P|336:304|392:316,1,105.000004005432,8|2,0:0|0:0,0:0:0:0:
472,312,29026,2,0,L|472:204,1,105.000004005432,8|2,0:0|0:0,0:0:0:0:
464,104,29674,2,0,P|392:40|344:28,1,105.000004005432,8|2,0:0|0:0,0:0:0:0:
280,52,30323,2,0,P|200:80|168:52,1,105.000004005432,8|2,0:0|0:0,0:0:0:0:
92,32,30972,2,0,L|88:148,1,105.000004005432,8|2,0:0|0:0,0:0:0:0:
84,240,31620,5,8,0:0:0:0:
80,344,31945,1,6,0:0:0:0:
184,344,32269,1,8,0:0:0:0:
288,340,32593,2,0,L|376:276,1,105.000004005432,2|8,0:0|0:0,0:0:0:0:
436,196,33242,2,0,L|400:84,1,105.000004005432,2|8,0:0|0:0,0:0:0:0:
312,48,33891,2,0,L|200:48,1,105.000004005432,2|8,0:0|0:0,0:0:0:0:
104,52,34539,5,2,0:0:0:0:
104,156,34864,1,8,0:0:0:0:
100,260,35188,2,0,L|260:260,1,157.500006008148,2|8,0:0|0:0,0:0:0:0:
416,260,36161,2,2,L|436:128,1,105.000004005432
440,52,36809,2,0,L|328:52,1,105.000004005432,8|2,0:0|0:0,0:0:0:0:
228,52,37458,2,0,P|144:100|124:152,1,105.000004005432,8|2,0:0|0:0,0:0:0:0:
92,196,38107,5,8,0:0:0:0:
60,296,38431,1,2,0:0:0:0:
148,348,38755,1,8,0:0:0:0:
252,324,39080,2,0,P|304:272|364:248,1,105.000004005432,2|8,0:0|0:0,0:0:0:0:
416,196,39728,2,0,L|484:44,1,157.500006008148,6|6,0:0|0:0,0:0:0:0:
376,44,40539,2,0,L|244:44,1,105.000004005432,2|6,0:0|0:0,0:0:0:0:
72,48,41350,6,0,L|128:184,1,105.000004005432,8|2,0:0|0:0,0:0:0:0:
172,232,41999,2,0,L|288:312,1,105.000004005432,8|2,0:0|0:0,0:0:0:0:
348,344,42647,2,0,P|424:340|456:256,1,157.500006008148,14|6,0:0|0:0,0:0:0:0:
464,168,43458,2,0,B|464:64|464:64|396:64,1,157.500006008148,14|8,0:0|0:0,0:0:0:0:
304,64,44269,2,0,L|184:64,1,105.000004005432,2|8,0:0|0:0,0:0:0:0:
92,68,44918,2,0,L|88:232,1,157.500006008148,6|2,0:0|0:0,0:0:0:0:
88,332,45728,2,0,L|240:332,1,105.000004005432,2|6,0:0|0:0,0:0:0:0:
420,328,46539,6,0,L|420:220,1,105.000004005432,8|2,0:0|0:0,0:0:0:0:
420,116,47188,2,0,P|392:64|352:32,1,105.000004005432,8|2,0:0|0:0,0:0:0:0:
252,32,47837,2,0,L|136:32,1,105.000004005432,8|2,0:0|0:0,0:0:0:0:
44,32,48485,2,0,L|44:192,1,157.500006008148,14|14,0:0|0:0,0:0:0:0:
44,296,49296,2,0,L|216:296,1,157.500006008148,0|8,0:0|0:0,0:0:0:0:
368,60,52701,6,0,L|216:60,1,105.000004005432,6|8,0:0|0:0,0:0:0:0:
156,60,53350,2,0,L|72:132,1,105.000004005432,2|8,0:0|0:0,0:0:0:0:
120,224,53999,2,0,L|240:344,1,157.500006008148,2|2,0:0|0:0,0:0:0:0:
336,328,54809,2,0,L|432:200,1,157.500006008148,12|2,0:0|0:0,0:0:0:0:
488,116,55620,2,0,L|376:28,1,105.000004005432,8|2,0:0|0:0,0:0:0:0:
300,48,56269,6,0,L|172:48,1,105.000004005432,8|2,0:0|0:0,0:0:0:0:
104,104,56918,2,0,P|128:168|168:224,1,105.000004005432,8|2,0:0|0:0,0:0:0:0:
212,284,57566,2,0,L|332:280,1,105.000004005432,8|2,0:0|0:0,0:0:0:0:
420,252,58215,2,0,L|416:136,1,105.000004005432,8|2,0:0|0:0,0:0:0:0:
416,40,58864,6,0,P|348:52|296:40,1,105.000004005432,14|2,0:0|0:0,0:0:0:0:
208,44,59512,2,0,P|224:120|208:160,1,105.000004005432,14|2,0:0|0:0,0:0:0:0:
160,232,60161,2,0,P|96:264|40:248,1,105.000004005432,14|6,0:0|0:0,0:0:0:0:
28,160,60809,2,0,P|56:96|112:76,1,105.000004005432,2|8,0:0|0:0,0:0:0:0:
188,52,61458,2,0,P|252:44|304:56,1,105.000004005432,2|14,0:0|0:0,0:0:0:0:
396,56,62107,2,0,L|392:224,1,157.500006008148,2|2,0:0|0:0,0:0:0:0:
392,320,62918,6,0,B|316:336|316:336|216:324,1,157.500006008148,0|2,0:0|0:0,0:0:0:0:
140,284,63728,2,0,B|120:232|120:232|132:160,1,105.000004005432,8|2,0:0|0:0,0:0:0:0:
160,84,64377,2,0,P|216:92|280:68,1,105.000004005432,8|2,0:0|0:0,0:0:0:0:
368,80,65026,2,0,L|368:216,1,105.000004005432,8|2,0:0|0:0,0:0:0:0:
360,288,65674,2,0,B|308:280|308:280|256:288,1,105.000004005432,8|2,0:0|0:0,0:0:0:0:
152,288,66323,2,0,L|32:288,1,105.000004005432,8|2,0:0|0:0,0:0:0:0:
48,184,66972,2,0,B|48:108|48:108|112:108,1,105.000004005432,8|2,0:0|0:0,0:0:0:0:
180,108,67620,2,0,L|296:108,1,105.000004005432,8|2,0:0|0:0,0:0:0:0:
392,112,68269,6,0,L|392:288,1,157.500006008148,14|2,0:0|0:0,0:0:0:0:
288,268,69080,2,0,L|112:268,1,157.500006008148,2|8,0:0|0:0,0:0:0:0:
128,164,69891,2,0,L|252:164,1,105.000004005432,2|8,0:0|0:0,0:0:0:0:
336,160,70539,2,0,L|456:160,1,105.000004005432,2|8,0:0|0:0,0:0:0:0:
444,56,71188,2,2,P|384:48|272:56,1,157.500006008148
184,52,71999,2,0,P|160:112|188:208,1,157.500006008148,8|2,0:0|0:0,0:0:0:0:
180,304,72809,2,2,L|320:304,1,105.000004005432
392,308,73458,2,0,B|440:232|440:232|392:132,1,157.500006008148,2|0,0:0|0:0,0:0:0:0:
360,80,74269,2,0,L|224:80,1,105.000004005432,2|6,0:0|0:0,0:0:0:0:
96,80,75080,6,0,L|96:220,1,105.000004005432,8|2,0:0|0:0,0:0:0:0:
96,288,75728,1,8,0:0:0:0:
196,288,76053,2,0,L|336:288,1,105.000004005432,2|8,0:0|0:0,0:0:0:0:
404,288,76701,2,0,L|404:176,1,105.000004005432,2|8,0:0|0:0,0:0:0:0:
400,76,77350,2,0,P|312:96|184:72,1,210.000008010865,2|2,0:0|0:0,0:0:0:0:
92,52,78323,2,0,P|116:164|84:280,1,210.000008010865,8|2,0:0|0:0,0:0:0:0:
200,256,79296,2,0,L|332:256,1,105.000004005432,2|8,0:0|0:0,0:0:0:0:
412,252,79945,2,0,L|412:136,1,105.000004005432,2|8,0:0|0:0,0:0:0:0:
408,44,80593,2,0,P|352:52|296:44,1,105.000004005432,2|8,0:0|0:0,0:0:0:0:
200,48,81242,6,0,P|220:152|208:264,1,210.000008010865,2|2,0:0|0:0,0:0:0:0:
316,252,82215,2,0,L|428:252,1,105.000004005432,8|2,0:0|0:0,0:0:0:0:
424,148,82864,2,0,L|424:28,1,105.000004005432,8|2,0:0|0:0,0:0:0:0:
320,44,83512,2,0,B|220:76|220:76|88:40,1,210.000008010865,8|2,0:0|0:0,0:0:0:0:
120,208,84647,2,2,L|260:208,3,105.000004005432
332,208,85945,2,0,L|460:208,1,105.000004005432,2|6,0:0|0:0,0:0:0:0:
440,104,86593,2,6,L|328:104,1,105.000004005432
256,192,87242,12,0,89188,0:0:0:0:
