osu file format v9

[General]
AudioFilename: 08 - Bad Seed~1.mp3
AudioLeadIn: 0
PreviewTime: 110462
Countdown: 0
SampleSet: Soft
StackLeniency: 0.7
Mode: 0
LetterboxInBreaks: 1

[Editor]
DistanceSpacing: 0.9
BeatDivisor: 4
GridSize: 4

[Metadata]
Title:Bad Seed
Artist:Metallica
Creator:TicClick
Version:Normal
Source:
Tags:ReLoad Vass_Bass

[Difficulty]
HPDrainRate:4
CircleSize:3
OverallDifficulty:4
ApproachRate:5
SliderMultiplier:1.3
SliderTickRate:2

[Events]
//Background and Video events
0,0,"bg.jpg"
//Break Periods
2,54379,60494
2,80485,86830
2,103413,109491
2,163791,169933
//Storyboard Layer 0 (Background)
//Storyboard Layer 1 (Fail)
//Storyboard Layer 2 (Pass)
//Storyboard Layer 3 (Foreground)
//Storyboard Sound Samples
//Background Colour Transformations
3,100,163,162,255

[TimingPoints]
23373,500,4,2,0,90,1,0
23873,480,4,2,0,90,1,0
24368,480,4,1,1,40,1,0
25808,480,4,1,1,40,1,0
26752,480,4,1,1,40,1,0
27712,473.372781065089,4,1,1,40,1,0
31972,-100,4,2,0,80,0,0
32090,-100,4,1,1,40,0,0
35275,495.867768595041,4,2,0,80,1,0
35398,-100,4,1,1,40,0,0
35770,461.538461538462,4,2,0,80,1,0
36116,-100,4,1,1,40,0,0
39015,480,4,2,0,80,1,0
39135,-100,4,1,1,40,0,0
40455,-100,4,2,0,80,0,0
40575,-100,4,1,1,40,0,0
42375,-100,4,2,0,80,0,0
42495,-100,4,1,1,40,0,0
42845,472.44094488189,4,1,1,40,1,0
44262,-100,4,2,0,80,0,0
44380,-100,4,1,1,40,0,0
46603,472.44094488189,4,2,0,80,1,0
47090,472.44094488189,4,1,1,40,1,0
48034,-100,4,2,0,80,0,0
48152,-100,4,1,1,40,0,0
48507,472.44094488189,4,1,1,40,1,0
49924,-100,4,2,0,80,0,0
50042,-100,4,1,1,40,0,0
51352,472.44094488189,4,1,1,40,1,0
51579,472.44094488189,4,1,1,40,1,0
52297,470.588235294118,4,1,1,40,1,0
54179,-100,4,2,0,80,0,0
57944,468.75,4,1,1,40,1,0
61694,462.42774566474,4,1,1,50,1,0
63319,462.962962962963,4,2,0,90,1,1
63434,-100,4,2,0,90,0,0
63547,466.019417475728,4,1,1,50,1,0
67042,-100,4,2,0,90,0,1
67158,-100,4,2,0,90,0,0
67742,-100,4,1,1,50,0,0
68210,466.019417475728,4,1,1,50,1,0
69132,454.545454545455,4,1,1,50,1,0
70516,458.015267175573,4,1,1,50,1,0
70747,474.308300395257,4,2,0,90,1,1
70865,-100,4,2,0,90,0,0
70984,474.308300395257,4,1,1,50,1,0
72406,-100,4,1,1,50,0,0
72883,478.08764940239,4,2,0,90,1,1
73002,-100,4,2,0,90,0,0
73361,-100,4,1,1,40,0,0
76684,475.247524752475,4,2,0,30,1,0
80485,473.372781065089,4,1,1,50,1,0
84271,467.471756914686,4,1,1,40,1,0
88030,477.516912057302,4,2,0,80,1,0
88149,-100,4,1,1,40,0,0
89462,-100,4,2,0,80,0,0
89581,-100,4,1,1,40,0,0
91372,-100,4,2,0,80,0,0
91491,-100,4,1,1,40,0,0
93282,-100,4,2,0,80,0,0
93402,-100,4,1,1,40,0,0
93760,468.75,4,1,1,40,1,0
95635,476.190476190476,4,2,0,80,1,0
95755,-100,4,1,1,40,0,0
96568,476.190476190476,4,1,1,40,1,0
97044,-100,4,2,0,80,0,0
97163,-100,4,1,1,40,0,0
97520,476.190476190476,4,1,1,40,1,0
98948,-100,4,2,0,80,0,0
99067,-100,4,1,1,40,0,0
100843,476.190476190476,4,1,1,40,1,0
101319,476.190476190476,4,1,1,40,1,0
102975,476.190476190476,4,1,1,40,1,0
103213,468.75,4,2,0,80,1,0
106479,468.75,4,2,0,80,1,0
106962,468.75,4,2,0,80,1,0
109759,468.75,4,1,1,40,1,0
110691,468.75,4,1,1,50,1,0
112087,468.75,4,1,1,50,1,0
112321,-100,4,2,0,90,0,1
112438,-100,4,2,0,90,0,0
112555,468.75,4,1,1,50,1,0
114430,463.320463320463,4,1,1,50,1,0
116071,470.588235294118,4,2,0,90,1,1
116188,-100,4,2,0,90,0,0
116306,470.588235294118,4,1,1,50,1,0
118183,447.761194029851,4,1,1,50,1,0
118854,-100,4,2,0,90,0,0
119093,480,4,2,0,90,1,0
119809,469.667318982387,4,2,0,90,1,1
119926,-100,4,2,0,90,0,0
120043,469.667318982387,4,1,1,50,1,0
121921,478.08764940239,4,2,0,90,1,1
122040,-100,4,2,0,90,0,0
122399,-100,4,1,1,40,0,0
123833,471.883602044829,4,1,1,40,1,0
129482,471.142520612485,4,2,0,80,1,0
129599,-100,4,1,1,50,0,0
132795,471.142520612485,4,1,1,50,1,0
133266,471.142520612485,4,1,1,50,1,0
135637,471.142520612485,4,1,1,50,1,0
137050,477.13717693837,4,1,1,50,1,0
138958,461.538461538462,4,1,1,50,1,0
139901,483.870967741935,4,1,1,50,1,0
140875,480,4,2,0,90,1,0
140995,-100,4,1,1,40,0,0
142555,463.857750289911,4,1,1,40,1,0
142774,476.190476190476,4,1,1,20,1,0
143250,-100,4,1,1,40,0,0
144678,472.44094488189,4,1,1,20,1,0
145622,-100,4,1,1,40,0,0
146567,-100,4,1,1,20,0,0
147985,-100,4,2,0,70,0,0
148103,-100,4,1,1,40,0,0
152247,472.44094488189,4,1,1,40,1,0
154584,472.44094488189,4,1,1,40,1,0
155528,-100,4,2,0,80,0,0
155646,-100,4,1,1,40,0,0
155994,472.44094488189,4,2,0,80,1,0
156938,-100,4,1,1,40,0,0
160256,472.44094488189,4,2,0,80,1,0
160728,474.871388998813,4,1,1,40,1,0
163591,472.44094488189,4,2,0,80,1,0
166882,472.44094488189,4,1,1,40,1,0
167354,472.44094488189,4,1,1,40,1,0
171133,477.13717693837,4,2,0,80,1,0
171252,-100,4,1,1,40,0,0
174483,477.13717693837,4,1,1,40,1,0
174960,472.44094488189,4,2,0,70,1,0
175078,-100,4,1,1,40,0,0
175904,458.891013384321,4,1,1,40,1,0
176362,472.44094488189,4,2,0,70,1,0
176598,469.29996089167,4,1,1,40,1,0
176834,468.75,4,1,1,40,1,0
178240,484.457004440856,4,1,1,40,1,0
178724,463.320463320463,4,1,1,40,1,0
178839,-100,4,1,1,40,0,0
182430,468.75,4,1,1,40,1,0
184078,468.75,4,1,1,40,1,0
184308,476.190476190476,4,2,0,70,1,0
186212,468.75,4,1,1,40,1,0
186446,-100,4,2,0,50,0,0
187383,-100,4,2,0,60,0,0
188087,465.116279069767,4,1,0,60,1,0
188319,-100,4,2,0,70,0,0
189017,-100,4,1,0,50,0,0
189249,-100,4,2,0,80,0,0
189957,461.538461538462,4,1,1,55,1,0
191567,472.44094488189,4,2,0,90,1,1
191803,472.44094488189,4,1,1,55,1,1
193672,466.926070038911,4,1,1,55,1,1
195189,-100,4,1,1,55,0,0
195306,-90.9090909090909,4,2,0,90,0,1
195422,-90.9090909090909,4,1,1,55,0,1
198924,-100,4,1,1,55,0,0
199041,-90.9090909090909,4,2,0,90,0,1
199158,-90.9090909090909,4,1,1,55,0,1
201127,472.44094488189,4,2,0,90,1,0
201245,-100,4,1,1,40,0,0
208686,468.75,4,2,0,80,1,0
208803,-100,4,1,1,40,0,0
210573,468.75,4,1,1,40,1,0
212448,472.44094488189,4,2,0,80,1,0
212566,-100,4,1,1,40,0,0
215755,-100,4,2,0,80,0,0
215873,-100,4,1,1,40,0,0
216227,478.08764940239,4,1,1,40,1,0
218139,461.538461538462,4,1,1,40,1,0
219523,-100,4,2,0,90,0,0
219754,-100,4,1,1,40,0,0
220013,480,4,2,0,90,1,1
220133,-100,4,1,1,40,0,0
221933,475.247524752475,4,1,1,40,1,0
222863,475.247524752475,4,1,1,40,1,0
223813,474.308300395257,4,2,1,70,1,0
226184,-100,4,1,1,80,0,0
226658,-100,4,2,0,70,0,0
227640,483.870967741935,4,1,1,40,1,0
228123,-100,4,1,1,35,0,0
228607,-100,4,1,1,30,0,0
229091,-100,4,1,1,25,0,0
229575,-100,4,1,1,20,0,0
230059,-100,4,1,1,15,0,0
230543,-100,4,2,0,10,0,0

[Colours]
Combo1 : 255,255,255
Combo2 : 187,83,83
Combo3 : 237,54,54
Combo4 : 165,20,20

[HitObjects]
300,136,23873,5,4
312,256,24368,2,0,B|384:248|412:180,2,130,8|0|8
204,216,25808,2,0,B|108:324,1,130,0|8
80,204,26752,2,0,B|124:156|124:156|152:96,1,130
264,80,27712,6,0,B|328:96,2,65,0|0|8
220,188,28658,2,0,B|275:221,2,65,0|0|8
132,268,29605,2,0,B|184:320,1,65
224,352,30078,2,0,B|275:306|351:318,1,130,8|0
436,244,31025,2,0,B|456:272|460:304,2,65,8|0|0
324,204,31972,6,0,B|281:153|279:83,1,130,4|0
164,68,32919,2,0,B|80:168,1,130,8|0
116,280,33865,2,0,B|56:306,2,65,8|0|0
232,276,34812,1,8
348,276,35275,22,0,B|368:208,1,65,4|0
292,116,36000,2,0,B|273:178,1,65,4|4
164,140,36693,1,8
84,224,37154,2,8,B|56:212|20:209,2,65
132,332,38077,2,8,B|96:336|68:320,2,65
216,256,39015,5,4
316,192,39495,2,0,B|324:128|361:70,1,130,8|0
436,164,40455,2,0,B|460:224,2,65,4|0|0
364,256,41415,2,0,B|332:308|258:327,1,130,8|0
148,296,42375,2,0,B|124:264|100:252,1,65,4|0
48,236,42845,6,0,B|100:192|125:132,1,130,0|8
232,84,43789,1,0
276,192,44262,2,0,B|302:251,1,65,4|0
356,276,44734,2,0,B|424:252|452:184,1,130,0|8
424,76,45679,2,0,B|360:48,1,65
324,92,46152,2,0,B|256:92,1,65,8|0
220,132,46603,21,4
112,84,47090,2,0,B|48:100|28:176,1,130
100,268,48034,2,0,B|136:256|156:224,1,65,4|0
184,184,48507,2,0,B|232:236|298:238,1,130,0|8
376,152,49451,1,0
436,252,49924,2,0,B|404:324,1,65,4|0
356,336,50396,5,0
256,276,50869,1,8
264,160,51352,1,0
188,72,51815,1,8
84,128,52297,2,0,B|88:188|128:252,1,130,0|8
244,232,53238,2,0,B|228:264|228:296,2,65,0|0|8
344,292,54179,1,4
93,252,61694,6,8,B|144:208|216:210,1,130,8|8
256,248,62387,2,0,B|288:116,1,130,8|8
398,101,63319,6,0,B|462:128|477:198|474:231|451:272,1,195,4|8
352,208,64479,38,0,B|316:236|320:292,2,65,0|0|8
272,120,65411,22,0,B|199:119|143:67,1,130,8|8
100,52,66110,2,8,B|116:180,1,130
48,276,67042,38,0,B|110:316|169:285|169:285|232:320,1,195,4|8
340,268,68210,6,0,B|283:236,1,65
284,176,68676,1,8
344,80,69132,5,8
344,80,69359,2,8,B|216:55,1,130
112,104,70268,1,0
200,184,70747,22,0,B|268:152|336:188|348:268,1,195,4|8
288,372,71932,37,0
184,316,72406,2,0,B|139:268,1,65,8|0
176,232,72883,6,0,B|196:164|168:102,1,130,4|8
228,112,73600,38,0,B|296:180|404:194,1,195,0|8
328,284,74795,1,0
212,284,75273,1,0
96,284,75751,2,0,B|72:260|56:232,2,65,0|0|8
256,192,76684,12,2,79535
248,312,88030,22,0,B|264:180,1,130,4|8
168,116,88985,2,0,B|152:252,1,130,0|4
248,312,89940,1,0
356,268,90417,1,8
448,200,90895,1,0
356,268,91372,2,0,B|324:200,1,65,4|0
340,152,91850,6,0,B|272:167|212:131,1,130,0|8
116,72,92805,2,0,B|160:12|240:20,1,130,0|4
316,100,93760,1,0
252,200,94228,1,8
368,220,94697,1,0
380,276,94931,1,0
392,332,95166,2,0,B|328:312|264:320,1,130,8|4
176,236,96111,5,0
64,232,96568,2,0,B|36:172|56:100,1,130,0|4
112,92,97282,1,0
172,84,97520,2,0,B|228:115,2,65,0|0|8
180,200,98472,2,0,B|292:280,1,130,0|4
404,276,99424,22,0,B|392:208|420:148,1,130,0|8
328,72,100377,1,0
244,152,100843,1,8
208,44,101319,1,0
96,76,101795,2,0,B|64:88|40:109,1,65,8|0
68,160,102271,2,0,B|64:228|120:274,1,130,0|8
24,340,103213,1,4
96,112,110691,6,8,B|136:164|212:176,1,130,8|8
232,124,111394,2,8,B|352:76,1,130,8|8
416,172,112321,22,0,B|384:236|324:260|324:260|296:328,1,195,4|8
192,276,113492,22,0,B|138:238,2,65,0|0|8
276,192,114430,6,8,B|248:52,1,130
196,48,115124,2,8,B|120:56|72:112,1,130
180,172,116071,6,0,B|132:208|148:268|148:268|216:324,1,195,4|8
328,292,117247,38,0,B|357:233,1,65,0|0
384,180,117717,1,8
260,176,118183,21,8
260,176,118406,2,8,B|132:204,1,130,8|4
132,84,119333,1,4
248,52,119809,38,0,B|376:88,1,130,4|0
404,140,120512,6,0,B|440:208,2,65,8|0|8
316,216,121452,1,0
304,272,121686,1,0
292,328,121921,38,0,B|236:304|164:300,1,130,4|8
165,241,122638,22,0,B|208:156|220:52,1,195,0|8
108,92,123833,1,0
60,200,124304,2,0,B|80:264,2,65,8|0|0
176,220,125248,2,0,B|204:280,1,65,8|0
248,320,125720,6,0,B|296:276|372:268,1,130,0|8
404,224,126428,1,0
440,176,126664,2,0,B|310:165,1,130,0|8
188,156,127608,2,0,B|131:123,2,65,0|0|8
160,268,128551,1,0
256,336,129023,1,0
352,268,129482,22,0,B|416:284,2,65,4|0|8
324,156,130424,2,0,B|381:123,2,65,0|0|8
212,184,131366,2,0,B|152:176|93:130,1,130,0|8
188,64,132308,1,0
308,44,132795,1,8
288,152,133266,22,0,B|320:152|352:168|352:168|380:148|411:143,1,130,8|8
424,264,134208,1,0
296,272,134679,1,8
188,316,135150,1,0
76,272,135637,1,8
148,176,136108,2,8,B|236:72,1,130
340,128,137050,38,0,B|376:180,2,65,0|8|8
264,216,138004,1,0
212,240,138242,1,8
176,284,138481,1,8
88,200,138958,2,0,B|76:128,1,65,0|8
128,112,139419,2,0,B|156:92|192:80,1,65,8|0
244,68,139901,5,10
364,104,140875,22,0,B|368:172,1,65,4|0
424,188,141355,2,0,B|372:240|354:296,1,130,8|0
236,300,142315,1,8
236,300,142555,2,2,B|148:300|64:216,1,195,0|8
40,104,143726,1,0
136,36,144202,2,0,B|168:52|186:76,1,65,8|0
244,96,144678,6,2,B|314:88|362:140,1,130,0|10
267,212,145622,1,0
156,172,146095,2,0,B|146:206|154:237,1,65
179,289,146567,2,2,B|239:353|331:329|358:284,1,195,2|0
476,168,147985,2,0,B|440:176|412:200,1,65,4|0
360,180,148457,6,0,B|324:172|300:144,2,65,0|0|8
392,68,149402,1,0
276,48,149874,1,8
160,64,150347,1,0
68,136,150819,1,8
124,240,151292,2,0,B|120:276|99:299,2,65,0|0|8
244,240,152247,22,0,B|224:188|252:140|304:132,1,130,0|8
396,184,153191,2,0,B|416:236|388:284|336:292,1,130,0|8
232,308,154136,1,0
176,288,154372,1,0
128,264,154584,1,8
36,188,155056,2,0,B|60:164|69:132,1,65,8|0
108,88,155528,2,0,B|140:84|172:60,1,65,4|0
220,80,155994,6,0,B|264:132|330:144,1,130,4|4
404,232,156938,2,8,B|414:296,2,65
288,248,157883,2,8,B|298:312,2,65
172,260,158828,2,8,B|160:232|161:195,1,65
176,140,159301,1,8
276,80,159773,5,0
387,131,160256,1,4
364,244,160728,2,0,B|345:281|285:293|251:259,1,130
140,224,161677,2,0,B|76:200,2,65,8|0|0
256,200,162627,1,8
312,192,162864,1,0
368,180,163102,1,0
472,240,163591,1,4
160,128,171133,22,0,B|256:164|352:128,1,195,4|0
464,156,172325,1,8
480,272,172802,2,2,B|328:339|160:300,1,325,0|8
44,272,174483,1,8
56,156,174960,6,0,B|104:104|200:132|200:208,1,195,4|0
300,148,176133,1,8
372,236,176598,2,2,B|446:170|420:80|392:48|332:16|288:12|224:24|176:96|190:166,1,455,0|8
300,148,178724,6,0,B|252:188|252:248|272:284|272:284|248:324,1,195,4|0
136,284,179882,1,8
100,176,180345,2,2,B|124:152|124:112|124:112|184:120|208:60|208:60|256:96|304:60|304:60|328:120|388:112|388:112|388:152|412:176,1,455,0|8
256,192,182430,12,4,185260
256,192,186212,22,4,B|248:224|216:256,2,65,0|4|4
144,160,187149,2,4,B|129:130|133:85,2,65,0|4|4
248,112,188087,6,0,B|280:108|312:88,1,65,0|2
368,88,188552,2,0,B|384:116|414:132,1,65,0|2
388,188,189017,2,0,B|364:212|357:244,1,65,8|2
376,300,189482,1,4
260,284,189957,6,0,B|220:232|149:219,1,130,12|8
92,216,190649,2,8,B|132:164|137:94,1,130
252,76,191567,6,0,B|299:119|318:186,1,130,4|0
292,236,192275,2,0,B|288:272|300:308,2,65
176,212,193220,1,8
68,172,193672,22,8,B|136:148|155:82,1,130
208,108,194372,2,8,B|256:160|267:221,1,130
204,336,195306,22,0,B|176:356|136:364,1,71.499997869134,4|0
76,348,195773,1,0
28,308,196006,1,8
68,184,196473,2,0,B|48:152|45:116,2,71.499997869134,8|0|8
192,216,197407,21,8
192,216,197640,2,8,B|220:180|248:176|248:176|264:148|304:132,1,142.999995738268
344,244,198574,1,0
460,248,199041,22,0,B|480:180|464:100,1,142.999995738268,4|0
440,48,199742,1,8
316,84,200208,2,0,B|312:120|324:156,2,71.499997869134,8|0|8
208,52,201127,6,0,B|164:96|148:172,1,130,4|8
252,220,202071,1,0
332,308,202544,1,8
424,236,203016,2,0,B|448:212|456:172,1,65,0|0
456,120,203489,1,8
348,72,203961,2,0,B|216:96,1,130,0|8
288,188,204906,6,0,B|160:192,1,130,0|8
68,264,205851,2,0,B|104:272|128:304,1,65
164,340,206323,2,0,B|224:312|292:304,1,130,8|0
404,304,207268,1,8
444,192,207741,1,0
404,80,208213,1,8
296,132,208686,6,0,B|236:128|170:160,1,130,4|8
80,232,209623,2,0,B|96:264|132:280,2,65,0|0|8
196,232,210573,2,0,B|260:256|300:320,1,130,0|8
364,216,211510,2,0,B|332:88,1,130,0|8
220,116,212448,22,0,B|228:40,2,65,4|0|8
124,180,213392,1,8
140,296,213865,1,8
256,300,214337,2,8,B|280:364,2,65,8|0|8
366,295,215282,2,8,B|352:232,1,65,8|0
336,176,215755,1,4
252,100,216227,6,8,B|280:40,2,65
136,112,217183,2,8,B|120:176,1,65
108,232,217661,1,8
216,280,218139,2,8,B|185:337,2,65
332,256,219062,1,8
420,188,219523,2,0,B|400:168|389:130,1,65,4|0
336,104,220013,22,0,B|300:108|271:93,1,65,4|0
212,96,220493,37,8
97,60,220973,2,0,B|48:68|24:112|35:160,1,130
132,220,221933,2,0,B|181:212|205:168|193:120,1,130,0|8
132,220,222863,2,0,B|152:296|136:356,1,130,0|8
248,324,223813,22,0,B|256:248,1,65,4|0
196,156,224524,2,0,B|272:164,1,65,4|0
368,100,225235,2,0,B|360:176,1,65,4|0
420,268,225947,2,0,B|344:260,1,65,4|8
240,252,226658,5,2
124,244,227133,1,2
256,192,227640,12,0,230543
