osu file format v9

[General]
AudioFilename: 08 - Bad Seed~1.mp3
AudioLeadIn: 0
PreviewTime: 110462
Countdown: 0
SampleSet: Soft
StackLeniency: 0.7
Mode: 0
LetterboxInBreaks: 1

[Editor]
DistanceSpacing: 1.4
BeatDivisor: 4
GridSize: 4

[Metadata]
Title:Bad Seed
Artist:Metallica
Creator:TicClick
Version:Hard
Source:
Tags:ReLoad Vass_Bass

[Difficulty]
HPDrainRate:6
CircleSize:4
OverallDifficulty:6
ApproachRate:8
SliderMultiplier:1.6
SliderTickRate:2

[Events]
//Background and Video events
0,0,"bg.jpg"
//Break Periods
2,54379,60944
2,80485,87280
2,103413,109941
2,163791,170383
//Storyboard Layer 0 (Background)
//Storyboard Layer 1 (Fail)
//Storyboard Layer 2 (Pass)
//Storyboard Layer 3 (Foreground)
//Storyboard Sound Samples
//Background Colour Transformations
3,100,163,162,255

[TimingPoints]
23373,500,4,2,0,90,1,0
23873,480,4,2,0,90,1,0
24368,480,4,1,1,40,1,0
25808,480,4,1,1,40,1,0
26752,480,4,1,1,40,1,0
27712,473.372781065089,4,1,1,40,1,0
31972,-100,4,2,0,80,0,0
32090,-100,4,1,1,40,0,0
35275,495.867768595041,4,2,0,80,1,0
35398,-100,4,1,1,40,0,0
35770,461.538461538462,4,1,1,40,1,0
36000,-100,4,2,0,80,0,0
36116,-100,4,1,1,40,0,0
37846,-100,4,2,0,80,0,0
37962,-100,4,1,1,40,0,0
39015,480,4,2,0,80,1,0
39135,-100,4,1,1,40,0,0
40455,-100,4,2,0,80,0,0
40575,-100,4,1,1,40,0,0
42375,-100,4,2,0,80,0,0
42495,-100,4,1,1,40,0,0
42845,472.44094488189,4,1,1,40,1,0
44262,-100,4,2,0,80,0,0
44380,-100,4,1,1,40,0,0
46603,472.44094488189,4,2,0,80,1,0
46721,-100,4,1,1,40,0,0
47090,472.44094488189,4,1,1,40,1,0
48034,-100,4,2,0,80,0,0
48152,-100,4,1,1,40,0,0
48507,472.44094488189,4,1,1,40,1,0
49924,-100,4,2,0,80,0,0
50042,-100,4,1,1,40,0,0
51352,472.44094488189,4,1,1,40,1,0
51579,472.44094488189,4,1,1,40,1,0
52297,470.588235294118,4,1,1,40,1,0
54179,-100,4,2,0,80,0,0
57944,468.75,4,1,1,40,1,0
61694,462.42774566474,4,1,1,50,1,0
63319,462.962962962963,4,2,0,90,1,1
63319,-83.3333333333333,4,2,0,90,0,1
63434,-83.3333333333333,4,2,0,90,0,0
63547,466.019417475728,4,1,1,50,1,0
67042,-100,4,2,0,90,0,1
67158,-100,4,2,0,90,0,0
67276,-100,4,1,1,50,0,0
68210,466.019417475728,4,1,1,50,1,0
69132,454.545454545455,4,1,1,50,1,0
70516,458.015267175573,4,1,1,50,1,0
70747,474.308300395257,4,2,0,90,1,1
70865,-100,4,2,0,90,0,0
70984,474.308300395257,4,1,1,50,1,0
72883,478.08764940239,4,2,0,90,1,1
73002,-100,4,2,0,90,0,0
73361,-100,4,1,1,40,0,0
76684,475.247524752475,4,2,0,30,1,0
80485,473.372781065089,4,1,1,50,1,0
84271,467.471756914686,4,1,1,40,1,0
88030,477.516912057302,4,2,0,80,1,0
88149,-100,4,1,1,40,0,0
89462,-100,4,2,0,80,0,0
89581,-100,4,1,1,40,0,0
91372,-100,4,2,0,80,0,0
91491,-100,4,1,1,40,0,0
93282,-100,4,2,0,80,0,0
93402,-100,4,1,1,40,0,0
93760,468.75,4,1,1,40,1,0
95635,476.190476190476,4,2,0,80,1,0
95755,-100,4,1,1,40,0,0
96568,476.190476190476,4,1,1,40,1,0
97044,-100,4,2,0,80,0,0
97163,-100,4,1,1,40,0,0
97520,476.190476190476,4,1,1,40,1,0
98948,-100,4,2,0,80,0,0
99067,-100,4,1,1,40,0,0
100843,476.190476190476,4,2,0,90,1,0
101081,-100,4,1,1,40,0,0
101319,476.190476190476,4,1,1,40,1,0
102975,476.190476190476,4,1,1,40,1,0
103213,468.75,4,2,0,80,1,0
106479,468.75,4,2,0,80,1,0
106962,468.75,4,2,0,80,1,0
109759,468.75,4,1,1,40,1,0
110691,468.75,4,1,1,50,1,0
112087,468.75,4,1,1,50,1,0
112321,-100,4,2,1,90,0,1
112438,-100,4,2,1,90,0,0
112555,468.75,4,1,1,50,1,0
114430,463.320463320463,4,1,1,50,1,0
116071,470.588235294118,4,2,0,90,1,1
116188,-100,4,2,0,90,0,0
116306,470.588235294118,4,1,1,50,1,0
118183,447.761194029851,4,1,1,50,1,0
118854,-100,4,2,0,90,0,0
119093,480,4,1,1,50,1,0
119333,-100,4,2,0,90,0,0
119573,-100,4,1,1,50,0,0
119809,469.667318982387,4,2,0,90,1,1
119926,-100,4,2,0,90,0,0
120043,469.667318982387,4,1,1,50,1,0
121921,478.08764940239,4,2,0,90,1,1
122040,-100,4,2,0,90,0,0
122399,-100,4,1,1,40,0,0
123833,471.883602044829,4,1,1,40,1,0
129482,471.142520612485,4,2,0,80,1,0
129599,-100,4,1,1,50,0,0
132795,471.142520612485,4,1,1,50,1,0
133266,471.142520612485,4,1,1,50,1,0
135637,471.142520612485,4,1,1,50,1,0
137050,477.13717693837,4,1,1,50,1,0
138958,461.538461538462,4,1,1,50,1,0
139901,483.870967741935,4,1,1,50,1,0
140875,480,4,2,0,90,1,0
140995,-100,4,1,1,40,0,0
142555,463.857750289911,4,1,1,40,1,0
142555,-142.857142857143,4,1,1,40,0,0
142774,476.190476190476,4,1,1,20,1,0
144678,472.44094488189,4,1,1,20,1,0
144678,-142.857142857143,4,1,1,40,0,0
145622,-100,4,1,1,40,0,0
146567,-142.857142857143,4,1,1,40,0,0
147748,-100,4,1,1,20,0,0
147985,-100,4,1,1,40,0,0
149166,-142.857142857143,4,1,1,40,0,0
149638,-142.857142857143,4,1,1,20,0,0
149874,-142.857142857143,4,1,1,40,0,0
150583,-142.857142857143,4,1,1,20,0,0
150819,-142.857142857143,4,1,1,40,0,0
151528,-100,4,1,1,20,0,0
151764,-100,4,1,1,40,0,0
152247,472.44094488189,4,1,1,40,1,0
154584,472.44094488189,4,1,1,40,1,0
155528,-100,4,2,0,80,0,0
155646,-100,4,1,1,40,0,0
155994,472.44094488189,4,2,0,80,1,0
156112,-100,4,1,1,40,0,0
156466,-100,4,2,0,80,0,0
156584,-100,4,1,1,40,0,0
160256,472.44094488189,4,2,0,80,1,0
160374,-100,4,1,1,40,0,0
160728,474.871388998813,4,1,1,40,1,0
163591,472.44094488189,4,2,0,80,1,0
166882,472.44094488189,4,1,1,40,1,0
167354,472.44094488189,4,1,1,40,1,0
171133,477.13717693837,4,2,0,80,1,0
171133,-133.333333333333,4,2,0,80,0,0
171252,-133.333333333333,4,1,1,40,0,0
174483,477.13717693837,4,1,1,40,1,0
174483,-133.333333333333,4,1,1,40,0,0
174960,472.44094488189,4,2,0,70,1,0
174960,-133.333333333333,4,2,0,80,0,0
175078,-133.333333333333,4,1,1,40,0,0
175904,458.891013384321,4,1,1,40,1,0
175904,-133.333333333333,4,1,1,40,0,0
176362,472.44094488189,4,2,0,70,1,0
176362,-133.333333333333,4,2,0,70,0,0
176598,469.29996089167,4,1,1,40,1,0
176598,-133.333333333333,4,1,1,40,0,0
176834,468.75,4,1,1,40,1,0
176834,-133.333333333333,4,1,1,40,0,0
178240,484.457004440856,4,1,1,40,1,0
178240,-133.333333333333,4,1,1,40,0,0
178724,463.320463320463,4,1,1,40,1,0
178724,-133.333333333333,4,1,1,40,0,0
180577,-133.333333333333,4,2,0,80,0,0
181040,-133.333333333333,4,1,1,40,0,0
181503,-133.333333333333,4,2,0,80,0,0
181967,-133.333333333333,4,1,1,40,0,0
182430,468.75,4,1,1,40,1,0
182430,-133.333333333333,4,1,1,40,0,0
183367,-133.333333333333,4,2,0,70,0,0
183484,-133.333333333333,4,1,1,40,0,0
184078,468.75,4,1,1,40,1,0
184308,476.190476190476,4,1,1,50,1,0
184308,-133.333333333333,4,1,1,40,0,0
184784,-133.333333333333,4,1,1,40,0,0
185260,-133.333333333333,4,1,1,40,0,0
185498,-133.333333333333,4,2,0,50,0,0
185736,-133.333333333333,4,2,0,50,0,0
186212,468.75,4,1,1,40,1,0
186446,-100,4,2,0,50,0,0
187383,-100,4,2,0,60,0,0
188087,465.116279069767,4,1,0,60,1,0
188319,-100,4,2,0,70,0,0
189017,-100,4,1,0,50,0,0
189249,-100,4,2,0,90,0,0
189957,461.538461538462,4,1,1,55,1,0
191567,472.44094488189,4,2,0,90,1,1
191803,472.44094488189,4,1,1,55,1,1
193672,466.926070038911,4,1,1,55,1,1
195189,-100,4,1,1,55,0,0
195306,-100,4,2,0,100,0,1
195422,-100,4,1,1,55,0,1
198924,-100,4,1,1,55,0,0
199041,-100,4,2,0,90,0,1
199158,-100,4,1,1,55,0,1
201127,472.44094488189,4,2,0,90,1,0
201245,-100,4,1,1,40,0,0
208686,468.75,4,2,0,80,1,0
208803,-100,4,1,1,40,0,0
210573,468.75,4,1,1,40,1,0
212448,472.44094488189,4,2,0,80,1,0
212566,-100,4,1,1,40,0,0
215755,-100,4,2,0,80,0,0
215873,-100,4,1,1,40,0,0
216227,478.08764940239,4,1,1,40,1,0
218139,461.538461538462,4,1,1,40,1,0
219523,-100,4,2,0,90,0,0
219639,-100,4,1,1,40,0,0
220013,480,4,2,0,90,1,1
220133,-100,4,1,1,40,0,0
221933,475.247524752475,4,1,1,40,1,0
222863,475.247524752475,4,1,1,40,1,0
223813,474.308300395257,4,1,1,40,1,0
224287,-100,4,2,0,80,0,0
224524,-100,4,1,1,40,0,0
224998,-100,4,2,0,70,0,0
225235,-100,4,1,1,40,0,0
225710,-100,4,2,0,70,0,0
225947,-100,4,1,1,40,0,0
226421,-100,4,2,0,70,0,0
227640,483.870967741935,4,1,1,40,1,0
228123,-100,4,1,1,35,0,0
228607,-100,4,1,1,30,0,0
229091,-100,4,1,1,25,0,0
229575,-100,4,1,1,20,0,0
230059,-100,4,1,1,15,0,0
230543,-100,4,2,0,10,0,0

[Colours]
Combo1 : 255,255,255
Combo2 : 187,83,83
Combo3 : 237,54,54
Combo4 : 165,20,20

[HitObjects]
132,148,23873,5,4
208,204,24113,1,0
236,296,24368,2,0,B|315:284,1,80,8|0
384,352,24848,2,0,B|402:316|434:290,1,80
468,200,25328,2,0,B|428:176|384:184,1,80,8|0
320,272,25808,6,0,B|295:243|296:197,1,80,0|0
332,108,26288,1,8
244,72,26528,1,0
204,160,26752,2,0,B|124:132,1,80
32,120,27232,2,0,B|45:198,1,80,8|0
128,236,27712,6,0,B|96:268|93:306,1,80,0|0
168,368,28185,1,8
256,332,28422,1,0
240,236,28658,1,0
316,176,28895,1,0
384,236,29132,2,0,B|416:268|418:306,1,80,8|0
324,304,29605,22,0,B|284:320|259:350,1,80
168,316,30078,1,8
156,220,30315,1,0
64,252,30552,2,0,B|48:172,1,80
156,220,31025,2,0,B|168:140,1,80,8|0
248,224,31498,6,0,B|288:152,1,80
380,124,31972,1,4
444,196,32209,1,0
360,240,32445,2,0,B|396:264|413:298,1,80
324,332,32919,1,8
324,332,33155,1,0
240,288,33392,6,0,B|152:252,1,80
272,208,33865,2,0,B|356:192,1,80,8|0
240,128,34339,2,0,B|160:88,1,80,0|0
75,111,34812,2,0,B|108:132|115:178,1,80,8|0
16,188,35275,21,4
40,280,35522,1,0
128,320,35770,2,0,B|152:288|155:245,1,80,8|4
144,152,36231,2,0,B|184:140|224:144,1,80
246,228,36693,2,0,B|224:264|224:304,1,80,8|0
320,304,37154,5,0
404,256,37385,1,8
420,160,37616,1,8
376,76,37846,1,4
284,52,38077,1,8
200,96,38308,1,8
172,188,38539,1,8
220,272,38770,1,0
296,176,39015,6,0,B|255:106,1,80,4|0
152,104,39495,2,0,B|188:176,1,80,8|0
68,160,39975,2,0,B|36:188|26:228,1,80
60,316,40455,2,0,B|92:292|110:253,1,80,4|0
160,172,40935,21,0
244,124,41175,1,0
272,216,41415,2,0,B|308:292,1,80,8|0
392,332,41895,1,0
488,316,42135,1,0
452,228,42375,2,0,B|444:144,1,80,4|0
380,80,42845,6,0,B|372:120|329:140,1,80
236,132,43317,1,8
296,56,43553,2,0,B|260:20|185:26|156:76,1,160
144,168,44262,2,0,B|80:224,1,80,4|0
168,264,44734,6,0,B|200:232|238:229,1,80
240,324,45207,1,8
336,332,45443,1,0
372,244,45679,2,0,B|396:168,1,80,0|0
348,84,46152,2,0,B|300:156,1,80,8|0
208,150,46603,22,0,B|164:84,1,80,4|0
256,64,47090,1,8
304,151,47326,2,0,B|276:235|188:255,1,160
96,264,48034,2,0,B|92:216|124:184,1,80,4|0
208,150,48507,5,0
292,200,48743,1,0
384,168,48979,1,8
476,200,49215,2,0,B|452:256|395:264|395:264|384:292|350:304,1,160
312,216,49924,2,0,B|288:140,1,80,4|0
212,196,50396,5,0
120,172,50632,2,0,B|108:212|129:251,2,80,0|8|0
188,108,51352,1,0
104,60,51579,2,0,B|72:36|28:36,2,80,0|8|0
40,132,52297,21,0
80,220,52532,2,0,B|88:308,2,80,0|8|0
176,216,53238,1,0
280,272,53473,1,0
336,168,53708,1,8
232,112,53944,1,0
176,216,54179,1,4
148,264,61694,5,8
256,296,61925,2,0,B|273:331,2,40,0|0|8
364,264,62387,1,8
468,220,62618,2,0,B|456:184|416:161,1,80,0|8
276,188,63081,1,8
144,152,63319,22,0,B|108:100|16:100|-4:188,1,192.000004577637,4|0
100,256,64013,6,0,B|68:336,1,80,8|0
184,280,64479,2,0,B|184:368,1,80
276,288,64945,2,0,B|300:368,1,80,8|0
388,296,65411,21,8
388,296,65527,2,0,B|416:264|432:228,1,80,0|8
476,244,65877,2,0,B|456:208|448:168,1,80,8|8
328,172,66343,1,0
248,264,66576,1,8
168,176,66809,1,8
36,212,67042,6,0,B|8:240|0:288,1,80,4|0
104,332,67508,21,0
144,228,67741,2,0,B|144:184|120:152,1,80,8|0
28,88,68210,2,0,B|96:40,1,80
200,80,68676,1,8
312,80,68909,1,0
400,16,69132,5,8
472,100,69359,1,8
464,132,69472,1,8
456,164,69586,1,8
448,196,69700,1,8
420,180,69813,1,8
392,172,69927,1,0
360,172,70041,2,0,B|312:187|292:223,1,80,0|8
332,332,70516,1,8
208,216,70747,6,0,B|172:212|137:179,1,80,4|0
108,36,71221,6,0,B|149:36|181:68,1,80,0|8
108,132,71695,1,0
56,212,71932,2,0,B|80:296,1,80
172,300,72406,1,8
264,276,72644,1,0
304,188,72883,38,0,B|336:144|414:150|443:196,1,160,4|8
368,252,73600,2,0,B|316:296|228:292|196:200|228:140,1,240,0|8
312,88,74556,22,0,B|360:96|380:128,1,80
376,224,75034,1,0
272,164,75273,2,0,B|192:148,1,80,8|0
256,248,75751,2,0,B|248:327,1,80
340,252,76229,2,0,B|418:268,1,80,8|0
256,192,76684,12,2,79535
256,192,88030,5,4
328,132,88268,1,0
424,132,88507,2,0,B|444:168|437:210,1,80,8|0
388,292,88985,2,0,B|352:268|344:224,1,80
328,132,89462,2,0,B|252:92,1,80,4|0
168,60,89940,38,0,B|156:140,1,80
60,124,90417,1,8
40,220,90656,1,0
20,316,90895,2,0,B|64:320|96:293,1,80
188,264,91372,1,4
280,240,91611,1,0
372,212,91850,38,0,B|412:196|424:144,2,80,0|0|8
324,128,92566,1,0
232,152,92805,2,0,B|170:203,2,80,0|0|4
324,128,93521,1,0
400,68,93760,22,0,B|376:36|329:30,1,80
256,88,94228,2,0,B|179:110,1,80,8|0
248,176,94697,2,0,B|172:200,1,80
120,280,95166,1,8
60,204,95400,1,0
96,116,95635,37,4
192,100,95873,1,0
248,176,96111,2,0,B|228:208|220:256,1,80,8|0
232,352,96568,1,0
320,324,96806,1,0
320,324,97044,2,0,B|340:288|344:248,1,80,4|0
360,140,97520,37,0
228,164,97758,1,0
248,296,97996,1,8
380,272,98234,1,8
360,140,98472,2,0,B|376:104|375:62,1,80
280,104,98948,2,0,B|247:125|228:164,1,80,4|0
220,260,99424,21,0
140,204,99662,2,0,B|92:272,2,80,0|8|0
204,132,100377,2,0,B|232:104|236:59,1,80,0|0
140,72,100843,1,4
140,72,101081,1,0
204,132,101319,38,0,B|288:120,1,80
252,212,101795,2,0,B|284:248|324:252,1,80,8|0
392,316,102271,2,0,B|428:296|440:248,1,80
432,156,102747,1,8
380,76,102975,1,0
292,48,103213,1,4
88,92,110691,5,8
104,204,110925,1,0
108,236,111042,1,0
112,268,111159,1,8
200,340,111394,1,8
288,276,111628,2,0,B|320:240|328:208,1,80,0|8
340,64,112087,1,8
192,36,112321,6,0,B|112:52,1,80,4|0
104,164,112789,21,0
208,120,113023,2,0,B|204:204,1,80,8|0
100,240,113492,2,0,B|48:316,1,80
168,316,113961,2,0,B|248:288,1,80,8|0
352,268,114430,38,0,B|388:288,2,40,8|8|8
372,156,114893,2,0,B|408:176,2,40,8|8|0
392,44,115356,1,0
256,88,115588,1,8
112,92,115819,1,0
80,244,116071,38,0,B|56:328,1,80,4|0
164,288,116541,37,0
252,220,116776,1,8
316,312,117011,1,0
408,252,117247,2,0,B|440:224|456:188,1,80
344,172,117717,2,0,B|316:136|312:98,1,80,8|0
204,52,118183,37,8
184,76,118294,1,8
164,100,118406,1,8
144,124,118518,1,8
124,148,118630,1,8
92,260,118854,1,4
200,232,119093,2,0,B|240:304,1,80,8|4
304,204,119573,1,8
412,172,119809,22,0,B|432:88,1,80,4|0
320,48,120277,5,0
208,48,120512,2,0,B|172:72|163:114,1,80,8|0
272,140,120982,2,0,B|272:168|248:192|248:192|248:216,1,80,0|0
324,296,121452,1,0
424,248,121686,1,0
396,140,121921,38,0,B|392:76|308:51|272:88,1,160,4|8
242,184,122638,38,0,B|286:180|316:156,1,80
276,84,123116,1,0
176,116,123355,2,0,B|148:84|108:76,1,80,8|0
92,184,123833,37,0
164,248,124068,1,0
184,152,124304,2,0,B|224:168|280:168,1,80,8|0
364,96,124776,2,0,B|352:132|348:192,1,80,0|0
420,272,125248,2,0,B|380:256|324:256,1,80,8|0
244,328,125720,38,0,B|260:292|260:232,1,80,0|0
232,156,126192,1,8
160,92,126428,1,0
64,88,126664,2,0,B|28:160,1,80
112,204,127136,2,0,B|88:240|88:284,1,80,8|0
240,328,127608,22,0,B|264:292|264:248,1,80,0|0
208,172,128079,2,0,B|180:200|172:243,1,80,8|0
263,252,128551,2,0,B|304:244|340:216,1,80
432,200,129023,2,0,B|412:168|404:124,1,80,8|0
328,72,129482,37,4
264,144,129717,1,0
168,148,129953,1,8
100,216,130188,1,0
8,240,130424,2,0,B|8:280|29:316,1,80
116,360,130895,2,0,B|152:284,1,80,8|0
224,224,131366,37,0
316,192,131602,1,0
396,136,131837,2,0,B|424:108|429:63,1,80,8|0
340,32,132308,1,0
256,80,132544,1,0
172,32,132795,2,0,B|145:58|140:103,1,80,8|0
44,112,133266,22,0,B|48:156|68:196,1,80,8|0
16,272,133737,2,0,B|44:312|84:324,1,80,8|8
168,288,134208,1,8
204,200,134443,1,0
292,156,134679,2,0,B|280:116|243:92,1,80,8|0
332,52,135150,38,0,B|410:34,1,80,8|0
400,128,135637,2,0,B|388:216,1,80,8|0
456,276,136108,1,8
380,332,136343,1,0
288,356,136579,1,0
192,344,136814,1,0
100,300,137050,38,0,B|48:232,1,80,0|8
144,212,137527,2,8,B|124:124,1,80,8|8
220,152,138004,2,0,B|216:68,1,80,0|8
304,108,138481,2,8,B|308:68|344:32,1,80,8|0
424,88,138958,21,0
404,184,139188,1,8
328,240,139419,1,8
244,288,139650,1,0
192,372,139901,1,2
168,144,140875,21,4
256,104,141115,1,0
344,144,141355,2,0,B|332:223,1,80,8|0
280,304,141835,2,0,B|260:268|221:250,1,80
132,284,142315,1,8
40,255,142555,6,2,B|40:164|118:114,1,167.999995994568,0|8
200,64,143488,1,0
296,52,143726,1,0
388,76,143964,1,0
472,128,144202,2,0,B|492:164|496:208,1,80,8|0
432,280,144678,6,2,B|332:356,2,111.999997329712,0|8|0
384,196,145859,1,0
296,160,146095,2,0,B|228:208,1,80,8|0
208,124,146567,22,2,B|112:196,1,111.999997329712,0|10
56,264,147276,2,2,B|108:300|168:272,1,111.999997329712,0|2
248,236,147985,1,8
344,256,148221,1,0
440,248,148457,6,0,B|432:164,1,80
460,76,148929,1,8
364,84,149166,2,2,B|312:108|248:96,1,111.999997329712,0|2
160,76,149874,1,8
100,148,150111,6,2,B|120:260,1,111.999997329712,0|2
212,280,150819,1,8
284,344,151055,2,2,B|336:308|349:255,1,111.999997329712,0|2
404,180,151764,2,0,B|412:220|437:252,1,80,8|0
492,176,152247,22,0,B|512:144|512:100,1,80,0|0
416,96,152719,2,0,B|392:64|344:52,1,80,8|0
292,132,153191,1,0
344,212,153428,2,0,B|304:284,1,80,8|0
252,360,153900,1,0
208,272,154136,6,0,B|180:232|146:221,1,80,0|0
60,264,154584,1,8
36,172,154820,1,0
96,100,155056,2,0,B|85:61,2,40,0|0|0
188,76,155528,2,0,B|264:108,1,80,4|0
328,40,155994,5,4
412,88,156230,1,0
508,80,156466,1,4
484,172,156702,1,8
476,204,156820,1,8
468,236,156938,1,2
364,236,157175,2,0,B|352:274,2,40,0|0|8
256,208,157647,1,0
256,208,157765,22,2,B|232:264|160:288,1,120,2|0
76,304,158356,2,0,B|72:256|96:224,1,80,8|0
104,132,158828,2,0,B|148:139|172:172,1,80
256,208,159301,2,0,B|336:172,1,80,8|0
380,92,159773,6,0,B|373:52,2,40
284,112,160256,2,0,B|276:72,2,40,4|0|0
184,132,160728,2,0,B|176:92,2,40,0|0|0
88,148,161202,2,0,B|80:108,2,40,8|0|0
96,244,161677,5,8
188,268,161915,1,0
256,336,162152,1,0
416,244,162627,21,8
428,148,162864,1,0
336,116,163102,1,0
272,188,163339,1,0
324,268,163591,1,4
84,164,171133,6,0,B|108:224|173:236,1,119.999996423721,4|0
252,192,171848,1,0
328,244,172087,2,0,B|344:304,1,59.9999982118607,8|0
420,256,172564,2,0,B|404:198,1,59.9999982118607,8|8
332,144,173041,6,2,B|352:108|416:96|444:120,1,119.999996423721,0|0
412,28,173757,1,0
412,28,173995,2,0,B|352:24,1,59.9999982118607
280,84,174483,2,0,B|224:64,1,59.9999982118607,8|0
132,48,174960,22,0,B|112:104|124:168,1,119.999996423721,4|0
204,204,175668,1,0
284,248,175904,2,0,B|276:280|251:298,1,59.9999982118607,8|0
204,204,176362,2,0,B|212:172|236:153,1,59.9999982118607,0|8
324,140,176834,5,0
450,178,177068,1,0
369,218,177302,1,0
405,99,177537,1,0
450,178,177771,2,0,B|452:240,1,59.9999982118607
412,316,178240,2,0,B|396:340|362:348,1,59.9999982118607,8|0
280,300,178724,6,0,B|250:273|190:281|179:322,1,119.999996423721
100,284,179418,1,0
96,196,179650,2,8,B|84:137,1,59.9999982118607
164,65,180113,2,8,B|176:124,1,59.9999982118607
271,146,180577,21,4
271,146,181040,1,8
228,228,181272,1,8
148,272,181503,1,4
271,146,181967,1,8
352,108,182198,1,8
436,140,182430,6,0,B|464:192|460:256,1,119.999996423721,0|0
372,272,183133,1,0
300,328,183367,2,0,B|280:302|280:271,1,59.9999982118607,4|0
292,184,183836,1,0
376,152,184078,1,0
372,64,184308,6,0,B|308:55|260:21,1,119.999996423721,4|8
176,56,185022,1,0
188,144,185260,2,0,B|184:168|200:204,1,59.9999982118607,8|4
264,268,185736,2,0,B|248:296|223:312,1,59.9999982118607,4|0
100,316,186212,21,0
64,244,186446,1,4
32,172,186680,1,4
164,248,187149,5,0
144,160,187383,1,4
124,72,187618,1,4
236,180,188087,5,0
248,84,188319,1,2
344,96,188552,1,0
332,192,188784,1,2
436,152,189017,1,8
480,256,189249,1,2
376,296,189482,1,4
168,316,189957,21,8
88,252,190187,1,0
92,220,190303,1,8
96,188,190418,1,8
108,76,190649,1,8
208,128,190880,2,0,B|228:168|267:181,1,80,0|8
328,52,191341,1,8
440,140,191567,38,0,B|404:168|384:220|387:285,1,160,4|0
268,256,192275,2,0,B|188:272,1,80,8|0
92,328,192747,1,0
4,256,192984,1,0
40,152,193220,1,8
152,152,193456,1,0
252,152,193672,21,8
280,136,193788,1,0
308,120,193905,1,8
336,104,194022,1,8
364,88,194138,1,8
452,156,194372,1,8
444,268,194605,2,0,B|356:288,1,80,0|8
228,240,195072,1,8
100,308,195306,22,0,B|39:255,1,80,4|0
40,144,195773,1,0
136,84,196006,2,0,B|148:164,1,80,8|0
248,136,196473,2,0,B|336:108,1,80,0|0
300,220,196940,2,0,B|388:236,1,80,0|8
332,336,197407,21,8
228,296,197640,1,0
116,296,197874,1,0
8,332,198107,1,8
60,232,198341,2,0,B|80:200|80:154,1,80,0|8
168,76,198808,1,8
232,208,199041,22,0,B|268:192|296:156,1,80,4|0
328,52,199508,1,0
432,92,199742,2,0,B|452:128|448:170,1,80,8|0
356,232,200208,2,0,B|344:188|354:152,1,80,8|0
244,124,200675,2,0,B|180:68,1,80,8|0
72,60,201127,5,4
52,152,201363,1,0
76,244,201599,1,8
144,316,201835,2,0,B|180:300|204:264,1,80
256,184,202308,1,0
307,264,202544,2,0,B|331:299|367:315,1,80,8|0
428,244,203016,6,0,B|464:172,1,80
368,176,203489,2,0,B|380:92,1,80,8|0
288,124,203961,2,0,B|280:44,1,80
200,96,204434,2,0,B|172:16,1,80,8|0
92,68,204906,5,0
32,144,205142,1,0
124,176,205378,2,0,B|140:216|131:255,1,80,8|0
168,344,205851,2,0,B|235:300,1,80
240,204,206323,2,0,B|324:224,1,80,8|0
336,316,206796,21,0
420,272,207032,1,0
452,180,207268,2,0,B|440:92,1,80,8|0
348,128,207741,1,0
268,76,207977,2,0,B|224:68|188:88,2,80,0|8|0
236,168,208686,6,0,B|220:200|180:224,1,80,4|0
108,288,209154,2,0,B|76:256|75:215,1,80,8|0
32,132,209623,2,0,B|68:104|109:110,1,80
196,140,210092,2,0,B|204:220,1,80,8|0
264,300,210573,5,0
328,224,210807,1,0
416,188,211041,2,0,B|448:160|452:116,1,80,8|0
384,48,211510,1,0
292,76,211744,1,0
300,172,211979,2,0,B|340:200|352:232,1,80,8|0
264,300,212448,22,0,B|232:276|221:231,1,80,4|0
208,140,212920,2,0,B|200:96|172:64,1,80,8|0
80,80,213392,1,0
24,160,213629,1,8
56,248,213865,2,0,B|84:276|130:277,1,80,8|0
192,208,214337,6,0,B|224:236|241:271,1,80,0|8
296,352,214810,2,0,B|316:312|348:291,1,80,8|0
440,260,215282,1,0
464,168,215518,1,8
388,108,215755,1,4
300,144,215991,1,0
284,240,216227,6,0,B|240:316,1,80,8|8
176,240,216705,2,8,B|124:300,1,80,8|0
48,360,217183,1,8
16,268,217422,1,8
60,184,217661,1,8
40,92,217900,1,8
136,120,218139,22,0,B|196:176,1,80,0|8
260,108,218600,2,8,B|308:176,1,80
352,256,219062,2,0,B|352:300|327:330,1,80,8|0
184,284,219523,2,0,B|159:253|159:209,1,80,4|0
260,108,220013,38,0,B|289:79|330:71,1,80,4|0
452,124,220493,22,0,B|460:160|449:203,1,80,8|0
432,296,220973,1,0
352,348,221213,1,0
256,348,221453,2,0,B|248:264,1,80,8|0
326,209,221933,6,0,B|307:131,1,80
212,116,222408,1,8
116,104,222645,1,0
28,92,222863,2,0,B|48:172,1,80,0|0
72,264,223338,2,0,B|104:300|148:296,1,80,8|0
250,256,223813,22,0,B|244:336,2,80,0|0|4
352,265,224524,2,0,B|432:272,2,80,0|0|4
360,164,225235,2,0,B|366:84,2,80,8|0|4
260,160,225947,2,0,B|180:153,2,80,0|8|4
360,164,226658,5,2
352,264,227133,1,2
256,192,227640,12,0,230543
