osu file format v9

[General]
AudioFilename: 08 - Bad Seed~1.mp3
AudioLeadIn: 0
PreviewTime: 110462
Countdown: 0
SampleSet: Soft
StackLeniency: 0.7
Mode: 0
LetterboxInBreaks: 1

[Editor]
DistanceSpacing: 0.9
BeatDivisor: 4
GridSize: 4

[Metadata]
Title:Bad Seed
Artist:Metallica
Creator:TicClick
Version:Easy
Source:
Tags:ReLoad Vass_Bass

[Difficulty]
HPDrainRate:3
CircleSize:3
OverallDifficulty:2
ApproachRate:3
SliderMultiplier:1.1
SliderTickRate:2

[Events]
//Background and Video events
0,0,"bg.jpg"
//Break Periods
2,35475,37575
2,54379,60254
2,80485,86590
2,103413,109251
2,163791,169693
//Storyboard Layer 0 (Background)
//Storyboard Layer 1 (Fail)
//Storyboard Layer 2 (Pass)
//Storyboard Layer 3 (Foreground)
//Storyboard Sound Samples
//Background Colour Transformations
3,100,163,162,255

[TimingPoints]
23373,500,4,2,0,90,1,0
23873,480,4,2,0,90,1,0
24368,480,4,1,1,40,1,0
25808,480,4,1,1,40,1,0
26752,480,4,1,1,40,1,0
27712,473.372781065089,4,1,1,40,1,0
31972,-100,4,2,0,80,0,0
32090,-100,4,1,1,40,0,0
35275,495.867768595041,4,2,0,80,1,0
35770,461.538461538462,4,1,1,40,1,0
39015,480,4,2,0,80,1,0
39135,-100,4,1,1,40,0,0
40455,-100,4,2,0,80,0,0
40575,-100,4,1,1,40,0,0
42375,-100,4,2,0,80,0,0
42845,472.44094488189,4,1,1,40,1,0
44262,-100,4,2,0,80,0,0
44380,-100,4,1,1,40,0,0
46603,472.44094488189,4,2,0,80,1,0
46721,-100,4,1,1,40,0,0
47090,472.44094488189,4,1,1,40,1,0
48034,-100,4,2,0,80,0,0
48152,-100,4,1,1,40,0,0
48507,472.44094488189,4,1,1,40,1,0
49924,-100,4,2,0,80,0,0
50042,-100,4,1,1,40,0,0
51352,472.44094488189,4,1,1,40,1,0
51579,472.44094488189,4,1,1,40,1,0
52297,470.588235294118,4,1,1,40,1,0
54179,-100,4,2,0,80,0,0
57944,468.75,4,1,1,40,1,0
61694,462.42774566474,4,1,1,50,1,0
63319,462.962962962963,4,2,0,90,1,1
63434,-100,4,2,0,90,0,0
63547,466.019417475728,4,1,1,50,1,0
67042,-100,4,2,0,90,0,1
67158,-100,4,2,0,90,0,0
67742,-100,4,1,1,50,0,0
68210,466.019417475728,4,1,1,50,1,0
69132,454.545454545455,4,1,1,50,1,0
70516,458.015267175573,4,1,1,50,1,0
70747,474.308300395257,4,2,0,90,1,1
70865,-100,4,2,0,90,0,0
70984,474.308300395257,4,1,1,50,1,0
72883,478.08764940239,4,2,0,90,1,1
73002,-100,4,2,0,90,0,0
73361,-100,4,1,1,40,0,0
76684,475.247524752475,4,2,1,30,1,0
80485,473.372781065089,4,1,1,50,1,0
84271,467.471756914686,4,1,1,40,1,0
88030,477.516912057302,4,2,0,80,1,0
88149,-100,4,1,1,40,0,0
89462,-100,4,2,0,80,0,0
89581,-100,4,1,1,40,0,0
91372,-100,4,2,0,80,0,0
91491,-100,4,1,1,40,0,0
93282,-100,4,2,0,80,0,0
93402,-100,4,1,1,40,0,0
93760,468.75,4,1,1,40,1,0
95635,476.190476190476,4,2,0,80,1,0
95755,-100,4,1,1,40,0,0
96568,476.190476190476,4,1,1,40,1,0
97044,-100,4,2,0,80,0,0
97163,-100,4,1,1,40,0,0
97520,476.190476190476,4,1,1,40,1,0
98948,-100,4,2,0,80,0,0
99067,-100,4,1,1,40,0,0
100843,476.190476190476,4,1,1,40,1,0
101319,476.190476190476,4,1,1,40,1,0
102975,476.190476190476,4,1,1,40,1,0
103213,468.75,4,2,0,80,1,0
106479,468.75,4,2,0,80,1,0
106962,468.75,4,2,0,80,1,0
109759,468.75,4,1,1,40,1,0
110691,468.75,4,1,1,50,1,0
112087,468.75,4,1,1,50,1,0
112321,-100,4,2,0,90,0,1
112438,-100,4,2,0,90,0,0
112555,468.75,4,1,1,50,1,0
113023,-100,4,1,1,50,0,0
114430,463.320463320463,4,1,1,50,1,0
116071,470.588235294118,4,2,0,90,1,1
116188,-100,4,2,0,90,0,0
116306,470.588235294118,4,1,1,50,1,0
116776,-100,4,1,1,50,0,0
118183,447.761194029851,4,1,1,50,1,0
118854,-100,4,2,0,90,0,0
119093,480,4,1,1,50,1,0
119809,469.667318982387,4,2,0,90,1,1
119926,-100,4,2,0,90,0,0
120043,469.667318982387,4,1,1,50,1,0
120512,-100,4,1,1,50,0,0
121921,478.08764940239,4,2,0,90,1,1
122040,-100,4,2,0,90,0,0
122399,-100,4,1,1,40,0,0
123833,471.883602044829,4,1,1,40,1,0
129482,471.142520612485,4,2,0,80,1,0
129599,-100,4,1,1,50,0,0
132795,471.142520612485,4,1,1,50,1,0
133266,471.142520612485,4,1,1,50,1,0
135637,471.142520612485,4,1,1,50,1,0
137050,477.13717693837,4,1,1,50,1,0
138958,461.538461538462,4,1,1,50,1,0
139901,483.870967741935,4,1,1,50,1,0
140875,480,4,2,0,90,1,0
140995,-100,4,1,1,40,0,0
142555,463.857750289911,4,1,1,40,1,0
142774,476.190476190476,4,1,1,20,1,0
143250,-100,4,1,1,40,0,0
144678,472.44094488189,4,1,1,20,1,0
145622,-100,4,1,1,40,0,0
146567,-100,4,1,1,20,0,0
147985,-100,4,1,1,40,0,0
152247,472.44094488189,4,1,1,40,1,0
154584,472.44094488189,4,1,1,40,1,0
155528,-100,4,2,0,80,0,0
155646,-100,4,1,1,40,0,0
155994,472.44094488189,4,2,0,80,1,0
156112,-100,4,1,1,40,0,0
156466,-100,4,2,0,80,0,0
156584,-100,4,1,1,40,0,0
160256,472.44094488189,4,2,0,80,1,0
160374,-100,4,1,1,40,0,0
160728,474.871388998813,4,1,1,40,1,0
163591,472.44094488189,4,2,0,80,1,0
166882,472.44094488189,4,1,1,40,1,0
167354,472.44094488189,4,1,1,40,1,0
171133,477.13717693837,4,2,0,80,1,0
171252,-100,4,1,1,40,0,0
174483,477.13717693837,4,1,1,40,1,0
174960,472.44094488189,4,2,0,70,1,0
175078,-100,4,1,1,40,0,0
175904,458.891013384321,4,1,1,40,1,0
176362,472.44094488189,4,2,0,70,1,0
176598,469.29996089167,4,1,1,40,1,0
176834,468.75,4,1,1,40,1,0
178240,484.457004440856,4,1,1,40,1,0
178724,463.320463320463,4,1,1,40,1,0
180577,-100,4,2,0,70,0,0
180693,-100,4,1,1,40,0,0
182430,468.75,4,1,1,40,1,0
183367,-100,4,2,0,70,0,0
184078,468.75,4,1,1,40,1,0
184308,476.190476190476,4,1,1,50,1,0
185736,-100,4,2,0,50,0,0
186212,468.75,4,1,1,40,1,0
188087,465.116279069767,4,1,0,50,1,0
189957,461.538461538462,4,1,1,55,1,0
191567,472.44094488189,4,2,0,90,1,1
191803,472.44094488189,4,1,1,55,1,1
193672,466.926070038911,4,1,1,55,1,1
195189,-100,4,1,1,55,0,0
195306,-90.9090909090909,4,2,0,90,0,1
195422,-90.9090909090909,4,1,1,55,0,1
197407,-100,4,1,1,55,0,1
198924,-100,4,1,1,55,0,0
199041,-90.9090909090909,4,2,0,90,0,1
199158,-90.9090909090909,4,1,1,55,0,1
201127,472.44094488189,4,2,0,90,1,0
201245,-100,4,1,1,40,0,0
208686,468.75,4,2,0,80,1,0
208803,-100,4,1,1,40,0,0
210573,468.75,4,1,1,40,1,0
212448,472.44094488189,4,2,0,80,1,0
212566,-100,4,1,1,40,0,0
215755,-100,4,2,0,80,0,0
215873,-100,4,1,1,40,0,0
216227,478.08764940239,4,1,1,40,1,0
218139,461.538461538462,4,1,1,40,1,0
219523,-100,4,2,0,90,0,0
220013,480,4,2,0,90,1,1
220133,-100,4,1,1,40,0,0
221933,475.247524752475,4,1,1,40,1,0
222863,475.247524752475,4,1,1,40,1,0
223813,474.308300395257,4,1,1,40,1,0
224524,-100,4,2,0,60,0,0
225235,-100,4,1,1,40,0,0
225947,-100,4,2,0,60,0,0
227640,483.870967741935,4,1,1,40,1,0
228123,-100,4,1,1,35,0,0
228607,-100,4,1,1,30,0,0
229091,-100,4,1,1,25,0,0
229575,-100,4,1,1,20,0,0
230059,-100,4,1,1,15,0,0
230543,-100,4,2,0,10,0,0

[Colours]
Combo1 : 255,255,255
Combo2 : 187,83,83
Combo3 : 237,54,54
Combo4 : 165,20,20

[HitObjects]
96,76,23873,1,4
160,156,24368,1,8
160,256,24848,2,0,B|220:276|256:308,1,110,0|8
352,328,25808,1,0
440,284,26288,1,8
412,192,26752,2,8,B|420:128|368:92,1,110,0|8
316,176,27712,5,0
220,152,28185,2,0,B|112:168,1,110,8|0
72,260,29132,2,0,B|180:244,1,110,8|0
148,336,30078,2,0,B|256:320,1,110,8|0
320,244,31025,1,8
376,160,31498,5,0
312,84,31972,2,0,B|256:104|200:84,1,110,4|0
108,100,32919,2,0,B|128:164|180:176,1,110,8|0
280,180,33865,2,0,B|272:244|216:269,2,110,8|0|8
179,175,35275,21,4
333,248,39015,6,0,B|301:284|306:351,1,110,4|8
208,352,39975,2,0,B|213:284|181:248,1,110,0|4
153,152,40935,2,0,B|97:176|84:236,2,110,0|8|0
196,64,42375,1,4
296,68,42845,6,0,B|320:176,1,110,0|8
224,160,43789,2,0,B|180:264,1,110,0|4
280,260,44734,2,0,B|356:344,2,110,0|8|0
180,252,46152,1,8
120,180,46603,21,4
77,86,47090,2,0,B|146:56|214:99|229:153|219:208,1,220,8|4
204,292,48507,1,0
296,260,48979,2,0,B|298:217|330:165|403:145|463:191,1,220,8|4
396,268,50396,6,0,B|392:306|368:342|328:354,1,110,0|8
244,308,51352,1,0
104,168,52297,1,0
280,76,53238,1,0
320,168,53708,1,8
356,260,54179,1,4
116,328,61694,6,8,B|144:276|204:272|204:272|220:200,1,165,8|8
352,76,63319,6,0,B|316:240,1,165,4|8
216,216,64479,6,0,B|204:160|145:137,1,110,0|8
184,48,65411,2,8,B|260:88|344:56,1,165
460,192,67042,38,0,B|404:224|336:212|306:170,1,165,4|8
204,172,68210,22,0,B|168:216|101:206,1,110,0|8
40,268,69132,2,8,B|80:288|96:328|96:328|140:312|180:336,1,165
360,264,70747,22,0,B|296:204|204:232,1,165,4|8
120,276,71932,6,0,B|84:172,1,110,0|8
132,92,72883,38,0,B|192:88|234:131,1,110,4|0
300,56,73839,22,0,B|345:95|344:156,1,110,0|8
444,148,74795,2,0,B|447:208|404:250,1,110,0|8
352,332,75751,2,0,B|244:292,1,110,0|8
256,192,76684,12,2,79535
303,180,88030,6,0,B|348:140|320:80,2,110,4|8|0
204,196,89462,1,4
108,228,89940,2,0,B|132:284|192:296,1,110,0|8
288,280,90895,1,0
372,224,91372,1,4
344,128,91850,22,0,B|312:64|312:64|244:28|168:67,1,220
96,132,93282,1,4
144,220,93760,2,0,B|208:312|336:308,1,220
396,116,95635,5,4
296,140,96111,1,0
216,196,96568,1,0
156,276,97044,2,0,B|112:240|96:184,1,110,4|0
124,88,97996,1,8
316,144,98948,1,4
380,220,99424,6,0,B|368:272|328:320,1,110,0|8
232,328,100377,1,0
176,248,100843,2,0,B|148:204|100:168,1,110,8|0
152,88,101795,1,8
248,108,102271,1,0
344,80,102747,1,8
440,52,103213,1,4
112,296,110691,22,8,B|168:260|168:260|211:168,1,165,8|8
396,108,112321,38,8,B|340:144|340:144|297:236,1,165,4|8
203,213,113492,22,0,B|192:272|240:312,1,110,0|8
338,311,114430,2,8,B|398:263|370:155,1,165
188,80,116071,22,8,B|128:128|156:236,1,165,4|8
244,276,117247,38,0,B|350:301,1,110,0|8
428,232,118183,2,0,B|268:192,1,165,0|4
68,188,119809,6,0,B|196:292,1,165,4|8
280,244,120982,6,8,B|288:188|252:137,1,110
328,80,121921,38,0,B|412:150,1,110,4|8
408,248,122877,5,0
308,236,123355,1,8
212,260,123833,1,0
116,240,124304,1,8
148,148,124776,2,0,B|152:40,1,110,0|8
56,68,125720,6,0,B|44:176,1,110,0|8
136,212,126664,2,0,B|160:264|167:316,1,110,0|8
256,268,127608,2,0,B|312:284|352:319,2,110,0|8|0
256,72,129482,6,0,B|280:120|325:157,1,110,4|8
384,76,130424,1,0
424,272,131366,2,0,B|388:316|338:340,2,110,0|8|0
352,192,132795,1,8
264,136,133266,22,8,B|157:107,1,110
88,180,134208,2,0,B|36:208,2,55,8|0|8
176,220,135150,1,0
256,284,135637,2,8,B|302:325|362:321,1,110
404,236,136579,1,8
448,144,137050,22,0,B|400:120|340:120,1,110,0|8
352,220,138004,2,0,B|304:212|242:223,1,110,0|8
156,276,138958,1,0
140,180,139419,1,8
96,92,139901,1,10
264,64,140875,22,0,B|336:8|424:56|431:132,1,220,4|0
333,137,142315,1,8
236,141,142774,2,2,B|243:217|331:265|403:209,1,220,2|0
144,104,144202,1,8
52,140,144678,6,2,B|80:240|68:360,1,220,2|0
164,328,146095,1,8
244,264,146567,2,2,B|216:164|228:44,1,220,2|0
320,84,147985,1,12
392,152,148457,6,0,B|428:204|477:218,2,110,0|8|0
336,236,149874,2,0,B|331:345,2,110,8|0|8
236,244,151292,2,0,B|200:196|200:141,1,110,0|8
276,76,152247,21,0
184,44,152719,1,8
88,56,153191,2,0,B|32:68|4:128,1,110,0|8
100,156,154136,1,0
136,244,154584,2,8,B|128:304|172:356,1,110
248,292,155528,1,4
340,320,155994,5,4
436,292,156466,1,4
432,192,156938,2,0,B|428:140|388:90,1,110,0|8
292,112,157883,2,0,B|264:64|204:36,2,110,0|8|0
216,292,159773,5,0
136,348,160256,1,4
88,256,160728,2,0,B|172:188,1,110,0|8
272,192,161677,22,0,B|296:256,2,55
372,196,162627,2,0,B|396:260,2,55,0|0|0
476,200,163591,1,4
160,296,171133,6,0,B|192:252|256:244,2,110,4|0|8
96,131,173041,2,2,B|200:80|312:96,1,220,0|8
408,116,174483,1,8
364,208,174960,6,0,B|256:160|148:208,1,220,4|8
100,56,176834,2,2,B|264:92|428:56,1,330,0|8
468,140,178724,22,0,B|388:203|364:335,1,220,0|8
216,236,180577,2,2,B|88:239|1:163|16:33,1,330,4|8
100,52,182430,6,0,B|212:72|212:72|244:120|299:126,1,220,0|4
456,52,184308,2,2,B|504:192|408:304|304:292,1,330,8|4
256,192,186212,12,8,189017
96,192,189957,6,8,B|120:100|224:104,1,165
418,192,191567,6,0,B|390:292|278:284,1,165,4|8
176,260,192747,2,0,B|128:224|116:167,1,110
212,156,193672,22,8,B|296:188|298:285,1,165
444,120,195306,22,0,B|460:48|460:48|420:16|356:40,1,181.499994590879,4|8
300,128,196473,22,8,B|272:148|256:172|256:172|244:148|212:128,1,120.999996393919
176,220,197407,2,8,B|152:308|216:372,1,165
404,264,199041,22,0,B|352:176|257:169,1,181.499994590879,4|8
160,220,200208,38,8,B|112:108,1,120.999996393919
196,64,201127,2,0,B|244:88|303:84,1,110,4|8
360,168,202071,2,0,B|360:224|396:276,1,110,0|8
300,304,203016,1,0
208,264,203489,2,0,B|152:248|98:271,2,110,8|0|8
280,192,204906,22,0,B|376:180|376:56|284:40,1,220
200,80,206323,2,0,B|168:120|112:144,1,110,8|0
112,240,207268,2,0,B|167:264|199:304,2,110,8|0|8
196,184,208686,6,0,B|404:116,1,220,4|0
428,212,210092,1,0
388,308,210573,2,0,B|328:316|280:296,1,110,0|8
188,260,211510,2,0,B|153:155,1,110,0|8
228,92,212448,6,8,B|264:196,2,110,4|8|8
328,76,213865,1,8
428,93,214337,2,8,B|436:148|408:200,1,110
332,136,215282,2,0,B|288:168|263:221,1,110,8|4
180,272,216227,22,8,B|164:324,2,55,8|8|8
100,216,217183,2,8,B|93:270,2,55,0|8|8
112,116,218139,1,0
204,80,218600,1,8
292,124,219062,1,8
388,140,219523,1,4
480,100,220013,38,0,B|500:160|466:204,1,110,4|8
408,284,220973,38,0,B|368:248|303:249,1,110
205,249,221933,2,0,B|144:248|104:284,1,110
84,188,222863,2,0,B|112:136|112:80,1,110,0|8
204,68,223813,22,0,B|372:108,1,165,0|4
424,240,225235,2,0,B|263:201,1,165,8|4
136,276,226658,2,0,B|248:304,1,110,2|2
256,192,227640,12,0,230543
