osu file format v6

[General]
AudioFilename: MGS Skate.mp3
AudioLeadIn: 3000
PreviewTime: -1
Countdown: 1
SampleSet: Normal
StackLeniency: 0.7
Mode: 0
LetterboxInBreaks: 1

[Editor]
Bookmarks: 50941,53732,64896,80945,81643,103796,114960,137812,148976,188416
DistanceSpacing: 0.800000011920929
BeatDivisor: 2
GridSize: 8

[Metadata]
Title:Skateboarding Theme
Artist:Metal Gear Solid OST
Creator:gereo
Version:Big Boss
Source:Metal Gear Solid 2
Tags:

[Difficulty]
HPDrainRate:6
CircleSize:6
OverallDifficulty:8
SliderMultiplier:1.4
SliderTickRate:1

[Events]
//Background and Video events
//Break Periods
2,24452,28735
2,53932,64146
//Storyboard Layer 0 (Background)
//Storyboard Layer 1 (Fail)
//Storyboard Layer 2 (Pass)
//Storyboard Layer 3 (Foreground)
//Storyboard Sound Samples
//Background Colour Transformations
3,100,163,162,255

[TimingPoints]
1750,348.877776485638,4,1,0,100,1,0

[Colours]
Combo1 : 43,99,41
Combo2 : 0,64,128
Combo3 : 0,0,0
Combo4 : 255,108,0

[HitObjects]
256,192,12914,1,8
256,136,13088,1,8
256,80,13262,1,8
256,24,13437,1,12
256,136,13786,1,0
256,248,14135,1,0
312,248,14309,2,0,B|408:248,1,70
384,192,14658,2,0,B|304:192,1,70
312,136,15007,2,0,B|392:136,1,70
384,80,15356,2,0,B|296:80,1,70
256,80,15705,5,8
256,136,15879,1,0
256,192,16053,1,0
256,248,16228,2,0,B|256:336|112:336,1,140
48,328,16926,1,0
48,272,17100,2,0,B|152:272,1,70
120,216,17449,2,0,B|48:216,1,70
48,160,17798,2,0,B|136:160,1,70
120,104,18147,2,0,B|120:32,1,70
192,32,18496,5,8
256,32,18670,1,8
320,32,18845,1,12
328,88,19019,2,0,B|184:88,1,140
256,88,19717,2,0,B|256:168,1,70
232,216,20066,1,0
280,216,20240,1,0
280,272,20414,1,0
232,272,20589,1,0
232,328,20763,1,0
280,328,20938,1,0
256,280,21112,2,0,B|256:200,1,70
200,192,21461,5,8
256,168,21636,1,8
312,192,21810,1,8
256,248,21984,1,0
256,192,22333,1,4
160,248,22682,1,4
184,264,22857,2,4,L|184:120|248:120|256:192|264:120|264:120|264:120|328:120|328:280,1,560
256,192,29485,5,4
256,136,29660,1,4
256,80,29834,2,4,B|384:80|384:192|384:272|256:272,1,280
240,264,30706,1,4
184,264,30881,2,4,B|184:192,1,70
128,192,31230,1,4
128,80,31579,2,4,B|272:80,1,140
376,80,32276,1,4
376,136,32451,1,4
376,192,32625,2,4,B|376:336|120:352,1,280
176,288,33497,1,4
176,232,33672,1,4
136,192,33846,1,4
176,152,34021,1,4
176,152,34370,1,4
256,192,35067,5,0
256,136,35242,1,0
256,80,35416,1,0
256,192,35765,1,0
256,304,36114,1,0
256,360,36288,1,0
312,352,36463,1,0
400,280,36637,1,0
392,168,36812,1,0
392,112,37161,2,0,B|240:112,2,140
392,56,38033,1,0
336,56,38207,2,0,B|104:56,1,210
128,112,38905,1,0
128,168,39254,1,0
240,184,39428,1,0
256,240,39603,1,0
256,240,39952,1,0
256,240,40300,1,0
256,240,40649,5,0
256,184,40824,1,0
256,128,40998,2,0,B|256:32|376:32|376:176|376:248,1,280
376,288,41870,2,8,B|280:336,1,70
264,344,42219,2,8,B|184:344,1,70
80,336,42743,2,0,B|24:232|40:120|144:56,1,280
152,80,43615,1,0
208,80,43789,2,0,B|400:80,2,140
208,136,44661,1,0
264,136,44836,1,0
320,136,45010,1,0
328,192,45185,2,0,B|256:192|256:296,1,140
256,192,46231,5,0
256,136,46406,1,0
200,120,46580,2,0,B|232:72|288:72|320:120,2,140
200,176,47452,1,0
200,232,47627,1,0
256,232,47801,1,0
312,232,47976,1,0
328,120,48325,2,0,B|184:120,1,140
184,168,49022,1,0
240,168,49197,1,0
296,168,49371,2,0,B|376:80|296:24|176:64,1,210
224,112,50069,1,0
216,224,50418,1,0
272,224,50592,1,0
240,200,50767,2,0,B|208:144|208:144|392:144|392:144|376:320|248:368|136:352|72:304|48:192|64:96|104:32|272:32|272:32|416:32|416:32|416:112,1,1190
256,192,64896,5,0
256,136,65071,1,0
312,136,65245,1,0
312,80,65420,1,0
200,80,65769,1,0
200,136,65943,1,0
200,192,66117,1,0
200,248,66292,5,0
312,248,66466,1,0
312,304,66641,1,0
256,304,66815,1,0
256,192,67164,1,0
256,136,67339,1,0
256,80,67513,1,0
312,80,67687,6,0,B|312:152,3,70
320,264,68560,1,0
264,264,68734,1,0
208,264,68908,1,0
208,208,69083,2,2,B|296:208,1,70
208,152,69606,1,8
208,96,69781,2,12,B|336:96|336:208,1,140
216,184,70478,6,0,B|296:184,3,70
216,96,71351,1,0
248,56,71525,1,0
288,96,71699,1,0
288,152,71874,1,0
232,152,72048,1,0
232,208,72223,1,0
288,208,72397,1,0
296,264,72746,2,0,B|208:264,2,70
296,208,73269,6,0,B|224:208,1,70
224,152,73618,2,0,B|304:152,1,70
296,96,74142,1,0
240,96,74316,1,0
264,144,74491,1,0
224,184,74665,2,0,B|320:184,1,70
288,248,75188,2,0,B|208:248,1,70,0|0
256,200,75712,1,0
144,192,76060,6,0,B|256:40|376:192,1,280
256,200,77107,1,0
256,256,77456,1,0
256,312,77805,1,0
256,368,78154,1,0
256,368,78851,2,0,B|256:72,1,280
256,88,79898,1,0
312,184,80247,1,0
200,184,80596,1,0
256,184,80945,2,6,B|256:104,4,70
256,114,81817,5,0
256,192,82515,1,0
256,304,82864,1,0
320,248,83212,1,0
192,248,83561,1,0
256,248,83910,1,0
256,304,84608,2,0,B|256:16,1,280
160,80,85655,1,0
352,80,86003,1,0
352,192,86352,1,0
160,192,86701,1,0
256,192,87050,1,0
256,304,87399,2,0,B|256:16,2,280
256,136,89318,5,0
256,248,89667,1,0
256,192,89841,1,0
216,296,90190,2,0,B|312:296,1,70
288,240,90539,2,0,B|216:240,1,70
216,184,90888,2,0,B|216:112,1,70
296,184,91237,2,0,B|296:112,1,70
296,56,91586,2,0,B|208:56,1,70
168,56,91934,1,0
112,56,92109,1,0
144,152,92458,2,0,B|144:240,2,70,0|0|0
200,168,92981,5,0
256,168,93155,1,0
312,168,93330,1,0
312,224,93504,5,0
256,224,93679,1,0
200,224,93853,1,0
200,168,94028,5,0
256,168,94202,1,0
312,168,94377,1,0
312,224,94551,5,0
256,224,94725,1,0
200,224,94900,1,0
232,176,95074,5,0
288,176,95249,1,0
256,128,95423,6,0,B|256:328,8,140
200,168,98563,5,0
256,168,98738,1,0
312,168,98912,1,0
312,224,99086,5,0
256,224,99261,1,0
200,224,99435,1,0
256,224,99610,6,0,B|256:152,2,70,0|0|0
256,168,100133,6,0,B|256:88,2,70,0|0|0
256,112,100656,6,0,B|256:40,2,70,0|0|0
360,64,101354,6,0,B|264:32|136:0|72:24|56:160|96:192|160:192|224:136|440:128|504:208|496:368|368:336|40:336,1,980
