osu file format v6

[General]
AudioFilename: Metal Fight Beyblade Ending.mp3
AudioLeadIn: 2007
PreviewTime: -1
Countdown: 0
SampleSet: Soft
StackLeniency: 0.7
Mode: 0
LetterboxInBreaks: 1

[Editor]
DistanceSpacing: 0.800000011920929
BeatDivisor: 3
GridSize: 16

[Metadata]
Title:Metal Fight Beyblade Ending
Artist:
Creator:haholam2005
Version:Say Hello!(EaZy)
Source:
Tags:

[Difficulty]
HPDrainRate:2
CircleSize:4
OverallDifficulty:3
SliderMultiplier:1.4
SliderTickRate:1

[Events]
//Background and Video events
//Break Periods
2,39547,47472
2,59764,70298
//Storyboard Layer 0 (Background)
//Storyboard Layer 1 (Fail)
//Storyboard Layer 2 (Pass)
//Storyboard Layer 3 (Foreground)
//Storyboard Sound Samples
//Background Colour Transformations
3,100,163,162,255

[TimingPoints]
16521,652.173913043478,4,2,0,100,1,0

[Colours]
Combo1 : 0,255,0
Combo2 : 255,128,64
Combo3 : 255,0,0
Combo4 : 128,255,255

[HitObjects]
80,48,8694,1,0
144,128,9564,1,0
160,48,9999,1,0
224,128,10651,1,0
368,64,11303,1,0
336,144,11955,1,0
272,48,12607,1,0
224,128,13260,1,0
64,304,13912,1,0
128,208,14564,1,0
176,320,15216,1,0
256,240,15868,1,0
320,304,16738,1,0
384,224,17173,1,0
448,304,17825,1,0
48,48,19129,5,0
144,160,19781,1,0
208,32,20434,1,0
288,160,21086,1,0
416,48,21738,1,0
464,160,22390,1,0
496,48,23042,1,0
48,336,23694,1,0
144,208,24347,1,0
224,288,24999,1,0
304,208,25651,1,0
448,288,26303,1,0
256,208,27173,12,0,28260
48,32,29564,5,0
160,160,30216,1,0
240,48,30868,1,0
336,160,31520,1,0
448,64,32173,1,0
464,160,32825,1,0
48,352,33477,1,0
160,224,34129,1,0
224,336,34781,1,0
320,240,35434,1,0
384,320,36086,1,0
480,208,36738,1,0
512,288,37607,1,0
256,208,38694,12,0,39347
256,208,48912,12,0,49564
64,112,50651,5,0
128,192,51086,1,0
192,112,51738,1,0
272,208,52390,1,0
352,112,53042,1,0
448,208,53694,1,0
480,128,54347,1,0
32,368,55651,1,0
160,224,56303,1,0
208,320,56955,1,0
304,224,57607,1,0
384,336,58260,1,0
464,224,58912,1,0
496,352,59564,1,0
32,32,71738,5,0
128,160,72173,1,0
192,48,72390,1,0
288,160,72825,1,0
352,48,73260,1,0
384,144,73694,1,0
432,48,73912,1,0
48,336,75216,1,0
112,224,75651,1,0
176,320,75868,1,0
256,208,76303,1,0
320,304,76520,1,0
400,208,76955,1,0
448,288,77173,1,0
48,48,79129,1,0
96,144,79564,1,0
176,48,79781,1,0
224,144,80216,1,0
272,48,80434,1,0
336,128,80868,1,0
384,64,81086,1,0
