osu file format v6

[General]
AudioFilename: Metal Fight Beyblade Ending.mp3
AudioLeadIn: 2007
PreviewTime: -1
Countdown: 0
SampleSet: Soft
StackLeniency: 0.7
Mode: 0
LetterboxInBreaks: 1

[Editor]
DistanceSpacing: 0.800000011920929
BeatDivisor: 3
GridSize: 16

[Metadata]
Title:Metal Fight Beyblade Ending
Artist:
Creator:haholam2005
Version:Go!(NoEmAl)
Source:
Tags:

[Difficulty]
HPDrainRate:7
CircleSize:6
OverallDifficulty:7
SliderMultiplier:1.4
SliderTickRate:1

[Events]
//Background and Video events
//Break Periods
2,50416,73012
//Storyboard Layer 0 (Background)
//Storyboard Layer 1 (Fail)
//Storyboard Layer 2 (Pass)
//Storyboard Layer 3 (Foreground)
//Storyboard Sound Samples
//Background Colour Transformations
3,100,163,162,255

[TimingPoints]
16521,652.173913043478,4,2,0,100,1,0

[Colours]
Combo1 : 0,255,0
Combo2 : 255,128,64
Combo3 : 255,0,0
Combo4 : 128,255,255

[HitObjects]
96,80,8043,1,0
176,160,8478,1,0
224,96,8695,1,0
288,176,9347,1,0
352,80,9999,1,0
400,176,10652,1,0
80,64,12608,5,0
160,160,13260,1,0
208,64,13478,1,0
256,160,13913,1,0
320,80,14130,1,0
368,160,14565,1,0
432,80,14782,1,0
64,64,19129,5,0
112,160,19781,1,0
176,64,20434,1,0
224,144,21086,1,0
80,208,22390,5,0
160,64,23042,1,0
208,192,23694,1,0
288,80,24347,1,0
256,208,27173,12,0,28694
96,112,29564,5,0
176,224,30216,1,0
240,128,30868,1,0
304,208,31086,1,0
352,128,31521,1,0
416,224,31738,1,0
48,272,33477,5,0
128,144,33694,1,0
208,256,34129,1,0
288,128,34347,1,0
336,256,34781,1,0
80,80,37825,6,0,B|368:272,1,326.666666666667
64,112,40216,5,0
144,192,40651,1,0
192,96,41086,1,0
256,176,41303,1,0
320,112,41738,1,0
368,192,41955,1,0
464,128,42390,1,0
48,352,44781,5,0
128,192,45216,1,0
256,352,45868,1,0
336,192,46521,1,0
432,352,47173,1,0
496,208,47607,1,0
256,320,48260,2,0,B|128:288|176:80|400:96|272:320,1,420
96,64,73912,5,8
160,176,74564,1,8
224,80,75216,1,8
256,144,75868,1,8
352,80,76521,1,8
416,176,77173,1,8
464,80,77825,1,8
496,160,78477,1,8
48,352,81955,5,8
144,208,82390,1,8
192,352,83042,1,8
272,224,83694,1,8
352,352,84347,1,8
432,240,84999,1,8
464,352,85651,1,8
512,224,86303,1,8
48,16,86955,5,8
160,144,87607,1,8
240,48,88260,1,8
304,160,88912,1,8
384,48,89564,1,8
416,160,90216,1,8
480,32,90868,1,8
