osu file format v5

[General]
AudioFilename: Mest - Hotel Room (1)(1).mp3
AudioLeadIn: 3000
PreviewTime: -1
Countdown: 1
SampleSet: Soft
EditorBookmarks: 35385,58364,84799,91365,110025,126611,128512

[Metadata]
Title:Hotel Room
Artist:Mest
Creator:Neogetz
Version:Normal

[Difficulty]
HPDrainRate:3
CircleSize:5
OverallDifficulty:5
SliderMultiplier:1.4
SliderTickRate:1

[Events]
//Background and Video events
0,0,"butterfly.jpg"
//Break Periods
2,54072,57164
2,80852,90510
2,106251,109170
//Storyboard Layer 0 (Background)
//Storyboard Layer 1 (Failing)
//Storyboard Layer 2 (Passing)
//Storyboard Layer 3 (Foreground)
//Storyboard Sound Samples
//Background Colour Transformations
3,100,163,162,255

[TimingPoints]
4510,517.241379310345,4,2,0,100

[HitObjects]
32,192,372,1,0
128,192,889,1,0
224,192,1406,1,0
320,192,1923,1,0
416,192,2441,1,0
512,192,2958,1,0
416,192,3475,5,0
320,192,3992,1,0
224,192,4510,1,0
128,192,5027,1,0
32,192,5544,1,0
128,192,6061,1,0
224,192,6578,5,4
320,192,7096,5,4
416,192,7613,5,4
96,96,8906,6,0,B|256:34|416:128,1,280
384,192,10716,2,0,B|256:355|64:192,1,350
0,192,13044,6,0,C|33:129|88:169|160:225|223:179|288:129|350:191|384:224,1,490
480,352,15372,1,0
480,256,15889,1,2
480,192,16147,1,2
480,128,16665,1,2
32,320,17182,5,0
96,320,17441,1,0
160,320,17699,1,0
256,320,18475,5,0
320,320,18734,1,0
384,320,19251,1,0
448,320,19510,1,0
480,256,20027,1,4
32,64,21320,5,0
96,64,21578,1,0
160,64,21837,1,0
224,64,22354,1,0
320,64,22872,5,0
384,64,23130,1,0
448,128,23647,1,2
448,224,24165,1,2
448,320,24682,1,6
256,192,25716,12,0,29078
32,64,29854,1,0
64,64,30113,1,4
160,64,30630,5,0
192,64,30889,1,4
320,64,31665,5,0
352,64,31923,1,4
448,160,32699,5,0
448,192,32958,1,4
448,320,33992,6,0,C|352:320,1,70
256,320,35027,2,0,C|160:320,1,70
64,352,35803,6,0,B|0:288|64:224,1,140
64,160,36837,2,0,B|0:96|64:32,1,140
32,64,37872,5,0
64,64,38130,1,4
160,64,38841,5,0
192,64,39013,1,4
320,64,39878,5,0
352,64,40050,1,4
448,160,40914,5,0
448,192,41087,1,4
448,320,42010,6,0,C|352:320,1,70
224,320,43044,6,0,C|128:320,1,70
256,192,44078,12,0,46406
256,192,46923,1,0
256,192,47441,1,2
256,192,47958,1,0
256,192,48475,1,2
256,192,48992,1,0
256,352,50544,5,0
256,288,51061,1,2
256,224,51578,1,0
256,160,52096,1,2
256,96,52613,1,0
256,32,53130,1,4
256,128,53906,1,4
64,64,58303,5,0
160,64,58820,1,0
256,64,59337,1,0
352,64,59854,1,0
448,64,60372,1,0
448,160,60889,1,0
448,256,61406,1,0
352,256,61923,1,0
256,256,62441,1,0
256,192,62958,12,0,66320
32,64,67003,5,0
64,64,67176,1,4
160,64,67872,5,0
192,64,68130,1,4
320,64,68906,5,0
352,64,69165,1,4
448,160,69941,5,0
448,192,70199,1,4
448,320,71234,6,0,C|352:320,1,70
224,320,72268,6,0,C|128:320,1,70
480,64,75297,5,0
448,64,75470,1,4
352,64,76147,5,0
320,64,76406,1,4
192,64,77182,5,0
160,64,77441,1,4
64,160,78216,5,0
64,192,78475,1,4
64,320,79510,6,0,C|160:320,1,70
288,320,80544,6,0,C|384:320,1,70
480,320,91665,2,0,B|320:320,1,140
96,256,92958,2,0,B|256:256,1,140
320,256,93734,2,0,B|480:256,1,140
320,192,95027,2,0,B|160:192,1,140
64,160,97872,2,0,B|224:160,1,140
288,160,98906,2,0,B|448:160,1,140
256,192,99941,12,0,106147
64,32,110285,2,0,B|160:32,1,70
256,32,111320,2,0,B|352:32,1,70
448,32,112354,2,0,B|448:128,1,70
448,256,113389,2,0,B|448:352,1,70
320,320,114682,2,0,B|224:320,1,70
128,320,115716,2,0,B|32:320,1,70
64,32,118561,6,0,B|160:32,1,70
256,32,119596,2,0,B|352:32,1,70
448,32,120630,2,0,B|448:128,1,70
448,256,121665,2,0,B|448:352,1,70
320,320,122958,2,0,B|224:320,1,70
128,320,123992,2,0,B|32:320,1,70
172,256,126578,6,0,B|257:193|320:65|384:64|386:194|384:320|321:321|256:193|128:64,1,560
340,256,130716,6,0,B|255:193|192:65|128:64|126:194|128:320|191:321|256:193|384:64,1,560
33,65,134854,6,0,B|96:33|192:64,1,140
223,63,135630,2,0,B|288:33|383:64,1,140
448,64,136665,1,0
33,319,138992,6,0,B|96:351|192:320,1,140
223,321,139768,2,0,B|288:351|383:320,1,140
448,320,140803,1,0
256,192,143130,5,0
