osu file format v5

[General]
AudioFilename: MMPPP - Perfect harmony.mp3
AudioLeadIn: 2228
PreviewTime: -1
Countdown: 1
SampleSet: Normal
StackLeniency: 0.7
Mode: 0
LetterboxInBreaks: 1

[Metadata]
Title:Perfect harmony
Artist:Mermaid melody pichi pichi pitch
Creator:luchia_girl
Version:Hard
Source:
Tags:

[Difficulty]
HPDrainRate:4
CircleSize:5
OverallDifficulty:4
SliderMultiplier:1.4
SliderTickRate:1

[Events]
//Background and Video events
0,0,"MMPPP - Perfect harmony[(002401)15-27-34].JPG"
//Break Periods
2,32902,33090
2,52438,52840
//Storyboard Layer 0 (Background)
//Storyboard Layer 1 (Failing)
//Storyboard Layer 2 (Passing)
//Storyboard Layer 3 (Foreground)
//Storyboard Sound Samples
//Background Colour Transformations
3,100,255,0,128

[TimingPoints]
14021,427.014175,4,1,0,69,1

[Colours]
Combo1 : 0,210,0
Combo2 : 255,128,192
Combo3 : 0,217,217

[HitObjects]
160,32,356,2,2,B|96:32|64:64|96:96|128:128,1,140
114,114,997,1,8
128,192,1210,5,2
192,224,1424,1,2
256,192,1637,1,10
320,160,1851,1,10
384,160,2064,2,2,B|448:160|416:224|416:288|352:256|320:192,1,210
323,198,2918,1,6
192,160,3345,5,8
128,160,3559,1,8
64,96,3772,1,4
32,192,4199,1,4
96,256,4626,1,4
192,256,5053,1,8
256,256,5267,1,2
352,256,5694,1,6
384,128,6761,5,8
320,96,6975,1,8
256,64,7188,2,8,B|192:64|96:160|192:128,1,140
159,134,7829,1,6
32,128,8256,5,2
32,192,8469,1,2
32,256,8683,1,2
32,320,8896,2,6,B|96:320|128:288,3,70
160,64,10604,6,8,B|64:64|96:128|128:160,1,140
160,192,11245,6,8,B|224:192|256:128|224:96,1,140
224,32,11885,1,4
288,32,12099,1,4
384,96,14020,6,0,B|288:64|288:160|352:160,1,140,2|0
256,256,14875,1,2
160,256,15195,1,2
64,256,15515,1,2
64,192,15729,1,8
64,192,15835,1,8
64,192,15942,1,8
160,128,16369,1,6
224,128,16583,1,6
288,224,17010,5,8
352,224,17223,1,8
416,224,17437,1,8
512,288,17864,1,2
384,288,18291,1,8
256,288,18718,1,6
192,256,18931,1,6
128,160,19358,1,6
224,64,20426,5,8
288,96,20639,1,8
352,96,20853,1,8
416,32,21173,1,8
480,96,21493,1,8
416,192,21920,5,2
352,192,22134,1,2
288,192,22347,1,2
224,192,22561,1,2
160,160,22774,1,2
96,160,22988,2,6,B|32:160|32:192,1,70
128,320,23842,5,8
192,320,24055,1,8
256,320,24269,1,8
320,224,24696,1,2
384,192,24909,1,2
416,96,25336,2,4,B|416:32|352:64,1,70
375,54,25763,1,4
256,192,26724,12,2,26938
96,128,27471,5,8
160,128,27685,1,8
256,160,28112,1,8
352,96,28539,1,2
448,128,28966,1,2
416,192,29180,1,2
320,256,29607,1,2
256,192,30461,12,2,30994
256,192,31315,12,2,31848
256,192,32169,12,2,32702
96,160,34410,5,2
160,128,34624,1,2
256,160,35051,1,2
352,224,35478,1,8
256,288,35905,1,8
256,288,36118,1,8
160,256,36545,1,8
32,32,37400,6,8,B|128:32,1,70
160,32,37827,1,8
256,96,38254,2,8,B|352:96,2,70
256,192,39108,5,12
192,192,39321,1,12
128,192,39535,1,12
384,96,40602,5,2
384,160,40816,1,2
384,224,41029,1,2
256,192,41243,12,4,43057
64,160,44018,5,8
128,128,44232,1,8
192,160,44445,1,8
224,96,44659,1,8
320,160,45086,5,2
384,160,45299,1,2
448,160,45513,1,2
512,160,45726,1,2
448,160,45940,1,2
384,160,46153,1,2
320,160,46367,1,2
320,32,46794,1,2
320,32,47007,1,2
128,160,47968,5,8
192,192,48182,1,8
192,128,48395,1,8
256,128,48609,1,8
320,160,48822,2,2,B|416:160,1,70
448,256,49463,1,14
320,256,49890,6,2,B|224:256,1,70
250,256,50317,1,2
192,256,50530,2,8,B|96:256,1,70
32,192,51171,1,12
96,96,51598,6,4,B|96:32|224:64|192:128,1,140
196,103,52238,1,4
352,224,54053,5,2
352,224,54160,1,2
288,224,54373,1,2
288,224,54480,1,2
192,192,55014,6,4,B|192:160|128:128,2,70
160,256,55654,1,0
96,224,55868,1,0
32,128,56295,1,0
128,96,56722,2,2,B|128:32|224:32|256:96|256:128|96:160,1,280
64,256,58003,1,6
160,224,58430,5,4
160,224,58643,1,2
224,224,58857,1,2
224,224,59070,1,4
288,224,59284,1,2
288,224,59498,1,2
384,160,59925,1,2
320,128,60138,1,2
224,64,60565,1,8
160,32,60779,1,8
96,192,61419,5,6
160,192,61633,1,6
224,192,61846,1,6
288,192,62060,1,6
224,192,62273,1,6
160,192,62487,1,6
96,192,62700,1,6
320,128,63554,6,4,B|320:96|352:96|384:96,2,70
416,192,64408,1,0
320,256,64835,1,2
224,224,65262,1,2
128,192,65689,1,8
64,160,65903,1,4
256,192,66116,12,2,67397
224,64,67824,5,8
224,64,67931,1,8
288,64,68145,2,8,B|352:64,1,35
384,160,68678,5,8
320,160,68892,1,8
256,160,69105,1,8
192,160,69319,1,8
128,160,69532,1,8
64,256,69959,1,4
160,288,70386,2,2,B|224:288|256:224|256:128|192:96|128:96,1,280
145,96,71454,5,2
128,32,71667,5,2
192,32,71881,1,2
256,32,72094,1,2
320,32,72308,1,2
416,128,72735,5,4
320,192,73162,5,8
224,160,73482,1,4
128,128,73909,1,8
128,128,74123,2,2,B|96:64|32:128|64:192|128:224|160:192|160:256|32:256,1,280
256,192,75831,12,4,76578
128,96,76792,5,8
128,96,77005,1,8
128,96,77219,1,8
128,96,77432,2,2,B|160:0|224:32|224:96,1,140
288,128,78286,1,2
352,128,78500,1,2
384,224,78927,5,4
320,224,79140,1,4
192,224,79567,1,2
64,224,79994,1,2
32,128,80421,1,2
64,64,80635,1,8
160,64,81062,1,2
224,64,81275,2,2,B|320:64|320:160|256:160|192:160|224:256|320:224|384:224|352:288|160:288,1,420
256,192,82770,12,4,83837
