osu file format v6

[General]
AudioFilename: Dancehall Singlez 2K9 CD 22¥10. Merital Family ft Vybz Kartel - My Money Ha Ha.mp3
AudioLeadIn: 0
PreviewTime: -1
Countdown: 1
SampleSet: Normal
StackLeniency: 0.5
Mode: 0
LetterboxInBreaks: 1

[Editor]
DistanceSpacing: 0.800000011920929
BeatDivisor: 4
GridSize: 8

[Metadata]
Title:My Money HaHa
Artist:Merital Family Ft Vybz Kartel
Creator:Devion
Version:Normal
Source:
Tags:

[Difficulty]
HPDrainRate:5
CircleSize:5
OverallDifficulty:5
SliderMultiplier:1.4
SliderTickRate:4

[Events]
//Background and Video events
//Break Periods
2,37675,41926
2,84669,88474
2,131067,135021
//Storyboard Layer 0 (Background)
//Storyboard Layer 1 (Fail)
//Storyboard Layer 2 (Pass)
//Storyboard Layer 3 (Foreground)
//Storyboard Sound Samples
//Background Colour Transformations
3,100,255,128,64

[TimingPoints]
0,594.854545454546,4,1,0,100,1,0

[Colours]
Combo1 : 255,255,255
Combo2 : 0,248,37
Combo3 : 0,255,128
Combo4 : 248,40,0
Combo5 : 255,173,0

[HitObjects]
160,184,20373,1,0
152,240,20671,1,0
160,288,20968,1,0
160,288,21266,1,0
264,200,22009,1,0
304,184,22307,1,0
328,168,22753,1,0
352,152,22901,1,0
384,136,23348,1,0
384,136,23496,1,0
352,152,24091,1,0
272,176,24537,1,0
160,224,24983,1,0
136,240,25281,1,0
96,280,25578,1,0
56,320,25876,1,0
24,192,26768,2,0,B|352:184,1,315
112,160,29742,1,0
128,224,29891,1,0
136,296,30188,1,0
136,296,30486,1,0
128,224,31378,5,0
128,192,31676,1,0
152,160,31973,1,0
176,144,32270,1,0
208,128,32568,1,0
208,128,32865,1,0
240,112,33311,1,0
240,112,33906,1,0
240,112,34352,5,0
240,152,34650,1,0
240,152,34947,1,0
248,192,35096,1,0
240,224,35691,1,0
240,224,35988,1,0
224,248,36286,1,0
224,248,36583,1,0
208,280,36880,1,0
208,280,37178,1,0
184,256,37475,1,0
256,208,43126,12,0,44911
256,208,45506,12,0,47142
64,144,47737,5,0
192,144,48331,1,0
192,256,48926,1,0
328,264,49372,1,0
248,168,49819,1,0
224,96,50116,1,0
320,40,50562,1,0
424,160,51157,1,0
400,272,51752,1,0
328,304,52049,1,0
272,304,52495,1,0
96,176,52942,1,0
344,120,53536,1,0
280,256,53983,1,0
224,320,54429,1,0
168,336,54726,1,0
80,296,55321,1,0
80,192,55916,1,0
112,160,56511,1,0
64,192,57552,2,0,B|352:168,1,280
184,240,59336,2,0,B|448:200,1,245
112,80,61716,2,0,B|168:112|208:248|192:320|136:328|96:328|72:280|96:208,1,385
128,96,63946,2,0,B|296:144|336:248|328:320|256:352|128:296|144:256|232:224|264:216|304:272|256:296|232:296,1,455
48,200,66921,1,0
112,312,67218,1,0
224,288,67515,1,0
240,192,67813,1,0
368,120,68408,1,0
344,208,68705,1,0
320,272,69003,1,0
256,264,69300,1,0
176,272,69597,1,0
80,184,69895,1,0
72,136,70192,1,0
72,136,70341,1,0
144,120,70638,1,0
192,120,70936,1,0
248,128,71233,1,0
304,144,71679,1,0
320,200,71828,1,0
304,248,72126,1,0
232,264,72423,1,0
176,256,72720,1,0
160,184,73018,1,0
200,128,73315,1,0
240,112,73613,1,0
240,112,73910,1,0
320,96,74208,1,0
352,96,74505,1,0
400,112,74802,1,0
424,144,75100,1,0
160,224,75695,1,0
64,120,80305,1,6
248,144,80900,1,6
336,208,81495,1,6
192,288,82089,1,6
8,200,82684,1,6
200,96,83279,1,6
376,192,83874,1,6
192,280,84469,1,6
256,208,89674,12,0,98299
64,152,98894,5,0
144,208,99638,1,0
176,208,99935,1,0
232,144,100084,1,0
264,112,100381,1,0
208,168,100976,5,0
176,208,101273,1,0
168,240,101571,1,0
136,256,101868,1,0
120,288,102166,1,0
120,288,102463,1,0
96,312,102761,1,0
96,312,103058,1,0
80,336,103355,1,0
80,336,104248,1,0
80,288,104545,1,0
136,288,104843,1,0
136,288,105140,1,0
152,240,105437,1,0
192,264,106032,1,0
192,224,106181,1,0
192,224,106478,1,0
280,224,106776,1,0
272,184,107073,1,0
272,184,107371,1,0
272,184,107966,1,0
304,184,108412,1,0
208,232,108858,1,0
208,232,109155,1,0
208,232,109453,1,0
208,232,109750,1,0
216,192,110048,1,0
216,192,110345,1,0
216,192,110642,1,0
272,184,110791,1,0
272,184,111089,1,0
312,176,111535,1,0
312,176,111832,1,0
352,160,111981,1,0
352,160,112427,1,0
352,160,112724,1,0
352,160,113171,1,0
312,176,113617,1,0
256,176,114063,1,0
208,184,114509,1,0
176,192,114955,1,0
176,192,115253,1,0
136,208,115550,1,0
128,176,115847,1,0
192,144,116442,1,0
248,136,116888,1,0
288,128,117335,1,0
344,120,117632,1,0
368,144,118227,1,0
304,184,118822,1,0
224,192,119119,1,0
256,208,120011,12,0,120458
256,208,121052,12,0,121647
64,200,124622,6,0,B|240:176,1,175
88,272,125811,2,0,B|208:240,1,105
24,200,127001,2,0,B|160:192,1,105
24,280,128042,2,0,B|152:248,1,105
128,144,129232,2,0,B|176:168|176:240|176:256,1,105
208,224,130421,2,0,B|232:192,3,35
80,272,136221,6,0,B|120:256|128:216|136:200,2,70
208,296,137411,2,0,B|240:272|240:232|232:216,2,70
272,192,138601,2,0,B|328:208|336:256|312:296,1,105
