osu file format v9

[General]
AudioFilename: onigokko_op_.mp3
AudioLeadIn: 0
PreviewTime: 84200
Countdown: 1
SampleSet: Normal
StackLeniency: 0.7
Mode: 0
LetterboxInBreaks: 1

[Editor]
Bookmarks: 60322,63712
DistanceSpacing: 1.6
BeatDivisor: 4
GridSize: 8

[Metadata]
Title:Flowers Abundantly Fantasim
Artist:Merie
Creator:SnowWhite
Version:Insane
Source:
Tags:onigokko

[Difficulty]
HPDrainRate:7
CircleSize:5
OverallDifficulty:6
ApproachRate:8
SliderMultiplier:1.8
SliderTickRate:1

[Events]
//Background and Video events
0,0,"aka_e11_02.jpg"
//Break Periods
//Storyboard Layer 0 (Background)
//Storyboard Layer 1 (Fail)
//Storyboard Layer 2 (Pass)
//Storyboard Layer 3 (Foreground)
//Storyboard Sound Samples
//Background Colour Transformations
3,100,163,162,255

[TimingPoints]
19136,338.983050847458,4,1,0,20,1,0
20344,-100,4,1,0,40,0,0
23141,-100,4,1,0,60,0,0
24285,-100,4,1,0,80,0,0
24729,338.983050847458,4,1,0,80,1,0
84200,-100,4,1,0,80,0,1

[Colours]
Combo1 : 28,217,238
Combo2 : 194,179,67
Combo3 : 255,128,128
Combo4 : 10,88,218
Combo5 : 240,80,80

[HitObjects]
48,64,19135,1,0
120,40,19305,1,0
168,96,19474,1,0
120,152,19644,2,0,B|96:256|176:336,1,180
232,296,20152,2,0,B|320:304,1,90
360,288,20407,5,0
392,280,20491,2,0,B|480:264,1,90
448,256,20746,2,0,B|344:232,1,90
344,208,21000,1,0
368,136,21169,5,0
376,128,21254,1,0
384,120,21339,2,0,B|264:120,1,90
232,88,21678,1,0
168,120,21847,1,0
104,96,22017,1,0
48,144,22186,2,0,B|0:144,1,45
0,136,22356,5,0
96,216,22525,2,0,B|152:216,1,45
152,208,22695,5,0
192,272,22864,1,0
152,336,23034,1,0
224,360,23203,2,0,B|272:360|296:312,1,90
368,336,23542,2,0,B|376:280|336:240,1,90
280,232,23881,1,0
280,232,24390,1,0
184,120,24729,6,0,B|80:120,1,90,2|0
16,80,25067,1,8
8,168,25237,2,0,B|-16:264|64:328,1,180
128,264,25745,1,2
200,312,25915,1,0
288,296,26084,6,0,B|272:192,1,90,8|0
416,240,26423,2,0,B|432:352,1,90,2|0
304,248,26762,2,0,B|288:144,1,90,8|0
392,264,27101,2,0,B|408:368,2,90,2|0|8
408,224,27525,5,0
416,176,27610,1,0
400,136,27695,1,0
368,104,27779,1,0
280,88,27949,2,0,B|256:128|256:128|288:176,1,90
184,272,28288,2,0,B|208:232|208:232|176:184,1,90,2|0
104,152,28627,1,0
56,224,28796,5,8
184,160,28966,1,0
192,304,29135,1,8
232,328,29220,1,0
280,336,29305,1,0
320,320,29390,1,0
344,288,29474,2,0,B|384:208,1,90,2|0
304,64,29813,5,8
296,72,29898,1,0
288,80,29983,1,0
280,88,30067,1,0
272,96,30152,2,0,B|192:184,1,90
128,128,30491,1,8
72,200,30661,2,0,B|128:272|128:272|240:256,1,180,2|0
208,168,31169,2,0,B|240:136|240:136|320:144,1,90,8|0
360,184,31508,5,0
328,264,31678,1,0
328,176,31847,5,8
376,56,32017,1,0
296,176,32186,5,0
312,336,32356,1,0
224,304,32525,2,0,B|136:320,1,90,8|0
112,280,33203,5,8
96,240,33542,5,0
80,200,33881,5,8
64,160,34220,6,0,B|104:144|104:144|160:160,1,90,2|0
184,240,34559,1,8
200,248,34644,1,0
216,248,34728,1,0
232,248,34813,1,0
248,240,34898,2,0,B|272:200|272:200|248:152,2,90,0|0|8
232,248,35322,2,0,B|216:288|216:288|240:336,1,90
280,344,35576,6,0,B|368:368|368:368|472:352,1,180,0|8
440,264,36084,1,0
384,200,36254,2,0,B|288:216,1,90
240,144,36593,1,8
280,64,36762,1,0
192,72,36932,5,2
104,160,37101,1,0
144,280,37271,1,8
144,280,37610,1,0
208,344,37779,1,2
224,344,37864,1,8
240,344,37949,1,0
320,296,38118,1,0
320,296,38288,6,0,B|360:280|360:280|408:304,2,90,0|0|8
256,232,38796,1,0
176,192,38966,2,0,B|136:216|136:216|80:192,2,90,0|0|8
168,144,39390,6,0,B|200:48,1,90
240,48,39644,1,0
360,104,39898,1,2
360,104,39983,1,8
304,176,40152,1,0
360,248,40322,2,0,B|392:336,1,90
304,336,40661,5,8
264,320,40745,1,0
224,304,40830,1,0
184,328,40915,1,0
144,352,41000,2,0,B|96:344|96:344|64:280,1,90
136,264,41508,6,0,B|184:256|184:256|208:200,1,90
104,168,42186,1,2
152,88,42356,1,0
232,128,42525,2,0,B|328:128,1,90,0|8
322,128,43034,1,0
456,8,43373,5,8
504,88,43542,1,0
440,144,43712,2,0,B|376:208|416:312,1,180,0|8
328,336,44220,1,0
248,304,44390,2,0,B|160:288,1,90,2|0
80,320,44728,1,8
40,240,44898,1,0
40,240,44983,1,0
40,240,45067,6,0,B|32:152,1,90,4|0
112,104,45915,5,0
112,104,46000,1,0
112,104,46084,2,0,B|120:200,1,90,8|0
208,216,46423,2,0,B|288:160|256:48,2,180,2|8|0
152,144,47271,1,0
192,64,47440,2,0,B|288:64,1,90,8|0
352,120,47779,6,0,B|352:224|424:296,2,180,2|8|0
432,80,48627,1,2
464,168,48796,1,8
392,224,48966,2,0,B|304:224,1,90
264,304,49305,5,2
176,280,49474,2,0,B|152:320|152:320|184:360,1,90,8|0
264,304,49813,1,0
264,160,49983,5,2
352,136,50152,2,0,B|376:176|376:176|344:216,1,90,8|0
264,160,50491,2,0,B|200:104|200:104|96:120,1,180,0|8
48,184,51000,1,2
56,192,51084,1,0
64,200,51169,1,0
40,288,51339,1,0
72,368,51508,1,8
160,344,51678,1,0
200,264,51847,6,0,B|296:296,1,90,2|0
376,296,52186,1,8
432,224,52356,1,0
360,168,52525,6,0,B|256:168,1,90
208,104,52864,1,8
248,24,53034,1,0
320,80,53203,6,0,B|360:160|304:280,1,180,0|8
232,288,53712,1,0
144,256,53881,1,2
104,232,53966,1,0
72,200,54051,1,0
80,152,54135,1,0
96,112,54220,1,8
184,88,54390,1,0
200,176,54559,2,0,B|112:200|80:312,1,180,0|8
160,344,55067,5,2
160,344,55152,1,0
160,344,55237,2,0,B|248:336,1,90
320,280,55576,1,8
408,312,55745,5,0
392,224,55915,1,0
448,152,56084,1,0
368,112,56254,2,0,B|280:96,1,90,8|0
216,32,56593,2,0,B|272:128|216:224,1,180,0|8
136,184,57101,1,2
56,232,57271,2,0,B|0:232,2,45
176,304,57610,6,0,B|232:304,2,45,8|0|0
288,184,57949,6,0,B|224:184,2,45
344,256,58288,1,8
424,288,58457,2,0,B|496:216|456:112,1,180,2|0
384,72,58966,2,0,B|384:176,1,90,8|0
248,112,59305,2,0,B|248:16,2,90,0|0|8
232,120,59728,1,0
216,128,59813,1,0
136,88,59983,5,2
88,224,60152,1,0
168,344,60322,2,0,B|256:328,1,90,8|0
288,240,60661,1,0
304,248,60745,1,0
320,256,60830,1,0
336,264,60915,1,0
352,272,61000,2,0,B|448:320,1,90,8|0
464,208,61339,5,2
504,72,61508,1,0
360,40,61678,1,8
320,176,61847,1,0
440,96,62017,5,2
304,64,62186,1,0
256,200,62356,1,8
392,248,62525,1,0
320,176,62695,6,0,B|208:168|160:280,1,180,0|8
96,304,63203,1,2
96,304,63288,1,0
96,304,63373,2,0,B|48:280|40:224,1,90
72,152,63712,1,8
184,240,63881,6,0,B|272:208|368:248,1,180,2|0
336,336,64390,1,8
472,280,64559,1,0
328,288,64728,5,0
176,240,64898,1,0
336,240,65067,5,8
504,176,65237,1,0
448,112,65406,6,0,B|424:72|424:72|448:24,2,90,2|0|8
408,128,65830,2,0,B|344:160|344:160|264:120,1,135
208,96,66254,1,0
120,64,66423,1,8
120,64,66508,1,0
120,64,66593,1,0
136,152,66762,6,0,B|208:224|320:192,1,180,2|8
352,120,67271,1,0
424,176,67440,1,0
440,168,67525,1,0
456,160,67610,1,0
392,272,67779,5,8
376,264,67864,1,0
360,256,67949,1,0
432,200,68118,6,0,B|456:312|360:368,1,180,2|8
248,288,68627,2,0,B|224:176|320:120,1,180,2|0
384,80,69135,1,8
312,24,69305,1,0
232,64,69474,1,0
216,72,69559,1,0
200,80,69644,1,0
184,88,69729,1,0
168,96,69813,1,8
152,104,69898,1,0
136,112,69983,6,0,B|72:184|112:288,1,180,2|0
192,312,70491,1,8
272,280,70661,1,0
360,248,70830,6,0,B|376:304|352:360,1,90
280,216,71169,2,0,B|264:168|288:112,1,90,8|0
200,88,71508,1,2
200,88,71678,2,0,B|312:48|400:136,1,180
256,160,72186,6,0,B|256:256,1,90
184,304,72525,1,8
104,264,72695,1,0
144,184,72864,2,0,B|344:224,1,180,0|8
408,208,73373,1,2
432,168,73457,1,0
424,120,73542,2,0,B|408:32,1,90
328,64,73881,1,8
240,40,74051,1,0
168,88,74220,6,0,B|80:72,1,90
24,144,74559,1,8
96,200,74729,2,0,B|216:224|304:144,1,180
360,160,75237,1,8
424,224,75406,1,0
352,272,75576,1,2
320,304,75661,1,0
304,344,75745,1,0
216,360,75915,2,0,B|168:352|168:352|128:288,1,90,8|0
200,240,76254,6,0,B|288:232|288:232|392:288,2,180,2|8|0
296,128,77101,1,0
160,80,77271,1,8
24,120,77440,2,0,B|0:32,1,90,2|0
104,144,77779,6,0,B|72:40,1,90,8|0
184,168,78118,6,0,B|152:48,1,90,2|0
240,40,78457,1,0
288,32,78542,1,0
336,40,78627,1,8
376,64,78712,1,0
400,104,78796,2,0,B|448:192|384:280,1,180,2|0
312,320,79305,5,8
264,248,79474,1,0
216,344,79644,1,0
168,224,79813,1,0
120,360,79983,1,8
56,208,80152,1,0
112,56,80322,5,2
128,56,80406,1,0
144,56,80491,2,0,B|192:64|192:64|232:112,1,90,0|8
176,176,80830,1,0
256,224,81000,1,2
272,224,81084,1,0
288,224,81169,2,0,B|336:216|336:216|360:176,1,90,0|8
416,112,81508,6,0,B|472:184|472:184|440:280,1,180
368,320,82017,2,0,B|280:336,1,90,8|0
240,232,82356,2,0,B|128:216,1,90
80,280,82695,1,8
80,280,82864,2,0,B|16:200|40:96,1,180,4|0
112,56,83373,1,8
112,56,83712,5,0
112,56,83796,1,0
112,56,83881,1,0
288,16,84220,6,0,B|368:96|304:208,1,180,2|0
232,160,84729,2,0,B|144:160,1,90,8|0
288,224,85067,2,0,B|392:224,1,90
440,288,85406,1,8
376,352,85576,6,0,B|416:264|368:152,1,180,2|0
272,72,86084,1,8
216,200,86254,1,0
96,112,86423,1,2
64,144,86508,1,0
48,184,86593,1,0
48,232,86678,1,0
64,272,86762,1,8
136,320,86932,6,0,B|344:320,1,180,0|0
288,232,87440,1,8
352,176,87610,1,0
432,224,87779,2,0,B|480:320,1,90
328,224,88118,2,0,B|264:112,1,90,8|0
328,72,88457,1,2
248,40,88627,1,0
168,80,88796,1,8
80,56,88966,2,0,B|128:144|88:248,1,180
8,264,89474,5,8
8,264,89559,1,0
8,264,89644,2,0,B|112:232|176:304,1,180
256,344,90152,1,8
304,272,90322,1,0
264,192,90491,2,0,B|344:144,1,90,2|0
400,80,90830,6,0,B|456:152,2,90,8|0|0
312,56,91339,1,0
224,48,91508,1,8
152,104,91678,1,0
80,160,91847,2,0,B|-8:128,1,90
168,64,92356,6,0,B|224:144|176:256,1,180
104,288,92864,1,8
160,360,93034,1,0
248,344,93203,1,0
312,280,93373,1,0
400,248,93542,5,8
408,232,93627,1,0
416,216,93712,1,0
424,200,93796,1,0
432,184,93881,2,0,B|320:184,1,90,2|0
264,88,94220,2,0,B|360:88,1,90,8|0
208,160,94559,1,0
120,144,94729,1,0
64,216,94898,1,8
8,288,95067,6,0,B|104:328|192:288,1,180,2|0
240,224,95576,2,0,B|280:256|280:256|272:296,1,90,8|0
320,376,95915,2,0,B|360:360|360:360|384:304,1,90
424,240,96254,1,8
368,168,96423,6,0,B|176:144,1,180,2|0
128,80,96932,1,8
64,144,97101,1,0
104,224,97271,1,0
144,248,97356,1,0
184,256,97440,1,0
224,240,97525,1,0
256,208,97610,2,0,B|304:112,1,90,8|0
376,88,97949,6,0,B|448:160|408:264,1,180,2|8
352,320,98457,1,0
264,296,98627,2,0,B|256:240|288:176,1,90
184,184,98966,1,8
120,248,99135,6,0,B|168:336,1,90,2|0
168,184,99474,6,0,B|216:272,1,90,0|8
216,120,99813,6,0,B|264:216,1,90,2|0
344,232,100152,1,0
416,184,100322,1,8
456,160,100406,1,0
480,120,100491,6,0,B|400:64|288:104,1,180
256,176,101000,1,8
176,144,101169,1,2
112,208,101339,2,0,B|80:304,1,90
160,344,101678,1,8
264,312,101847,5,0
264,312,101932,1,0
264,312,102017,1,0
352,328,102186,1,0
424,272,102356,2,0,B|472:176,1,90,8|0
400,128,102695,1,2
320,176,102864,2,0,B|128:160,1,180
64,104,103373,5,0
64,104,103542,1,0
112,24,103712,1,8
112,24,103881,1,0
184,80,104051,1,2
224,88,104135,1,0
272,96,104220,1,0
344,40,104390,2,0,B|400:120,1,90,8|0
472,152,104729,5,0
376,264,104898,1,0
376,264,104983,1,0
376,264,105067,1,8
256,184,105237,1,2
184,312,105406,1,0
96,288,105576,1,2
64,256,105661,1,0
56,216,105745,1,8
64,168,105830,1,0
96,136,105915,6,0,B|184:136,1,90
152,56,106254,1,0
152,56,106423,2,0,B|256:56,1,90,8|0
320,96,106762,5,0
320,96,106932,2,0,B|320:192,1,90,0|8
232,168,107271,2,0,B|232:280,1,90
168,320,107610,1,0
248,352,107779,1,8
336,328,107949,5,0
432,216,108118,1,0
304,144,108288,1,0
408,40,108457,1,8
408,40,108542,1,0
408,40,108627,1,4
