osu file format v13

[General]
AudioFilename: Merengue - Bokura ni Tsuite.mp3
AudioLeadIn: 0
PreviewTime: 32535
Countdown: 0
SampleSet: Soft
StackLeniency: 0.7
Mode: 1
LetterboxInBreaks: 0
WidescreenStoryboard: 0

[Editor]
DistanceSpacing: 0.8
BeatDivisor: 4
GridSize: 4
TimelineZoom: 3.499998

[Metadata]
Title:"Ano Hero to" Bokura ni Tsuite -noitamina ver.-
TitleUnicode:"あのヒーローと" 僕らについて -noitamina ver.-
Artist:Merengue
ArtistUnicode:メレング
Creator:KanaRin
Version:Taiko Muzukashii
Source:Ping Pong The Animation
Tags:ending kanpakyin no_gu ピンポン 僕らについて
BeatmapID:435887
BeatmapSetID:171191

[Difficulty]
HPDrainRate:5
CircleSize:4
OverallDifficulty:4
ApproachRate:7
SliderMultiplier:1.4
SliderTickRate:1

[Events]
//Background and Video events
0,0,"bg.jpg",0,0
//Break Periods
//Storyboard Layer 0 (Background)
//Storyboard Layer 1 (Fail)
//Storyboard Layer 2 (Pass)
//Storyboard Layer 3 (Foreground)
//Storyboard Sound Samples
//Background Colour Transformations
3,100,163,162,255

[TimingPoints]
224,448.765893792072,4,2,1,70,1,0
32535,-100,4,2,1,85,0,1
61256,-100,4,2,1,85,0,0
75616,-100,4,2,1,85,0,1
88182,-100,4,2,1,65,0,0
89079,-100,4,2,1,65,0,0

[Colours]
Combo1 : 255,255,0
Combo2 : 135,255,15
Combo3 : 253,91,116
Combo4 : 254,109,179

[HitObjects]
380,308,224,5,0,0:0:0:0:
288,268,672,1,8,0:0:0:0:
100,280,1121,1,0,0:0:0:0:
216,316,1570,1,8,0:0:0:0:
132,260,2019,1,0,0:0:0:0:
84,308,2243,1,0,0:0:0:0:
148,288,2467,1,8,0:0:0:0:
148,288,2916,1,0,0:0:0:0:
100,280,3140,1,0,0:0:0:0:
148,288,3365,1,8,0:0:0:0:
284,356,3814,1,8,0:0:0:0:
176,248,4262,1,8,0:0:0:0:
320,308,4711,1,8,0:0:0:0:
176,248,5160,1,8,0:0:0:0:
204,296,5609,1,8,0:0:0:0:
188,324,6057,1,8,0:0:0:0:
172,312,6506,1,8,0:0:0:0:
204,312,6955,1,8,0:0:0:0:
176,248,7404,1,8,0:0:0:0:
176,248,8077,1,8,0:0:0:0:
364,344,8301,1,8,0:0:0:0:
364,344,8750,1,8,0:0:0:0:
176,248,9199,1,0,0:0:0:0:
176,248,9423,1,0,0:0:0:0:
212,268,9648,1,8,0:0:0:0:
260,312,10096,1,0,0:0:0:0:
156,300,10321,1,0,0:0:0:0:
188,308,10545,1,8,0:0:0:0:
284,356,10769,5,0,0:0:0:0:
284,356,10994,1,8,0:0:0:0:
176,248,11443,1,8,0:0:0:0:
320,308,11891,1,8,0:0:0:0:
176,248,12340,1,8,0:0:0:0:
176,248,12789,1,8,0:0:0:0:
176,248,13238,1,8,0:0:0:0:
176,248,13686,1,8,0:0:0:0:
320,308,14135,1,8,0:0:0:0:
176,248,14584,1,8,0:0:0:0:
176,248,15033,1,8,0:0:0:0:
364,344,15257,1,0,0:0:0:0:
364,344,15930,1,8,0:0:0:0:
272,284,16379,1,0,0:0:0:0:
256,304,16603,1,0,0:0:0:0:
244,320,16828,1,8,0:0:0:0:
260,312,17277,1,8,0:0:0:0:
156,300,17501,1,0,0:0:0:0:
188,308,17725,1,8,0:0:0:0:
284,356,17950,5,0,0:0:0:0:
284,356,18174,1,8,0:0:0:0:
176,248,18623,1,8,0:0:0:0:
320,308,19072,1,8,0:0:0:0:
176,248,19520,1,8,0:0:0:0:
176,248,19969,1,8,0:0:0:0:
176,248,20418,1,8,0:0:0:0:
176,248,20867,1,8,0:0:0:0:
320,308,21315,1,8,0:0:0:0:
176,248,21764,1,8,0:0:0:0:
176,248,21989,1,0,0:0:0:0:
176,248,22213,1,0,0:0:0:0:
176,248,22437,1,8,0:0:0:0:
364,344,23111,1,8,0:0:0:0:
176,248,23559,1,0,0:0:0:0:
176,248,23784,1,0,0:0:0:0:
212,268,24008,1,8,0:0:0:0:
260,312,24457,1,0,0:0:0:0:
156,300,24681,1,0,0:0:0:0:
188,308,24906,1,8,0:0:0:0:
284,356,25130,5,0,0:0:0:0:
284,356,25354,1,8,0:0:0:0:
176,248,25803,1,8,0:0:0:0:
320,308,26252,1,8,0:0:0:0:
176,248,26701,1,8,0:0:0:0:
176,248,27149,1,8,0:0:0:0:
176,248,27598,1,8,0:0:0:0:
176,248,28047,1,8,0:0:0:0:
320,308,28496,1,8,0:0:0:0:
176,248,28945,1,8,0:0:0:0:
176,248,29169,1,0,0:0:0:0:
176,248,29393,1,0,0:0:0:0:
176,248,29618,1,8,0:0:0:0:
364,344,30291,1,8,0:0:0:0:
176,248,30740,1,0,0:0:0:0:
212,268,31188,1,8,0:0:0:0:
188,308,31525,1,8,0:0:0:0:
260,312,31637,1,0,0:0:0:0:
156,300,31861,1,0,0:0:0:0:
188,308,32086,1,8,0:0:0:0:
156,300,32198,1,8,0:0:0:0:
156,300,32310,1,8,0:0:0:0:
368,320,32535,1,4,0:0:0:0:
152,240,32983,1,8,0:0:0:0:
188,144,33208,1,0,0:0:0:0:
92,292,33320,1,0,0:0:0:0:
276,332,33432,1,0,0:0:0:0:
92,292,33657,1,0,0:0:0:0:
92,292,33881,1,8,0:0:0:0:
188,144,34218,1,0,0:0:0:0:
368,320,34330,1,0,0:0:0:0:
116,272,34554,1,0,0:0:0:0:
152,240,34778,1,8,0:0:0:0:
60,300,35115,1,8,0:0:0:0:
276,332,35227,1,0,0:0:0:0:
116,272,35452,1,0,0:0:0:0:
92,292,35676,1,8,0:0:0:0:
116,272,35900,1,8,0:0:0:0:
116,272,36013,1,8,0:0:0:0:
368,320,36125,1,8,0:0:0:0:
84,260,36349,1,0,0:0:0:0:
152,240,36574,1,8,0:0:0:0:
116,272,36798,1,8,0:0:0:0:
276,332,37022,1,0,0:0:0:0:
16,328,37247,1,0,0:0:0:0:
92,292,37471,1,8,0:0:0:0:
84,260,37808,1,8,0:0:0:0:
368,320,37920,1,0,0:0:0:0:
148,280,38144,1,0,0:0:0:0:
152,240,38369,1,8,0:0:0:0:
168,324,38593,1,8,0:0:0:0:
276,332,38817,1,0,0:0:0:0:
92,292,38930,1,0,0:0:0:0:
148,280,39042,1,0,0:0:0:0:
92,292,39266,1,8,0:0:0:0:
92,292,39491,1,8,0:0:0:0:
368,320,39715,1,0,0:0:0:0:
92,292,40051,1,0,0:0:0:0:
152,240,40164,1,8,0:0:0:0:
148,280,40388,1,8,0:0:0:0:
276,332,40612,1,0,0:0:0:0:
148,280,40837,1,0,0:0:0:0:
92,292,41061,1,8,0:0:0:0:
344,232,41286,1,8,0:0:0:0:
148,280,41510,1,0,0:0:0:0:
368,320,41622,1,0,0:0:0:0:
108,256,41734,1,0,0:0:0:0:
152,240,41959,1,8,0:0:0:0:
276,332,42407,1,0,0:0:0:0:
92,292,42632,1,0,0:0:0:0:
92,292,42856,1,8,0:0:0:0:
84,232,43081,1,0,0:0:0:0:
368,320,43193,1,0,0:0:0:0:
108,256,43305,1,0,0:0:0:0:
276,332,43529,1,0,0:0:0:0:
152,240,43754,1,8,0:0:0:0:
276,332,44203,1,0,0:0:0:0:
172,280,44427,1,0,0:0:0:0:
92,292,44651,1,8,0:0:0:0:
92,292,44876,1,8,0:0:0:0:
92,292,44988,1,8,0:0:0:0:
152,240,45100,1,8,0:0:0:0:
60,284,45324,1,0,0:0:0:0:
152,240,45549,1,8,0:0:0:0:
276,332,45998,1,8,0:0:0:0:
152,240,46222,1,0,0:0:0:0:
92,292,46446,1,8,0:0:0:0:
404,308,46671,1,0,0:0:0:0:
404,308,46783,1,0,0:0:0:0:
368,320,46895,1,0,0:0:0:0:
92,292,47120,1,0,0:0:0:0:
152,240,47344,1,8,0:0:0:0:
276,332,47793,1,0,0:0:0:0:
268,300,48017,1,0,0:0:0:0:
92,292,48241,1,8,0:0:0:0:
92,292,48466,1,8,0:0:0:0:
368,320,48690,1,0,0:0:0:0:
152,240,48802,1,0,0:0:0:0:
116,268,48915,1,0,0:0:0:0:
152,240,49139,1,8,0:0:0:0:
276,332,49588,1,0,0:0:0:0:
215,324,49812,1,0,0:0:0:0:
92,292,50037,1,8,0:0:0:0:
128,302,50261,1,0,0:0:0:0:
244,349,50373,1,0,0:0:0:0:
368,320,50485,1,0,0:0:0:0:
153,207,50710,1,0,0:0:0:0:
152,240,50934,1,8,0:0:0:0:
276,332,51383,1,0,0:0:0:0:
276,332,51607,1,0,0:0:0:0:
92,292,51832,1,8,0:0:0:0:
244,349,52056,1,0,0:0:0:0:
244,156,52168,1,0,0:0:0:0:
244,156,52280,1,0,0:0:0:0:
215,324,52505,1,0,0:0:0:0:
152,240,52729,1,8,0:0:0:0:
276,332,53178,1,0,0:0:0:0:
238,249,53402,1,8,0:0:0:0:
92,292,53627,1,8,0:0:0:0:
92,292,53851,1,0,0:0:0:0:
327,340,53963,1,0,0:0:0:0:
368,320,54075,1,0,0:0:0:0:
170,281,54300,1,0,0:0:0:0:
152,240,54524,1,8,0:0:0:0:
276,332,54973,1,0,0:0:0:0:
128,274,55197,1,0,0:0:0:0:
92,292,55422,1,8,0:0:0:0:
92,292,55646,1,0,0:0:0:0:
61,276,55758,1,0,0:0:0:0:
368,320,55870,1,0,0:0:0:0:
128,274,56095,1,8,0:0:0:0:
152,240,56319,1,8,0:0:0:0:
276,332,56768,1,0,0:0:0:0:
198,264,56992,1,8,0:0:0:0:
92,292,57217,1,8,0:0:0:0:
152,240,57441,1,0,0:0:0:0:
128,274,57553,1,0,0:0:0:0:
368,320,57666,1,0,0:0:0:0:
285,304,57890,1,0,0:0:0:0:
152,240,58114,1,8,0:0:0:0:
276,332,58563,1,0,0:0:0:0:
92,292,59012,1,8,0:0:0:0:
174,311,59236,1,0,0:0:0:0:
368,320,59461,1,0,0:0:0:0:
248,342,59685,1,8,0:0:0:0:
152,240,59909,1,8,0:0:0:0:
152,240,60134,1,8,0:0:0:0:
276,332,60358,1,0,0:0:0:0:
152,240,60470,1,0,0:0:0:0:
92,292,60583,1,0,0:0:0:0:
92,292,60807,1,8,0:0:0:0:
92,292,60919,1,8,0:0:0:0:
92,292,61031,1,8,0:0:0:0:
368,320,61256,1,4,0:0:0:0:
152,240,61704,1,8,0:0:0:0:
92,292,61929,1,0,0:0:0:0:
92,292,62041,1,0,0:0:0:0:
276,332,62153,1,0,0:0:0:0:
92,292,62378,1,0,0:0:0:0:
92,292,62602,1,8,0:0:0:0:
368,320,63051,1,0,0:0:0:0:
116,272,63275,1,0,0:0:0:0:
152,240,63499,1,8,0:0:0:0:
276,332,63724,1,0,0:0:0:0:
116,272,64173,1,0,0:0:0:0:
92,292,64397,1,8,0:0:0:0:
368,320,64846,1,0,0:0:0:0:
84,260,65070,1,0,0:0:0:0:
152,240,65295,1,8,0:0:0:0:
116,272,65519,1,0,0:0:0:0:
116,272,65631,1,0,0:0:0:0:
276,332,65743,1,0,0:0:0:0:
16,328,65968,1,0,0:0:0:0:
92,292,66192,1,8,0:0:0:0:
368,320,66641,1,0,0:0:0:0:
148,280,66865,1,8,0:0:0:0:
92,292,66977,1,8,0:0:0:0:
152,240,67090,1,8,0:0:0:0:
168,324,67314,1,8,0:0:0:0:
240,188,67538,1,0,0:0:0:0:
148,280,67763,1,8,0:0:0:0:
92,292,67987,1,8,0:0:0:0:
92,292,68212,1,8,0:0:0:0:
368,320,68436,1,4,0:0:0:0:
152,240,68885,1,8,0:0:0:0:
276,332,69333,1,0,0:0:0:0:
144,152,69558,1,0,0:0:0:0:
92,292,69782,1,8,0:0:0:0:
368,320,70231,1,0,0:0:0:0:
108,256,70455,1,0,0:0:0:0:
152,240,70680,1,8,0:0:0:0:
225,350,70904,1,0,0:0:0:0:
92,292,71016,1,0,0:0:0:0:
276,332,71129,1,0,0:0:0:0:
92,292,71353,1,0,0:0:0:0:
92,292,71577,1,8,0:0:0:0:
368,320,72026,1,0,0:0:0:0:
108,256,72250,1,0,0:0:0:0:
152,240,72475,1,8,0:0:0:0:
92,292,72699,1,0,0:0:0:0:
276,332,72924,1,0,0:0:0:0:
92,292,73148,1,8,0:0:0:0:
68,314,73260,1,8,0:0:0:0:
92,292,73372,1,8,0:0:0:0:
145,210,73597,1,8,0:0:0:0:
253,284,73821,1,0,0:0:0:0:
82,203,74045,1,0,0:0:0:0:
92,292,74270,1,8,0:0:0:0:
92,292,74494,1,8,0:0:0:0:
92,292,74719,1,0,0:0:0:0:
253,284,74943,1,0,0:0:0:0:
170,328,75167,1,8,0:0:0:0:
170,328,75280,1,8,0:0:0:0:
170,328,75392,1,8,0:0:0:0:
92,292,75616,1,4,0:0:0:0:
92,292,76065,1,8,0:0:0:0:
412,340,76289,1,0,0:0:0:0:
352,324,76402,1,0,0:0:0:0:
352,324,76514,1,0,0:0:0:0:
140,316,76738,1,0,0:0:0:0:
284,320,76962,1,8,0:0:0:0:
316,336,77411,1,0,0:0:0:0:
100,312,77860,1,8,0:0:0:0:
100,276,78309,1,0,0:0:0:0:
160,260,78533,1,0,0:0:0:0:
100,312,78758,1,8,0:0:0:0:
196,312,79206,1,0,0:0:0:0:
32,292,79431,1,0,0:0:0:0:
152,308,79655,1,8,0:0:0:0:
100,312,79879,1,8,0:0:0:0:
100,312,79992,1,8,0:0:0:0:
32,292,80104,1,8,0:0:0:0:
100,312,80328,1,0,0:0:0:0:
152,308,80553,1,8,0:0:0:0:
204,272,80777,1,8,0:0:0:0:
152,308,81001,1,0,0:0:0:0:
272,340,81226,1,0,0:0:0:0:
204,272,81450,1,8,0:0:0:0:
48,304,81899,1,0,0:0:0:0:
20,320,82348,1,8,0:0:0:0:
100,312,82572,1,8,0:0:0:0:
164,248,82684,1,8,0:0:0:0:
100,312,82796,1,8,0:0:0:0:
48,304,83021,1,0,0:0:0:0:
76,288,83245,1,8,0:0:0:0:
152,304,83470,1,0,0:0:0:0:
100,312,83582,1,0,0:0:0:0:
52,336,83694,1,0,0:0:0:0:
52,336,83918,1,0,0:0:0:0:
164,248,84143,1,8,0:0:0:0:
12,300,84367,1,8,0:0:0:0:
48,304,84591,1,0,0:0:0:0:
48,304,84816,1,0,0:0:0:0:
160,196,84928,1,0,0:0:0:0:
124,244,85040,1,8,0:0:0:0:
140,288,85489,1,0,0:0:0:0:
92,248,85713,1,0,0:0:0:0:
140,288,85938,1,8,0:0:0:0:
140,288,86162,1,0,0:0:0:0:
100,304,86274,1,0,0:0:0:0:
100,304,86387,1,0,0:0:0:0:
148,328,86611,1,0,0:0:0:0:
100,304,86835,1,8,0:0:0:0:
76,284,87284,1,0,0:0:0:0:
140,288,87733,1,8,0:0:0:0:
228,264,87957,1,0,0:0:0:0:
240,312,88182,5,8,0:0:0:0:
108,296,88406,1,8,0:0:0:0:
108,296,88630,1,8,0:0:0:0:
108,296,88855,1,8,0:0:0:0:
108,296,89079,1,0,0:0:0:0:
