osu file format v12

[General]
AudioFilename: Sono tobira no mukou ni.mp3
AudioLeadIn: 0
PreviewTime: -1
Countdown: 1
SampleSet: None
StackLeniency: 0.7
Mode: 0
LetterboxInBreaks: 1

[Editor]
DistanceSpacing: 0.7
BeatDivisor: 1
GridSize: 8

[Metadata]
Title:Sono tobira no mukou ni
TitleUnicode:その扉の向こうに
Artist:Meramipoppu
ArtistUnicode:めらみぽっぷ
Creator:TOKI
Version:Alice in Wonderland
Source:Touhou
Tags:RD Sounds the Grimoire of Alice
BeatmapID:251761
BeatmapSetID:93277

[Difficulty]
HPDrainRate:5
CircleSize:4
OverallDifficulty:5
ApproachRate:5
SliderMultiplier:1
SliderTickRate:1

[Events]
//Background and Video events
//Break Periods
2,57491,68091
//Storyboard Layer 0 (Background)
//Storyboard Layer 1 (Fail)
//Storyboard Layer 2 (Pass)
//Storyboard Layer 3 (Foreground)
//Storyboard Sound Samples
//Background Colour Transformations
3,100,163,162,255

[TimingPoints]
720.185554623493,428.571428571429,4,2,0,100,1,0
27720,-200,4,2,0,100,0,0
69291,-100,4,2,0,100,0,0
156720,-200,4,2,0,100,0,1
184148,-200,4,2,0,100,0,0
292148,-200,4,2,0,100,0,1
319577,-200,4,2,0,100,0,0
331577,-200,4,2,0,100,0,1
359004,-200,4,2,0,100,0,0
359005,-200,4,2,0,100,0,1
386434,-200,4,2,0,100,0,0

[HitObjects]
232,48,27720,1,0,0:0:0:0:
296,72,27934,1,0,0:0:0:0:
256,128,28148,2,0,P|176:168|176:272,1,200
112,296,30291,6,0,P|120:328|144:336,1,50
200,336,30934,1,0,0:0:0:0:
248,288,31148,1,0,0:0:0:0:
296,336,31363,2,0,P|320:344|344:328,1,50
368,280,32005,2,0,P|336:272|328:248,1,50
368,200,32648,1,0,0:0:0:0:
432,176,32863,1,0,0:0:0:0:
448,104,33077,6,0,B|400:72|384:112|360:152|312:136,1,150
328,64,34577,1,0,0:0:0:0:
256,88,34791,1,0,0:0:0:0:
184,64,35005,5,0,0:0:0:0:
56,112,35434,1,0,0:0:0:0:
104,160,35648,1,0,0:0:0:0:
168,136,35863,2,0,P|192:128|216:136,1,50
328,144,36505,2,0,P|304:152|272:144,1,50
112,320,37363,6,0,P|88:312|88:288,1,50
104,216,38005,1,0,0:0:0:0:
160,264,38220,1,0,0:0:0:0:
240,296,38434,5,0,0:0:0:0:
416,224,38863,1,0,0:0:0:0:
240,224,39291,1,0,0:0:0:0:
416,296,39720,1,0,0:0:0:0:
416,224,39934,6,0,P|408:160|296:88,1,200
256,192,41863,12,0,43577,0:0:0:0:
136,168,44005,5,0,0:0:0:0:
152,240,44434,2,0,L|120:256,2,25
208,280,45077,2,0,P|224:288|256:288,1,50
328,304,45720,1,0,0:0:0:0:
232,200,46148,1,0,0:0:0:0:
360,168,46577,2,0,L|384:152,1,25
312,64,47005,5,0,0:0:0:0:
248,104,47220,1,0,0:0:0:0:
176,104,47434,1,0,0:0:0:0:
128,168,47648,2,0,L|184:168,1,50
248,176,48291,1,0,0:0:0:0:
312,208,48505,1,0,0:0:0:0:
368,248,48720,1,0,0:0:0:0:
288,320,49148,5,0,0:0:0:0:
216,296,49363,1,0,0:0:0:0:
152,256,49577,2,0,P|136:240|120:208,1,50
64,112,50220,2,0,P|80:128|96:160,1,50
184,48,51077,2,0,B|200:72|200:72|216:48,1,50
304,104,51720,1,0,0:0:0:0:
360,48,51934,1,0,0:0:0:0:
416,104,52148,5,0,0:0:0:0:
416,104,52577,1,0,0:0:0:0:
416,104,53005,1,0,0:0:0:0:
376,184,53434,2,0,L|352:168,1,25
264,224,54077,1,0,0:0:0:0:
264,224,54505,1,0,0:0:0:0:
256,192,54720,12,0,57291,0:0:0:0:
104,304,69291,5,0,0:0:0:0:
104,208,69720,1,0,0:0:0:0:
104,112,70148,1,0,0:0:0:0:
184,160,70577,1,0,0:0:0:0:
216,72,70791,2,0,L|336:184,1,150
256,248,71863,1,0,0:0:0:0:
328,312,72291,1,0,0:0:0:0:
408,304,72720,6,0,L|408:240,1,50
408,208,73149,1,0,0:0:0:0:
408,112,73577,1,0,0:0:0:0:
328,160,74006,1,0,0:0:0:0:
296,72,74220,2,0,L|176:184,1,150
256,248,75292,1,0,0:0:0:0:
184,312,75720,1,0,0:0:0:0:
336,328,76148,5,0,0:0:0:0:
384,288,76363,1,0,0:0:0:0:
320,256,76577,2,0,L|360:216,1,50
424,224,77005,2,0,P|392:168|344:152,1,100
256,192,77648,12,0,79148,0:0:0:0:
