osu file format v12

[General]
AudioFilename: windclimbing.mp3
AudioLeadIn: 1500
PreviewTime: 48380
Countdown: 0
SampleSet: Soft
StackLeniency: 0.7
Mode: 0
LetterboxInBreaks: 1
WidescreenStoryboard: 1

[Editor]
Bookmarks: 62289,62562,62698,171653,171789
DistanceSpacing: 1
BeatDivisor: 4
GridSize: 4

[Metadata]
Title:Wind Climbing ~Kaze ni Asobarete~
TitleUnicode:Wind Climbing 〜風にあそばれて〜
Artist:Meramipop
ArtistUnicode:めらみぽっぷ
Creator:Dosirack
Version:Collab
Source:Mahoujin Guru Guru
Tags:[ Zzz ] [ Sana ] user-RiSa Ending, Collaboration, Enix, Monthly Shonen Gangan, Manga
BeatmapID:270860
BeatmapSetID:102537

[Difficulty]
HPDrainRate:6
CircleSize:4
OverallDifficulty:7
ApproachRate:8
SliderMultiplier:1.9
SliderTickRate:2

[Events]
//Background and Video events
0,0,"BG.jpg",0,0
//Break Periods
2,66311,74497
//Storyboard Layer 0 (Background)
//Storyboard Layer 1 (Fail)
//Storyboard Layer 2 (Pass)
//Storyboard Layer 3 (Foreground)
Sprite,Foreground,Centre,"SB\name\Dosirack.png",320,240 M,0,653,,107,420 S,0,653,,0.5328659 F,0,653,17971,1 F,0,17971,18107,1,0 F,0,18107,35425,0 F,0,35425,35562,0,1 F,0,35562,48516,1 F,0,48516,48653,1,0 F,0,48653,75107,0 F,0,75107,75243,0,1 F,0,75243,92153,1 F,0,92153,92289,1,0 F,0,92289,105243,0 F,0,105243,105380,0,1 F,0,105380,122698,1 F,0,122698,122834,1,0 F,0,122834,140153,0 F,0,140153,140289,0,1 F,0,140289,157334,1 F,0,157334,157471,1,0
Sprite,Foreground,Centre,"SB\name\[ Sana ].png",320,240 M,0,18107,,108,76 S,0,18107,,0.5328662 F,0,18107,35425,1 F,0,35425,35562,1,0 F,0,35562,48516,0 F,0,48516,48653,0,1 F,0,48653,65971,1 F,0,65971,66107,1,0 F,0,66107,92153,0 F,0,92153,92289,0,1 F,0,92289,105243,1 F,0,105243,105380,1,0 F,0,105380,122698,0 F,0,122698,122834,0,1 F,0,122834,140153,1 F,0,140153,140289,1,0 F,0,140289,157334,0 F,0,157334,157471,0,1 F,0,157471,175198,1
//Storyboard Sound Samples
//Background Colour Transformations
3,100,163,162,255

[TimingPoints]
657,545.454545454546,4,2,1,70,1,0
661,-100,4,2,1,50,0,0
18111,-100,4,2,1,70,0,0
26020,-100,4,2,2,70,0,0
26293,-100,4,2,1,70,0,0
35566,-100,4,2,1,70,0,0
43202,-100,4,2,1,70,0,0
43475,-100,4,2,1,70,0,0
47429,-100,4,2,1,5,0,0
48657,-83.3333333333333,4,2,1,70,0,1
50020,-83.3333333333333,4,2,1,70,0,1
53020,-83.3333333333333,4,2,2,70,0,1
53293,-83.3333333333333,4,2,1,70,0,1
62838,-83.3333333333333,4,2,1,70,0,1
63111,-83.3333333333333,4,2,1,70,0,1
65566,-200,4,2,1,70,0,1
66111,-100,4,2,1,70,0,0
66211,-100,4,2,1,70,0,0
75111,-100,4,2,1,70,0,0
82747,-100,4,2,2,70,0,0
83020,-100,4,2,1,70,0,0
92293,-100,4,2,1,70,0,0
104020,-200,4,2,1,5,0,0
105384,-100,4,2,1,70,0,1
106475,-100,4,2,1,70,0,1
106747,-100,4,2,1,70,0,1
109747,-100,4,2,1,70,0,1
110020,-100,4,2,1,70,0,1
115202,-100,4,2,1,70,0,1
115475,-100,4,2,1,70,0,1
118475,-100,4,2,1,70,0,1
118747,-100,4,2,1,70,0,1
122838,-133.333333333333,4,2,1,50,0,0
126657,-133.333333333333,4,1,1,50,0,0
127202,-100,4,2,1,70,0,0
139066,-100,4,2,1,5,0,0
140293,-83.3333333333333,4,2,1,70,0,1
141384,-83.3333333333333,4,2,1,70,0,1
141657,-83.3333333333333,4,2,1,70,0,1
142475,-83.3333333333333,4,2,1,70,0,1
142747,-83.3333333333333,4,2,1,70,0,1
144657,-83.3333333333333,4,2,1,70,0,1
144929,-83.3333333333333,4,2,1,70,0,1
154475,-83.3333333333333,4,2,1,70,0,1
157747,-83.3333333333333,4,2,1,70,0,1
158838,-83.3333333333333,4,2,2,70,0,1
158975,-83.3333333333333,4,2,1,70,0,1
171929,-83.3333333333333,4,2,1,70,0,1
172202,-83.3333333333333,4,2,1,70,0,1
175202,-83.3333333333333,4,2,1,70,0,0

[Colours]
Combo1 : 255,222,121
Combo2 : 255,132,255
Combo3 : 123,255,123
Combo4 : 128,128,255

[HitObjects]
200,56,657,6,0,P|194:101|211:146,1,95,6|0,0:0|0:0,0:0:0:0:
380,123,1202,2,0,P|343:95|295:87,1,95,2|0,0:0|0:0,0:0:0:0:
231,239,1747,2,0,P|272:221|303:183,1,95,2|0,0:0|0:0,0:0:0:0:
200,56,2293,2,0,P|144:120|152:232,1,190,2|2,0:0|0:0,0:0:0:0:
216,288,3111,5,0,0:0:0:0:
312,288,3384,2,0,P|360:280|408:296,1,95,2|0,0:0|0:0,0:0:0:0:
216,288,3929,2,0,P|208:240|221:196,1,95,2|0,0:0|0:0,0:0:0:0:
366,100,4475,2,0,P|311:175|220:195,1,190,2|2,0:0|0:0,0:0:0:0:
136,160,5293,5,0,0:0:0:0:
56,314,5566,2,0,P|47:271|63:223,1,95,2|0,0:0|0:0,0:0:0:0:
232,32,6111,2,0,P|240:74|224:122,1,95,2|0,0:0|0:0,0:0:0:0:
136,160,6657,1,2,0:0:0:0:
208,224,6929,1,0,0:0:0:0:
280,160,7202,6,0,L|384:160,1,95,2|0,0:0|0:0,0:0:0:0:
208,224,7747,2,0,L|104:224,1,95,2|0,0:0|0:0,0:0:0:0:
48,152,8293,1,2,0:0:0:0:
96,72,8566,1,0,0:0:0:0:
176,120,8838,1,2,0:0:0:0:
264,88,9111,1,0,0:0:0:0:
360,104,9384,6,0,P|416:96|448:72,2,95,6|0|2,0:0|0:0|0:0,0:0:0:0:
284,164,10202,1,0,0:0:0:0:
192,192,10475,2,0,P|152:216|128:256,1,95,2|0,0:0|0:0,0:0:0:0:
303,311,11020,2,0,P|256:310|216:288,1,95,2|0,0:0|0:0,0:0:0:0:
192,192,11566,5,2,0:0:0:0:
280,216,11838,1,0,0:0:0:0:
144,112,12111,1,2,0:0:0:0:
64,168,12384,1,0,0:0:0:0:
117,339,12657,2,0,P|104:296|112:248,1,95,2|0,0:0|0:0,0:0:0:0:
239,127,13202,2,0,P|200:208|112:248,1,190,2|2,0:0|0:0,0:0:0:0:
24,224,14020,5,0,0:0:0:0:
96,168,14293,2,0,P|144:144|160:104,1,95,2|0,0:0|0:0,0:0:0:0:
152,24,14838,1,2,0:0:0:0:
72,80,15111,1,0,0:0:0:0:
240,64,15384,1,2,0:0:0:0:
336,80,15657,1,0,0:0:0:0:
424,56,15929,6,0,P|440:104|432:152,1,95
385,315,16475,2,0,P|369:267|376:224,1,95,4|0,0:0|0:0,0:0:0:0:
316,152,17020,1,0,0:0:0:0:
228,192,17293,1,0,0:0:0:0:
146,36,17566,2,0,P|162:84|156:128,1,95
88,192,18111,5,6,0:0:0:0:
203,88,18384,1,0,0:0:0:0:
280,142,18657,2,0,P|335:150|393:129,1,95
323,53,19202,1,0,0:0:0:0:
190,187,19475,1,2,0:0:0:0:
336,312,19747,1,0,0:0:0:0:
464,179,20020,1,0,0:0:0:0:
242,269,20293,6,0,P|229:326|244:366,1,95,2|0,0:0|0:0,0:0:0:0:
423,355,20838,2,0,P|436:298|421:258,1,95
100,104,21657,5,2,0:0:0:0:
176,48,21929,1,0,0:0:0:0:
368,47,22202,5,0,0:0:0:0:
368,47,22338,1,0,0:0:0:0:
368,47,22475,2,0,P|383:96|373:144,1,95,2|0,0:0|0:0,0:0:0:0:
282,281,23020,2,0,P|267:232|277:184,1,95
376,136,23566,5,0,0:0:0:0:
451,219,23838,1,2,0:0:0:0:
282,282,24111,1,0,0:0:0:0:
206,198,24383,1,0,0:0:0:0:
300,52,24657,5,2,0:0:0:0:
376,136,24929,1,0,0:0:0:0:
282,283,25202,2,0,P|238:263|218:215,1,95,0|0,0:0|0:0,0:0:0:0:
388,168,25747,2,0,P|370:255|281:282,1,190
388,168,26838,1,2,0:0:0:0:
100,190,27384,5,0,0:0:0:0:
170,102,27657,1,0,0:0:0:0:
303,124,27929,2,0,P|290:170|254:203,1,95,0|2,0:0|0:0,0:0:0:0:
168,274,28475,1,0,0:0:0:0:
168,274,28747,6,0,L|265:295,1,95,0|2,0:0|0:0,0:0:0:0:
373,315,29293,1,0,0:0:0:0:
488,163,29566,1,0,0:0:0:0:
307,220,29838,1,0,0:0:0:0:
488,277,30111,1,0,0:0:0:0:
370,127,30384,2,0,L|315:33,1,95,2|0,0:0|0:0,0:0:0:0:
189,45,30929,5,0,0:0:0:0:
189,45,31066,1,0,0:0:0:0:
189,45,31202,2,0,L|142:127,1,95,2|0,0:0|0:0,0:0:0:0:
111,315,31747,1,0,0:0:0:0:
187,213,32020,1,0,0:0:0:0:
68,207,32293,1,0,0:0:0:0:
234,320,32566,1,2,0:0:0:0:
68,207,32838,1,0,0:0:0:0:
68,207,33384,5,2,0:0:0:0:
444,177,33657,1,0,0:0:0:0:
136,112,33929,1,0,0:0:0:0:
376,272,34202,1,0,0:0:0:0:
256,104,34475,1,0,0:0:0:0:
256,280,34748,5,2,0:0:0:0:
256,192,35020,1,0,0:0:0:0:
280,64,35566,6,0,P|304:104|356:128,1,95,2|0,0:0|0:0,0:0:0:0:
416,192,36111,2,0,P|401:284|309:340,1,190,2|2,0:0|0:0,0:0:0:0:
248,284,36929,1,0,0:0:0:0:
160,320,37202,2,0,P|104:312|68:288,2,95,2|0|2,0:0|0:0|0:0,0:0:0:0:
248,284,38020,6,0,P|296:252|316:212,1,95,0|2,0:0|0:0,0:0:0:0:
360,204,38429,2,0,P|436:212|480:272,1,142.5,0|2,0:0|0:0,0:0:0:0:
388,296,39111,1,0,0:0:0:0:
360,204,39384,1,2,0:0:0:0:
392,116,39657,1,0,0:0:0:0:
316,56,39929,6,0,P|264:44|220:56,2,95,2|0|2,0:0|0:0|0:0,0:0:0:0:
340,96,40611,2,0,P|304:152|320:228,1,142.5,0|2,0:0|0:0,0:0:0:0:
396,276,41293,1,0,0:0:0:0:
316,324,41566,2,0,P|260:332|218:306,2,95,2|0|2,0:0|0:0|0:0,0:0:0:0:
396,276,42384,6,0,P|432:240|452:192,1,95,0|2,0:0|0:0,0:0:0:0:
352,64,42929,1,0,0:0:0:0:
352,64,43066,2,0,P|380:134|357:200,1,142.5
200,180,43747,2,0,P|248:168|280:136,1,95,2|0,0:0|0:0,0:0:0:0:
244,52,44293,6,0,P|196:64|164:96,1,95,2|0,0:0|0:0,0:0:0:0:
120,180,44838,1,2,0:0:0:0:
164,268,45111,1,0,0:0:0:0:
340,296,45384,1,2,0:0:0:0:
256,248,45657,1,0,0:0:0:0:
432,276,45929,2,0,P|456:228|457:187,2,95,2|0|2,0:0|0:0|0:0,0:0:0:0:
408,104,46747,5,0,0:0:0:0:
316,120,47020,1,0,0:0:0:0:
256,192,47293,1,0,0:0:0:0:
256,192,47429,12,6,48111,0:0:0:0:
256,192,48657,5,4,0:0:0:0:
256,192,49202,1,2,0:0:0:0:
360,108,49475,1,0,0:0:0:0:
360,108,49611,2,0,P|385:192|361:274,1,170.999994781494
228,292,50293,1,2,0:0:0:0:
151,207,50566,1,0,0:0:0:0:
257,193,50838,5,2,0:0:0:0:
120,314,51111,1,0,0:0:0:0:
61,141,51384,1,2,0:0:0:0:
209,35,51657,1,0,0:0:0:0:
384,82,51929,1,2,0:0:0:0:
256,192,52475,6,0,B|216:216|176:192|144:168|88:192,2,170.999994781494,2|0|0,0:0|0:0|0:0,0:0:0:0:
337,131,53566,1,2,0:0:0:0:
466,90,53838,1,0,0:0:0:0:
512,218,54111,1,2,0:0:0:0:
382,258,54383,1,0,0:0:0:0:
251,214,54657,2,0,P|199:202|137:217,1,113.999996520996,2|0,0:0|0:0,0:0:0:0:
86,315,55202,5,2,0:0:0:0:
161,99,55475,1,0,0:0:0:0:
200,320,55747,1,2,0:0:0:0:
161,99,56020,1,0,0:0:0:0:
108,200,56293,2,0,P|176:210|229:190,1,113.999996520996,2|0,0:0|0:0,0:0:0:0:
319,147,56838,2,0,P|387:137|440:157,1,113.999996520996,2|0,0:0|0:0,0:0:0:0:
493,272,57384,5,2,0:0:0:0:
367,326,57657,1,0,0:0:0:0:
263,236,57929,2,0,P|217:177|213:126,1,113.999996520996,2|0,0:0|0:0,0:0:0:0:
374,13,58475,2,0,P|420:72|424:123,1,113.999996520996,2|0,0:0|0:0,0:0:0:0:
426,246,59020,1,2,0:0:0:0:
320,104,59293,1,0,0:0:0:0:
160,104,59566,5,2,0:0:0:0:
320,104,59838,1,0,0:0:0:0:
88,248,60111,1,2,0:0:0:0:
426,246,60384,1,0,0:0:0:0:
240,352,60657,2,0,B|216:264|272:264|240:176,1,170.999994781494,2|0,0:0|0:0,0:0:0:0:
208,143,61202,6,0,P|163:125|91:146,1,113.999996520996,2|0,0:0|0:0,0:0:0:0:
150,226,61747,1,2,0:0:0:0:
156,20,62020,1,0,0:0:0:0:
361,24,62293,1,2,0:0:0:0:
361,229,62566,1,0,0:0:0:0:
361,229,62702,2,0,P|278:256|190:226,1,170.999994781494
147,106,63384,1,2,0:0:0:0:
278,143,63657,1,0,0:0:0:0:
106,212,63929,6,0,L|-5:253,1,113.999996520996,2|0,0:0|0:0,0:0:0:0:
406,172,64475,2,0,L|517:131,1,113.999996520996,2|0,0:0|0:0,0:0:0:0:
256,56,65020,5,2,0:0:0:0:
256,328,65293,1,0,0:0:0:0:
256,192,65566,2,0,L|256:160,2,23.75,2|0|0,0:0|0:0|0:0,0:0:0:0:
256,192,66111,5,6,0:0:0:0:
116,160,75247,5,0,0:0:0:0:
132,205,75384,2,0,P|177:233|229:228,1,95
216,232,75793,1,0,0:0:0:0:
216,232,75929,1,0,0:0:0:0:
280,305,76202,1,2,0:0:0:0:
348,241,76475,1,0,0:0:0:0:
319,63,76747,6,0,P|330:115|315:152,1,95,0|2,0:0|0:0,0:0:0:0:
212,321,77293,2,0,P|200:268|215:231,1,95
396,148,77838,2,0,P|380:236|296:280,1,190,0|2,0:0|0:0,0:0:0:0:
308,188,78657,1,0,0:0:0:0:
396,148,78929,5,0,0:0:0:0:
396,148,79066,1,0,0:0:0:0:
396,148,79202,1,2,0:0:0:0:
384,52,79475,1,0,0:0:0:0:
308,188,79747,2,0,L|252:268,1,95
100,352,80293,2,0,L|156:272,1,95,0|2,0:0|0:0,0:0:0:0:
212,200,80838,1,0,0:0:0:0:
308,188,81111,5,0,0:0:0:0:
308,188,81247,1,0,0:0:0:0:
308,188,81384,1,2,0:0:0:0:
360,268,81657,1,0,0:0:0:0:
448,236,81929,2,0,L|476:140,1,95
436,60,82475,2,0,P|340:28|264:68,1,190
252,160,83293,1,0,0:0:0:0:
168,204,83566,1,2,0:0:0:0:
272,296,83975,5,0,0:0:0:0:
272,296,84111,2,0,P|328:288|356:256,1,95
392,292,84520,2,0,P|416:227|393:159,1,142.5,0|2,0:0|0:0,0:0:0:0:
304,184,85202,1,0,0:0:0:0:
216,148,85475,1,0,0:0:0:0:
292,92,85747,5,2,0:0:0:0:
224,240,86020,1,0,0:0:0:0:
128,236,86293,2,0,P|136:288|172:320,2,95
56,140,87111,5,2,0:0:0:0:
236,168,87384,1,0,0:0:0:0:
160,76,87657,5,0,0:0:0:0:
160,76,87793,1,0,0:0:0:0:
160,76,87929,1,2,0:0:0:0:
344,80,88202,1,0,0:0:0:0:
128,164,88475,1,0,0:0:0:0:
252,52,88747,1,0,0:0:0:0:
128,164,89020,2,0,P|152:212|196:244,1,95,0|2,0:0|0:0,0:0:0:0:
352,172,89566,2,0,P|328:124|284:92,1,95
162,212,90111,5,2,0:0:0:0:
267,271,90384,1,0,0:0:0:0:
352,172,90657,2,0,P|376:124|372:72,2,95
162,212,91475,2,0,P|138:260|142:312,2,95,2|0|0,0:0|0:0|0:0,0:0:0:0:
256,224,92293,5,6,0:0:0:0:
256,224,92838,6,0,P|264:168|248:128,1,95,2|0,0:0|0:0,0:0:0:0:
160,186,93384,1,2,0:0:0:0:
363,183,93657,1,0,0:0:0:0:
160,280,93929,1,2,0:0:0:0:
352,88,94202,1,0,0:0:0:0:
256,320,94475,5,2,0:0:0:0:
256,320,95020,6,0,L|256:224,1,95,2|0,0:0|0:0,0:0:0:0:
257,53,95566,1,2,0:0:0:0:
95,108,95838,1,0,0:0:0:0:
256,163,96111,1,2,0:0:0:0:
417,106,96384,1,0,0:0:0:0:
257,53,96657,5,2,0:0:0:0:
257,53,97202,6,0,P|254:105|279:147,1,95,2|0,0:0|0:0,0:0:0:0:
360,215,97747,2,0,L|395:317,1,95,2|0,0:0|0:0,0:0:0:0:
121,304,98293,2,0,L|152:215,1,95,2|0,0:0|0:0,0:0:0:0:
256,56,98838,6,0,L|256:256,1,190,2|2,0:0|0:0,0:0:0:0:
256,336,99929,5,2,0:0:0:0:
144,256,100202,1,0,0:0:0:0:
384,200,100475,1,2,0:0:0:0:
96,112,100747,1,0,0:0:0:0:
416,40,101020,5,2,0:0:0:0:
328,48,101566,1,2,0:0:0:0:
280,120,102111,1,2,0:0:0:0:
192,128,102657,1,2,0:0:0:0:
120,184,103202,5,2,0:0:0:0:
392,184,103475,1,0,0:0:0:0:
256,328,103747,1,0,0:0:0:0:
256,328,104020,2,0,B|240:256|280:256|256:176,1,142.5
192,96,105384,5,6,0:0:0:0:
192,96,105929,6,0,P|168:148|128:176,1,95,2|0,0:0|0:0,0:0:0:0:
139,170,106338,2,0,P|148:248|204:300,1,142.5
271,244,107020,1,2,0:0:0:0:
356,284,107293,1,0,0:0:0:0:
436,236,107566,6,0,P|432:184|408:148,1,95,2|0,0:0|0:0,0:0:0:0:
244,156,108111,2,0,P|248:208|272:244,1,95,2|0,0:0|0:0,0:0:0:0:
420,124,108657,2,0,L|338:172,1,95,2|0,0:0|0:0,0:0:0:0:
163,205,109202,6,0,L|244:156,1,95,2|0,0:0|0:0,0:0:0:0:
292,156,109611,2,0,P|300:232|348:284,1,142.5
414,103,110293,2,0,L|380:192,1,95
258,245,110838,2,0,L|292:156,1,95
240,80,111384,1,2,0:0:0:0:
144,76,111657,1,0,0:0:0:0:
68,132,111929,6,0,P|48:172|46:222,2,95,2|0|2,0:0|0:0|0:0,0:0:0:0:
116,288,112747,1,0,0:0:0:0:
152,200,113020,2,0,P|248:200|320:132,1,190,2|2,0:0|0:0,0:0:0:0:
360,124,113702,2,0,L|408:112,2,47.5
316,140,114111,5,6,0:0:0:0:
216,264,114384,1,0,0:0:0:0:
304,288,114657,1,2,0:0:0:0:
156,192,114929,1,0,0:0:0:0:
156,192,115066,2,0,P|120:259|144:326,1,142.5
304,288,115747,2,0,P|256:264|208:268,1,95,2|0,0:0|0:0,0:0:0:0:
368,92,116293,5,2,0:0:0:0:
292,228,116566,1,0,0:0:0:0:
432,160,116838,1,2,0:0:0:0:
280,132,117111,1,0,0:0:0:0:
388,245,117384,1,0,0:0:0:0:
110,61,117929,6,0,P|153:81|201:81,1,95,2|0,0:0|0:0,0:0:0:0:
200,80,118338,2,0,P|232:140|220:212,1,142.5
280,132,119020,2,0,L|376:132,1,95,2|0,0:0|0:0,0:0:0:0:
375,132,119429,1,0,0:0:0:0:
452,252,119838,2,0,P|440:300|408:340,2,95,0|2|0,0:0|0:0|0:0,0:0:0:0:
417,66,120657,5,2,0:0:0:0:
284,131,120929,1,0,0:0:0:0:
432,160,121202,1,2,0:0:0:0:
324,52,121475,1,0,0:0:0:0:
352,199,121747,1,2,0:0:0:0:
256,192,121884,12,6,122838,0:0:0:0:
256,192,123657,5,2,0:0:0:0:
256,192,123929,1,2,0:0:0:0:
184,320,124747,2,0,P|256:344|328:312,2,142.500005435944,2|2|2,0:0|0:0|0:0,0:0:0:0:
105,254,126111,2,0,B|129:190|129:190|105:110,1,142.500005435944,2|8,0:0|0:0,0:0:0:0:
404,118,127201,5,6,0:0:0:0:
342,186,127747,2,0,P|297:200|241:177,1,95
187,98,128293,1,0,0:0:0:0:
213,267,128566,1,2,0:0:0:0:
291,104,128838,1,0,0:0:0:0:
145,193,129111,1,0,0:0:0:0:
307,219,129384,6,0,P|384:172|392:64,1,190,2|0,0:0|0:0,0:0:0:0:
124,73,130202,2,0,P|78:83|40:122,1,95
144,192,130747,1,2,0:0:0:0:
124,310,131020,2,0,P|78:301|40:262,1,95
144,192,131566,6,0,P|256:176|344:192,1,190,2|0,0:0|0:0,0:0:0:0:
421,118,132384,2,0,L|438:10,2,95,0|0|2,0:0|0:0|0:0,0:0:0:0:
379,224,133202,2,0,P|360:267|364:313,1,95
470,354,133747,6,0,P|385:325|284:354,1,190,2|0,0:0|0:0,0:0:0:0:
79,265,134838,1,0,0:0:0:0:
224,174,135111,1,2,0:0:0:0:
76,87,135384,1,0,0:0:0:0:
79,265,135657,1,0,0:0:0:0:
224,174,135929,6,0,P|239:124|231:68,1,95,2|0,0:0|0:0,0:0:0:0:
343,43,136475,2,0,P|378:80|431:102,1,95
408,212,137020,2,0,P|357:224|312:258,1,95,0|2,0:0|0:0,0:0:0:0:
257,342,137566,1,0,0:0:0:0:
257,342,138111,5,2,0:0:0:0:
163,157,138384,1,0,0:0:0:0:
281,215,138657,1,0,0:0:0:0:
345,45,138930,1,0,0:0:0:0:
256,192,139066,12,0,139747,0:0:0:0:
256,316,140293,6,0,P|360:272|376:152,1,227.999993041992,2|2,0:0|0:0,0:0:0:0:
276,208,141111,1,0,0:0:0:0:
276,208,141247,2,0,P|200:188|151:112,1,170.999994781494,0|0,0:0|0:0,2:0:0:0:
260,108,141929,2,0,P|312:84|332:24,1,113.999996520996,2|0,0:0|0:0,0:0:0:0:
333,33,142338,2,0,P|417:45|469:117,1,170.999994781494
484,220,143020,1,2,0:0:0:0:
308,276,143293,1,0,0:0:0:0:
416,312,143566,1,2,0:0:0:0:
202,323,144111,5,2,0:0:0:0:
88,224,144384,1,0,0:0:0:0:
88,224,144520,2,0,P|124:300|216:320,1,170.999994781494
308,276,145202,2,0,P|279:224|223:200,1,113.999996520996,2|0,0:0|0:0,0:0:0:0:
101,341,145747,2,0,P|159:342|204:312,1,113.999996520996,2|0,0:0|0:0,0:0:0:0:
154,124,146293,2,0,P|123:174|128:228,1,113.999996520996,2|0,0:0|0:0,0:0:0:0:
216,304,146838,5,2,0:0:0:0:
316,160,147111,1,0,0:0:0:0:
400,304,147384,1,2,0:0:0:0:
200,184,147657,1,0,0:0:0:0:
428,184,147929,2,0,P|440:128|416:72,1,113.999996520996,2|0,0:0|0:0,0:0:0:0:
372,48,148338,1,0,0:0:0:0:
326,80,148474,1,2,0:0:0:0:
270,84,148610,1,0,0:0:0:0:
220,57,148747,1,0,0:0:0:0:
220,57,149020,6,0,P|176:88|156:148,1,113.999996520996,2|0,0:0|0:0,0:0:0:0:
156,142,149566,2,0,P|188:192|184:256,1,113.999996520996,2|0,0:0|0:0,0:0:0:0:
228,288,149975,1,0,0:0:0:0:
392,340,150384,1,0,0:0:0:0:
456,248,150657,1,2,0:0:0:0:
404,148,150929,1,0,0:0:0:0:
336,240,151202,6,0,P|278:237|227:198,1,113.999996520996,2|0,0:0|0:0,0:0:0:0:
284,48,151747,2,0,P|341:50|392:89,1,113.999996520996,2|0,0:0|0:0,0:0:0:0:
312,144,152293,1,2,0:0:0:0:
92,92,152838,2,0,P|100:172|37:255,1,170.999994781494
3,275,153384,1,0,0:0:0:0:
0,151,153657,1,0,0:0:0:0:
151,323,153929,5,2,0:0:0:0:
376,300,154202,1,0,0:0:0:0:
376,300,154338,2,0,P|424:236|420:144,1,170.999994781494
340,68,155020,1,2,0:0:0:0:
232,92,155293,1,0,0:0:0:0:
116,100,155566,6,0,P|132:156|180:192,1,113.999996520996,2|0,0:0|0:0,0:0:0:0:
338,86,156111,2,0,P|282:72|232:92,1,113.999996520996,2|0,0:0|0:0,0:0:0:0:
239,283,156657,2,0,P|279:241|288:188,2,113.999996520996,2|0|2,0:0|0:0|0:0,0:0:0:0:
172,192,157475,1,0,0:0:0:0:
172,192,157747,6,0,B|257:167|257:167|350:193,1,170.999994781494,6|0,0:0|0:0,0:0:0:0:
390,206,158293,2,0,L|446:165,2,56.9999982604981,2|0|0,0:0|0:0|0:0,0:0:0:0:
347,244,158702,2,0,P|312:279|296:349,1,113.999996520996
238,339,159111,2,0,P|221:278|186:243,1,113.999996520996,0|2,0:0|0:0,0:0:0:0:
74,219,159657,1,0,0:0:0:0:
121,325,159929,5,2,0:0:0:0:
347,244,160202,1,0,0:0:0:0:
153,113,160475,1,2,0:0:0:0:
239,338,160747,1,0,0:0:0:0:
282,129,161020,1,2,0:0:0:0:
444,255,161293,1,0,0:0:0:0:
282,129,161566,6,0,P|231:118|168:133,1,113.999996520996,2|0,0:0|0:0,0:0:0:0:
123,325,162111,2,0,P|174:336|237:321,1,113.999996520996,2|0,0:0|0:0,0:0:0:0:
346,244,162657,1,2,0:0:0:0:
182,235,162929,1,0,0:0:0:0:
282,129,163202,2,0,B|337:100|337:100|397:98,1,113.999996520996,2|0,0:0|0:0,0:0:0:0:
387,338,163747,2,0,B|335:336|335:336|280:307,1,113.999996520996,2|0,0:0|0:0,0:0:0:0:
182,235,164293,5,2,0:0:0:0:
408,204,164566,1,0,0:0:0:0:
183,200,164838,1,2,0:0:0:0:
409,231,165111,1,0,0:0:0:0:
189,160,165384,2,0,P|159:115|151:47,1,113.999996520996,2|0,0:0|0:0,0:0:0:0:
362,56,165929,2,0,P|353:115|323:160,1,113.999996520996,2|0,0:0|0:0,0:0:0:0:
197,329,166475,6,0,B|255:339|255:339|324:328,2,113.999996520996,6|0|2,0:0|0:0|0:0,0:0:0:0:
107,225,167293,1,0,0:0:0:0:
227,160,167566,2,0,P|244:221|222:283,1,113.999996520996,2|0,0:0|0:0,0:0:0:0:
107,100,168111,1,2,0:0:0:0:
405,100,168384,1,0,0:0:0:0:
313,308,168657,5,2,0:0:0:0:
199,308,168929,1,0,0:0:0:0:
199,194,169202,1,2,0:0:0:0:
313,194,169475,1,0,0:0:0:0:
199,308,169747,2,0,P|126:278|105:244,1,113.999996520996,2|0,0:0|0:0,0:0:0:0:
78,149,170293,6,0,P|90:231|21:313,1,170.999994781494,2|0,0:0|0:0,0:0:0:0:
16,318,170838,1,2,0:0:0:0:
256,216,171111,1,0,0:0:0:0:
496,318,171384,5,2,0:0:0:0:
256,216,171657,1,0,0:0:0:0:
256,216,171793,2,0,L|256:32,1,170.999994781494
160,104,172475,1,2,0:0:0:0:
360,104,172747,1,0,0:0:0:0:
360,288,173020,5,2,0:0:0:0:
160,288,173292,1,0,0:0:0:0:
160,104,173566,1,2,0:0:0:0:
360,104,173838,1,0,0:0:0:0:
96,192,174111,5,2,0:0:0:0:
416,192,174384,1,0,0:0:0:0:
256,192,174657,1,2,0:0:0:0:
256,192,174793,1,0,0:0:0:0:
256,192,174929,1,0,0:0:0:0:
256,192,175202,5,6,0:0:0:0:
