osu file format v14

[General]
AudioFilename: sanaesan.mp3
AudioLeadIn: 0
PreviewTime: 287866
Countdown: 1
SampleSet: Soft
StackLeniency: 0.4
Mode: 0
LetterboxInBreaks: 1
WidescreenStoryboard: 1

[Editor]
Bookmarks: 13045,261616,288759,340188
DistanceSpacing: 0.8
BeatDivisor: 4
GridSize: 4
TimelineZoom: 2.799999

[Metadata]
Title:Sanae-san
TitleUnicode:サナエさん
Artist:Meramipop
ArtistUnicode:めらみぽっぷ
Creator:EvilElvis
Version:Behind you!
Source:
Tags:凋叶棕 Diao ye zong RD-Sounds 騙 -Katari- withered leaf Damnae merami
BeatmapID:1049018
BeatmapSetID:492407

[Difficulty]
HPDrainRate:6
CircleSize:4
OverallDifficulty:9
ApproachRate:9.5
SliderMultiplier:3.4
SliderTickRate:1

[Events]
//Background and Video events
0,0,"sanae.jpg",0,0
//Break Periods
//Storyboard Layer 0 (Background)
//Storyboard Layer 1 (Fail)
//Storyboard Layer 2 (Pass)
//Storyboard Layer 3 (Foreground)
//Storyboard Sound Samples

[TimingPoints]
1617,357.142857142857,4,2,1,45,1,0
10188,-200,4,2,1,45,0,0
14474,-200,4,2,1,45,0,0
14831,-133.333333333333,4,2,1,45,0,0
15188,-100,4,2,1,65,0,0
15366,-100,4,2,1,65,0,0
27331,-200,4,2,1,65,0,0
31974,-133.333333333333,4,2,1,65,0,0
32331,-100,4,2,1,65,0,0
38759,-200,4,2,1,65,0,0
43402,-133.333333333333,4,2,1,65,0,0
43759,-100,4,2,1,65,0,0
64474,-200,4,2,1,65,0,0
69116,-133.333333333333,4,2,1,65,0,0
69474,-100,4,2,1,65,0,0
75902,-200,4,2,1,65,0,0
80545,-133.333333333333,4,2,1,65,0,0
80902,-100,4,2,1,65,0,0
114474,-86.9565217391304,4,2,1,65,0,1
137331,-86.9565217391304,4,2,1,65,0,0
140188,-100,4,2,1,65,0,0
151616,-200,4,2,1,65,0,0
156259,-133.333333333333,4,2,1,65,0,0
156616,-100,4,2,1,65,0,0
163045,-200,4,2,1,65,0,0
167688,-133.333333333333,4,2,1,65,0,0
168045,-100,4,2,1,65,0,0
188759,-200,4,2,1,65,0,0
193402,-133.333333333333,4,2,1,65,0,0
193759,-100,4,2,1,65,0,0
200188,-200,4,2,1,65,0,0
204116,-133.333333333333,4,2,1,65,0,0
205188,-100,4,2,1,65,0,0
238759,-83.3333333333333,4,2,1,65,0,1
261616,-83.3333333333333,4,2,1,65,0,0
263938,-200,4,2,1,65,0,0
287331,-500,4,2,1,45,0,0
288759,-80,4,2,1,65,0,1
310188,-80,4,2,1,65,0,0
310634,-80,4,2,1,75,0,0
311616,-80,4,2,1,65,0,0
314474,-80,4,2,1,65,0,1
337331,-80,4,2,1,65,0,0
340188,600,4,2,1,65,1,0
340788,476.190476190476,4,2,1,35,1,0
341264,521.739130434783,4,2,1,45,1,0
341785,545.454545454546,4,2,1,55,1,0
342330,357.142857142857,4,2,1,65,1,0
348401,-200,4,2,1,65,0,0

[Colours]
Combo1 : 179,255,179
Combo2 : 0,145,72
Combo3 : 0,225,56
Combo4 : 34,255,145
Combo5 : 128,255,0
Combo6 : 74,255,74

[HitObjects]
28,205,1617,5,2,0:0:0:0:
28,205,1795,1,0,0:0:0:0:
96,232,1974,1,0,0:0:0:0:
172,217,2152,1,0,0:0:0:0:
232,170,2331,1,2,0:0:0:0:
309,173,2509,1,0,0:0:0:0:
361,229,2688,5,2,0:0:0:0:
352,243,2866,1,0,0:0:0:0:
468,241,3045,69,2,0:0:0:0:
455,229,3224,1,0,0:0:0:0:
403,321,3402,5,2,0:0:0:0:
420,320,3581,1,2,0:0:0:0:
400,160,3759,69,2,0:0:0:0:
367,133,3938,1,0,0:0:0:0:
297,115,4117,1,2,0:0:0:0:
220,130,4295,1,0,0:0:0:0:
14,226,4474,5,4,0:3:0:0:
14,226,4831,1,2,0:0:0:0:
74,278,5009,1,2,0:0:0:0:
134,228,5188,1,2,0:0:0:0:
76,176,5366,1,0,0:0:0:0:
81,154,5545,1,2,0:0:0:0:
129,99,5724,1,2,0:0:0:0:
117,63,5902,69,2,0:0:0:0:
117,63,6081,1,0,0:0:0:0:
194,155,6259,5,2,0:0:0:0:
194,155,6438,1,0,0:0:0:0:
261,44,6616,69,2,0:0:0:0:
345,145,6795,1,2,0:0:0:0:
442,49,6974,1,2,0:0:0:0:
456,78,7152,1,2,0:0:0:0:
204,183,7331,5,4,0:3:0:0:
204,183,7688,1,2,0:0:0:0:
187,257,7866,1,2,0:0:0:0:
350,206,8045,1,2,0:0:0:0:
277,156,8224,1,2,0:0:0:0:
256,311,8402,1,2,0:0:0:0:
331,286,8581,1,0,0:0:0:0:
209,91,8759,69,2,0:0:0:0:
120,179,8938,1,2,0:0:0:0:
412,259,9116,5,2,0:0:0:0:
353,126,9295,1,2,0:0:0:0:
161,333,9474,5,2,0:0:0:0:
307,371,9652,1,0,0:0:0:0:
263,219,9831,1,2,0:0:0:0:
241,296,10009,1,0,0:0:0:0:
381,173,10188,70,2,L|376:124,1,42.5
408,185,10456,2,2,L|402:142,1,42.5
429,197,10724,2,2,L|423:139,1,42.5
275,26,10991,1,2,0:0:0:0:
275,26,11081,1,2,0:0:0:0:
275,26,11170,1,0,0:0:0:0:
249,48,11259,1,2,0:0:0:0:
214,44,11349,1,0,0:0:0:0:
183,29,11438,1,2,0:0:0:0:
149,27,11527,1,0,0:0:0:0:
118,41,11616,69,4,0:0:0:0:
45,24,11795,1,2,0:0:0:0:
166,126,11974,5,2,0:0:0:0:
52,147,12152,1,2,0:0:0:0:
226,249,12331,69,4,0:0:0:0:
57,289,12509,1,2,0:0:0:0:
165,342,12688,1,2,0:0:0:0:
125,204,12866,1,2,0:0:0:0:
254,49,13045,5,4,0:0:0:0:
454,180,13224,69,2,0:0:0:0:
454,180,13402,1,2,0:0:0:0:
220,128,13581,5,4,0:0:0:0:
20,259,13760,69,2,0:0:0:0:
20,259,13938,1,2,0:0:0:0:
258,203,14116,5,4,0:0:0:0:
458,334,14295,69,0,0:0:0:0:
458,334,14474,2,0,L|364:345,1,85,8|2,1:2|0:3,0:0:0:0:
465,250,14831,6,0,L|319:269,1,127.500004863739,8|2,1:2|0:3,0:0:0:0:
471,164,15188,6,0,L|284:187,1,170,8|8,1:2|1:0,0:0:0:0:
220,87,15456,1,0,0:0:0:0:
220,87,15545,2,0,P|257:80|310:92,1,85,8|0,1:0|0:0,0:0:0:0:
298,274,15724,2,0,P|256:280|214:272,1,85,8|0,1:0|0:0,0:0:0:0:
5,139,15902,6,0,B|90:124|79:181|175:157,1,170,4|8,1:2|1:0,0:0:0:0:
76,251,16170,1,0,0:0:0:0:
76,251,16259,2,0,P|69:292|83:356,1,85,2|0,3:1|0:0,0:0:0:0:
261,355,16438,2,0,L|152:344,1,85,8|0,1:0|0:0,0:0:0:0:
378,324,16616,2,0,P|380:288|369:214,1,85,2|0,3:1|0:0,0:0:0:0:
230,74,16795,5,8,1:0:0:0:
230,74,16884,2,0,P|241:158|325:188,1,170,8|0,1:0|0:0,0:0:0:0:
466,95,17152,2,0,L|364:91,1,85,8|0,1:0|0:0,0:0:0:0:
170,231,17331,6,0,P|176:273|171:337,1,85,2|0,3:1|0:0,0:0:0:0:
331,270,17509,2,0,P|324:312|326:354,1,85,8|0,1:0|0:1,0:0:0:0:
170,231,17688,2,0,L|64:251,1,85,2|0,3:1|0:0,0:0:0:0:
336,172,17866,2,0,L|442:192,1,85,10|0,1:0|0:0,0:0:0:0:
224,18,18045,2,0,P|217:62|226:109,1,85,0|0,3:1|0:0,0:0:0:0:
19,89,18224,37,10,1:0:0:0:
19,89,18313,2,0,P|110:92|136:161,1,170,8|0,1:0|0:0,0:0:0:0:
86,327,18581,2,0,P|44:317|-18:327,1,85,10|0,1:0|0:0,0:0:0:0:
255,251,18759,6,0,P|297:241|359:251,1,85,2|0,3:1|0:0,0:0:0:0:
222,39,18938,2,0,P|260:117|344:127,1,170,8|2,1:0|3:1,0:0:0:0:
191,172,19206,5,0,0:1:0:0:
123,211,19295,1,8,1:0:0:0:
120,286,19384,1,0,0:0:0:0:
172,344,19474,1,2,3:1:0:0:
172,344,19563,2,0,B|263:352,1,85,0|10,0:0|1:0,0:0:0:0:
157,78,19741,2,0,P|59:115|41:189,1,170,8|0,1:0|0:0,0:0:0:0:
26,245,20009,1,10,1:0:0:0:
49,315,20099,1,0,0:0:0:0:
275,264,20188,6,0,P|281:221|269:153,1,85,2|0,3:1|0:1,0:0:0:0:
464,32,20366,1,8,1:0:0:0:
464,32,20456,2,0,P|460:74|465:116,1,85,0|2,0:1|3:1,0:0:0:0:
269,38,20634,1,0,0:0:0:0:
269,38,20724,2,0,L|138:49,1,85,10|0,1:0|0:0,0:0:0:0:
334,94,20902,37,0,3:1:0:0:
363,114,20991,1,0,0:1:0:0:
376,145,21081,1,10,1:0:0:0:
444,198,21170,5,8,1:0:0:0:
388,251,21259,1,2,1:0:0:0:
424,319,21349,1,0,1:0:0:0:
424,319,21438,2,0,P|467:324|514:316,1,85,10|0,1:0|0:0,0:0:0:0:
308,213,21616,6,0,L|223:222,1,85,4|0,3:2|0:0,0:0:0:0:
138,230,21795,2,0,L|242:220,1,85,10|0,1:0|0:1,0:0:0:0:
463,115,21974,6,0,L|379:100,1,85,2|0,3:1|0:0,0:0:0:0:
296,86,22153,2,0,L|379:100,1,85,8|0,1:0|0:0,0:0:0:0:
179,31,22331,38,0,L|95:45,1,85,2|0,3:1|0:1,0:0:0:0:
11,60,22509,2,0,L|94:45,1,85,8|8,1:0|1:0,0:0:0:0:
409,286,22688,6,0,L|326:304,1,85,2|0,3:1|0:0,0:0:0:0:
243,324,22867,2,0,L|325:304,1,85,8|0,1:0|0:0,0:0:0:0:
115,191,23045,6,0,B|60:185|60:212|-2:203,2,113.333333333333,2|2|0,3:1|0:1|0:1,0:0:0:0:
386,126,23402,2,0,B|441:120|441:147|503:138,2,113.333333333333,2|2|2,3:1|0:1|0:1,0:0:0:0:
158,20,23759,6,0,P|156:106|229:158,1,170,2|10,3:1|1:0,0:0:0:0:
290,167,24027,1,8,1:0:0:0:
349,222,24116,1,0,3:1:0:0:
344,297,24206,1,0,1:0:0:0:
280,338,24295,37,10,1:0:0:0:
246,348,24384,1,0,1:0:0:0:
207,334,24474,2,0,B|118:346|141:290|29:300,1,170,2|8,3:1|1:0,0:0:0:0:
159,236,24741,1,0,0:0:0:0:
159,236,24831,2,0,P|162:184|144:124,1,85,2|0,3:1|0:0,0:0:0:0:
215,100,25009,1,10,1:0:0:0:
211,62,25099,1,0,0:1:0:0:
230,24,25188,2,0,L|323:30,1,85,2|0,3:1|0:1,0:0:0:0:
477,89,25366,1,8,1:0:0:0:
491,131,25456,1,8,1:0:0:0:
462,165,25545,2,0,L|369:159,1,85,2|0,3:1|0:0,0:0:0:0:
254,208,25724,5,10,1:0:0:0:
244,287,25813,1,0,0:0:0:0:
323,354,25902,6,0,P|328:311|326:269,1,85,2|0,3:1|0:0,0:0:0:0:
172,151,26081,2,0,P|169:193|175:235,1,85,10|0,1:0|0:0,0:0:0:0:
309,62,26259,2,0,P|246:75|139:57,1,170,2|8,3:1|1:0,0:0:0:0:
69,62,26527,1,8,1:0:0:0:
3,148,26616,6,0,P|41:145|97:150,1,85,0|0,3:0|1:0,0:0:0:0:
98,319,26795,2,0,P|60:322|4:317,1,85,8|0,1:0|1:0,0:0:0:0:
184,229,26974,2,0,L|272:232,1,85,0|0,1:0|1:0,0:0:0:0:
450,272,27152,2,0,L|362:275,1,85,0|0,1:0|1:0,0:0:0:0:
279,55,27331,6,0,P|369:72|380:166,1,170,4|4,0:2|0:1,0:0:0:0:
216,132,27866,1,0,0:0:0:0:
216,132,28045,2,0,P|158:133|105:140,1,85,2|2,0:1|0:1,0:0:0:0:
47,173,28402,1,2,0:3:0:0:
106,222,28581,1,0,0:0:0:0:
60,283,28759,1,2,0:1:0:0:
173,353,28938,6,0,P|168:302|168:262,1,85,2|4,0:1|0:1,0:0:0:0:
242,241,29295,2,0,B|335:220|319:276|420:248,1,170,2|0,0:1|0:0,0:0:0:0:
470,200,29831,1,2,0:3:0:0:
414,142,30009,1,0,0:0:0:0:
279,36,30188,70,0,L|388:47,1,85,2|2,0:1|0:1,0:0:0:0:
201,92,30545,2,0,L|92:103,1,85,4|0,0:1|0:0,0:0:0:0:
274,168,30902,1,2,0:1:0:0:
274,168,31081,2,0,L|472:193,1,170,2|0,0:1|0:0,0:0:0:0:
177,316,31616,6,0,L|92:327,1,85,8|2,1:2|0:3,0:0:0:0:
181,227,31974,70,0,L|50:246,1,127.500004863739,8|2,0:2|0:3,0:0:0:0:
187,145,32331,6,0,L|0:173,1,170,8|2,0:2|0:3,0:0:0:0:
185,64,32688,6,0,L|111:75,1,42.5,4|0,0:3|0:0,0:0:0:0:
185,64,33045,6,0,P|223:107|332:102,1,170,4|10,3:2|1:0,0:0:0:0:
466,204,33313,1,0,0:0:0:0:
466,204,33402,2,0,P|415:196|375:200,1,85,0|0,3:0|0:1,0:0:0:0:
381,26,33581,2,0,P|423:28|465:20,1,85,10|0,1:0|0:0,0:0:0:0:
275,201,33759,6,0,B|183:188|199:238|90:214,1,170,2|8,3:1|1:0,0:0:0:0:
253,278,34027,1,8,1:0:0:0:
253,278,34116,2,0,P|256:320|252:373,1,85,0|0,3:0|0:0,0:0:0:0:
144,138,34295,2,0,P|141:96|145:43,1,85,10|0,1:0|0:0,0:0:0:0:
272,29,34474,6,0,P|372:65|372:144,1,170,2|8,3:1|1:0,0:0:0:0:
496,245,34741,1,0,0:1:0:0:
496,245,34831,2,0,L|389:237,1,85,0|0,3:0|0:0,0:0:0:0:
323,331,35009,2,0,L|238:337,1,85,10|0,1:0|0:0,0:0:0:0:
101,365,35188,2,0,P|93:315|100:273,1,85,0|0,3:1|0:0,0:0:0:0:
4,71,35366,1,10,1:0:0:0:
4,71,35456,2,0,P|23:160|111:178,1,170,8|0,1:0|0:0,0:0:0:0:
83,106,35724,2,0,L|71:9,1,85,10|0,1:0|0:0,0:0:0:0:
183,169,35902,38,0,P|164:258|76:276,1,170,2|8,3:1|1:0,0:0:0:0:
11,348,36170,1,0,0:0:0:0:
11,348,36259,2,0,P|1:307|18:238,1,85,2|0,3:1|0:1,0:0:0:0:
252,269,36438,2,0,P|257:308|249:374,1,85,8|0,1:0|0:0,0:0:0:0:
474,201,36616,6,0,B|387:209|398:164|306:169,1,170,2|8,3:1|1:0,0:0:0:0:
228,71,36884,1,8,1:0:0:0:
228,71,36974,2,0,L|317:66,1,85,0|0,3:0|0:0,0:0:0:0:
494,288,37152,2,0,L|405:283,1,85,10|0,1:0|0:0,0:0:0:0:
405,25,37331,6,0,P|491:55|492:143,1,170,2|8,3:1|1:0,0:0:0:0:
132,268,37599,1,0,0:1:0:0:
132,268,37688,2,0,P|149:189|228:168,1,170,0|10,3:1|1:0,0:0:0:0:
405,355,37956,1,0,0:1:0:0:
405,355,38045,2,0,L|301:359,1,85,0|0,3:1|0:0,0:0:0:0:
318,139,38224,5,10,1:0:0:0:
393,159,38313,1,8,1:0:0:0:
399,237,38402,1,2,0:1:0:0:
341,282,38491,1,8,1:0:0:0:
272,262,38581,1,0,1:0:0:0:
276,241,38670,1,0,1:0:0:0:
234,171,38759,6,0,L|225:78,1,85,4|0,0:2|0:0,0:0:0:0:
96,136,39116,1,4,0:1:0:0:
77,61,39295,1,0,0:0:0:0:
20,111,39474,1,2,0:1:0:0:
155,81,39652,1,2,0:1:0:0:
53,197,39831,5,2,0:3:0:0:
127,209,40009,1,0,0:0:0:0:
57,234,40188,2,0,B|148:221|130:273|232:262,1,170,2|4,0:1|0:1,0:0:0:0:
288,182,40724,2,0,P|255:257|299:370,1,170,2|2,0:1|0:1,0:0:0:0:
352,353,41259,1,2,0:3:0:0:
352,353,41616,70,0,L|436:342,1,85,2|0,0:1|0:0,0:0:0:0:
461,261,41974,2,0,L|396:186,1,85,4|0,0:1|0:0,0:0:0:0:
318,208,42331,2,0,L|289:303,1,85,2|2,0:1|0:1,0:0:0:0:
378,281,42688,1,2,0:3:0:0:
378,281,42866,1,2,0:1:0:0:
493,64,43045,6,0,L|368:78,1,85,8|2,1:2|0:3,0:0:0:0:
358,133,43402,70,0,L|220:121,1,127.500004863739,8|2,1:2|0:3,0:0:0:0:
182,62,43759,6,0,L|9:80,1,170,8|2,1:2|0:3,0:0:0:0:
253,216,44116,6,0,L|302:223,1,42.5,4|0,0:3|0:0,0:0:0:0:
253,216,44474,6,0,P|209:291|257:357,1,170,4|10,3:2|1:0,0:0:0:0:
414,298,44741,1,0,0:0:0:0:
414,298,44831,2,0,L|301:281,1,85,0|0,3:0|0:0,0:0:0:0:
60,192,45009,2,0,L|156:185,1,85,10|0,1:0|0:0,0:0:0:0:
389,52,45188,2,0,B|298:33|312:86|211:64,1,170,2|8,3:1|1:0,0:0:0:0:
352,128,45456,1,8,1:0:0:0:
352,128,45545,2,0,P|357:163|350:224,1,85,0|0,3:0|0:0,0:0:0:0:
136,114,45724,2,0,P|131:71|136:29,1,85,10|0,1:0|0:0,0:0:0:0:
244,158,45902,6,0,P|236:249|164:274,1,170,2|8,3:1|1:0,0:0:0:0:
26,210,46170,1,0,0:0:0:0:
26,210,46259,2,0,P|68:204|128:220,1,85,0|0,3:1|0:0,0:0:0:0:
105,348,46438,2,0,P|63:354|3:338,1,85,10|0,1:0|0:1,0:0:0:0:
171,168,46616,2,0,L|164:66,1,85,0|0,3:0|0:0,0:0:0:0:
328,186,46795,1,10,1:0:0:0:
328,186,46884,2,0,L|348:2,1,170,8|0,1:0|0:0,0:0:0:0:
416,110,47152,2,0,L|505:123,1,85,10|0,1:0|0:0,0:0:0:0:
318,306,47331,6,0,P|227:308|180:231,1,170,2|8,3:1|1:0,0:0:0:0:
48,323,47599,1,0,0:0:0:0:
48,323,47688,2,0,P|97:313|136:325,1,85,0|0,3:0|0:0,0:0:0:0:
69,203,47866,2,0,L|67:112,1,85,10|0,1:0|0:0,0:0:0:0:
296,41,48045,2,0,P|201:42|167:126,1,170,2|8,3:1|1:0,0:0:0:0:
353,116,48313,1,8,1:0:0:0:
353,116,48402,2,0,P|399:113|440:144,1,85,0|0,3:0|0:0,0:0:0:0:
273,179,48581,2,0,L|282:265,1,85,10|0,1:0|0:0,0:0:0:0:
110,352,48759,38,0,P|133:259|214:240,1,170,2|10,3:1|1:0,0:0:0:0:
392,352,49027,1,0,0:0:0:0:
392,352,49116,2,0,L|308:347,1,85,0|0,3:1|0:0,0:0:0:0:
407,270,49295,2,0,L|491:265,1,85,10|0,1:0|0:1,0:0:0:0:
347,199,49474,2,0,P|308:107|237:104,1,170,0|10,3:1|1:0,0:0:0:0:
105,19,49741,5,8,1:0:0:0:
38,50,49831,1,0,1:0:0:0:
42,121,49920,1,8,1:0:0:0:
108,178,50009,5,8,1:0:0:0:
125,210,50099,1,0,0:1:0:0:
113,238,50188,2,0,P|117:269|110:335,1,85,4|0,3:2|0:0,0:0:0:0:
273,179,50366,2,0,P|241:181|176:170,1,85,8|0,1:0|0:0,0:0:0:0:
326,331,50545,2,0,P|322:299|330:234,1,85,0|0,3:1|0:0,0:0:0:0:
176,374,50724,2,0,P|217:367|260:369,1,85,8|0,1:0|0:0,0:0:0:0:
490,169,50902,6,0,L|376:160,1,85,2|0,3:1|0:0,0:0:0:0:
178,52,51081,2,0,L|292:43,1,85,8|8,1:0|1:0,0:0:0:0:
35,169,51259,38,0,L|149:160,1,85,0|0,3:0|0:0,0:0:0:0:
347,52,51438,2,0,L|233:43,1,85,8|0,1:0|0:0,0:0:0:0:
290,359,51616,6,0,P|326:336|393:325,1,85,2|0,3:1|0:0,0:0:0:0:
235,203,51795,2,0,P|235:246|223:294,1,85,8|0,1:0|0:0,0:0:0:0:
374,237,51974,2,0,P|331:201|311:160,1,85,0|0,3:1|0:0,0:0:0:0:
299,373,52152,2,0,P|335:350|402:339,1,85,8|0,1:0|0:1,0:0:0:0:
62,150,52331,6,0,P|23:231|73:300,1,170,2|8,3:1|1:0,0:0:0:0:
145,166,52599,1,10,1:0:0:0:
145,166,52688,2,0,L|32:144,1,85,0|0,3:0|0:0,0:0:0:0:
60,293,52866,2,0,L|173:271,1,85,10|0,1:0|0:0,0:0:0:0:
428,94,53045,6,0,P|378:85|325:96,1,85,2|0,3:1|0:0,0:0:0:0:
341,341,53224,2,0,P|391:350|444:339,1,85,8|0,1:0|0:0,0:0:0:0:
257,213,53402,2,0,L|151:218,1,85,0|0,3:0|0:0,0:0:0:0:
326,246,53581,2,0,L|429:240,1,85,8|0,1:0|0:0,0:0:0:0:
97,67,53759,38,0,P|93:115|108:164,1,85,2|0,3:1|0:0,0:0:0:0:
297,141,53938,2,0,P|304:101|294:59,1,85,8|8,1:0|1:0,0:0:0:0:
101,150,54116,2,0,L|0:155,1,85,0|0,3:0|0:0,0:0:0:0:
297,141,54295,6,0,B|387:125|378:179|494:155,1,170,10|0,1:0|3:1,0:0:0:0:
323,226,54563,1,0,0:1:0:0:
323,226,54652,2,0,P|332:273|328:315,1,85,10|0,1:0|0:1,0:0:0:0:
138,310,54831,2,0,P|135:267|144:226,1,85,2|0,3:1|0:0,0:0:0:0:
191,111,55009,6,0,P|157:186|61:193,1,170,10|0,1:0|3:1,0:0:0:0:
0,71,55277,1,0,1:0:0:0:
0,71,55366,2,0,P|41:65|106:81,1,85,10|8,1:0|1:0,0:0:0:0:
228,22,55545,5,2,1:0:0:0:
270,89,55634,1,8,1:0:0:0:
345,110,55724,1,8,1:0:0:0:
421,84,55813,1,0,0:1:0:0:
499,80,55902,5,4,3:2:0:0:
495,118,56259,1,4,3:1:0:0:
492,151,56616,1,4,3:1:0:0:
489,184,56974,1,4,3:1:0:0:
484,217,57331,1,4,3:1:0:0:
481,250,57688,1,4,3:1:0:0:
477,283,58045,1,4,3:1:0:0:
365,196,58224,5,8,1:2:0:0:
380,273,58313,1,8,1:2:0:0:
394,350,58402,1,12,1:2:0:0:
394,350,58759,6,0,L|408:151,1,170,4|10,3:2|1:0,0:0:0:0:
400,106,59027,1,0,0:0:0:0:
333,141,59116,1,0,3:0:0:0:
263,124,59206,1,0,0:0:0:0:
193,94,59295,1,10,1:0:0:0:
128,134,59384,1,0,0:0:0:0:
128,134,59474,2,0,P|122:175|133:235,1,85,2|0,3:1|0:0,0:0:0:0:
54,328,59652,1,8,1:0:0:0:
54,328,59741,2,0,B|150:301|129:360|223:338,1,170,10|0,1:0|0:0,0:0:0:0:
284,293,60009,1,10,1:0:0:0:
253,225,60099,1,0,0:0:0:0:
333,141,60188,6,0,P|341:187|332:243,1,85,2|0,3:1|0:0,0:0:0:0:
42,199,60366,1,8,1:0:0:0:
42,199,60456,2,0,P|38:156|46:115,1,85,0|2,0:0|3:1,0:0:0:0:
199,173,60634,1,0,0:0:0:0:
199,173,60724,2,0,L|210:268,1,85,10|0,1:0|0:0,0:0:0:0:
170,82,60902,5,0,3:0:0:0:
201,89,60991,1,0,0:0:0:0:
235,78,61081,1,10,1:0:0:0:
302,22,61170,5,8,1:0:0:0:
379,15,61259,1,2,3:1:0:0:
450,55,61349,1,0,0:0:0:0:
450,55,61438,2,0,P|456:97|450:157,1,85,8|0,1:0|0:0,0:0:0:0:
270,238,61616,38,0,L|179:254,1,85,2|0,3:1|0:0,0:0:0:0:
345,224,61795,2,0,L|436:208,1,85,8|0,1:0|0:0,0:0:0:0:
115,345,61974,6,0,L|24:361,1,85,2|0,3:1|0:0,0:0:0:0:
190,331,62153,2,0,L|281:315,1,85,8|0,1:0|0:0,0:0:0:0:
400,97,62331,6,0,L|491:113,1,85,2|0,3:1|0:0,0:0:0:0:
325,83,62510,2,0,L|234:67,1,85,8|8,1:0|1:0,0:0:0:0:
85,186,62688,6,0,L|-6:202,1,85,2|0,3:1|0:0,0:0:0:0:
160,172,62867,2,0,L|251:156,1,85,8|0,1:0|0:0,0:0:0:0:
471,318,63045,38,0,P|405:299|341:308,2,113.333333333333,2|2|0,3:1|0:1|0:0,0:0:0:0:
7,292,63402,2,0,P|73:273|137:282,2,113.333333333333,2|2|2,3:1|0:1|0:1,0:0:0:0:
242,355,63759,6,0,B|223:266|279:282|253:167,1,170,2|8,3:1|1:0,0:0:0:0:
260,112,64027,1,8,1:0:0:0:
187,83,64116,1,0,1:0:0:0:
121,116,64206,1,0,0:0:0:0:
91,191,64295,37,10,1:0:0:0:
52,196,64384,1,0,1:0:0:0:
26,180,64474,2,0,P|32:232|27:270,1,85,4|0,0:2|0:0,0:0:0:0:
88,312,64831,1,4,0:1:0:0:
88,312,65009,1,0,0:0:0:0:
152,350,65188,2,0,L|256:355,1,85,0|0,0:0|0:1,0:0:0:0:
382,238,65545,2,0,P|283:244|236:235,1,127.5,2|0,0:3|0:0,0:0:0:0:
231,222,65902,5,0,0:1:0:0:
276,162,66081,1,0,0:1:0:0:
211,118,66259,1,4,0:1:0:0:
90,227,66438,1,0,0:1:0:0:
113,302,66616,1,0,0:0:0:0:
118,232,66795,1,0,0:0:0:0:
196,350,66974,2,0,P|295:344|342:353,1,127.5,2|0,0:3|0:0,0:0:0:0:
332,318,67331,69,2,0:1:0:0:
446,277,67509,1,0,0:1:0:0:
323,238,67688,1,4,0:1:0:0:
323,238,67866,1,2,0:1:0:0:
419,174,68045,5,0,0:1:0:0:
263,131,68224,1,2,0:1:0:0:
412,77,68402,1,2,0:3:0:0:
412,77,68581,1,2,0:1:0:0:
161,31,68759,70,0,L|168:136,1,85,8|2,1:2|0:3,0:0:0:0:
58,81,69116,6,0,L|50:226,1,127.500004863739,8|2,0:2|0:3,0:0:0:0:
168,195,69474,70,0,L|190:376,1,170,8|2,0:2|0:3,0:0:0:0:
347,225,69831,54,0,L|340:292,1,42.5,4|0,0:3|0:0,0:0:0:0:
347,225,70188,6,0,P|403:187|484:235,1,170,4|10,3:2|1:0,0:0:0:0:
343,354,70456,1,0,0:0:0:0:
343,354,70545,2,0,L|228:338,1,85,0|0,3:0|0:1,0:0:0:0:
80,292,70724,2,0,L|195:276,1,85,10|0,1:0|0:0,0:0:0:0:
219,64,70902,2,0,P|157:41|67:83,1,170,2|8,3:1|1:0,0:0:0:0:
286,216,71170,1,8,1:0:0:0:
286,216,71259,2,0,P|289:160|274:125,1,85,0|0,3:0|0:0,0:0:0:0:
20,159,71438,2,0,P|17:215|32:250,1,85,10|0,1:0|0:0,0:0:0:0:
193,348,71616,54,0,B|286:367|268:315|359:330,1,170,2|8,3:1|1:0,0:0:0:0:
502,224,71884,1,0,0:1:0:0:
502,224,71974,2,0,P|464:210|406:212,1,85,0|0,3:0|0:0,0:0:0:0:
492,49,72152,2,0,L|503:137,1,85,10|0,1:0|0:0,0:0:0:0:
182,218,72331,2,0,P|198:119|267:100,1,170,0|10,3:1|1:0,0:0:0:0:
306,240,72599,2,0,P|377:278|378:359,1,170,8|0,1:0|0:0,0:0:0:0:
224,328,72866,2,0,P|166:338|121:328,1,85,10|0,1:0|0:0,0:0:0:0:
310,151,73045,6,0,B|401:133|381:188|497:169,1,170,2|8,3:1|1:0,0:0:0:0:
336,75,73313,1,0,0:0:0:0:
336,75,73402,2,0,P|292:68|238:84,1,85,2|0,3:1|0:1,0:0:0:0:
260,228,73581,2,0,P|304:235|358:219,1,85,8|0,1:0|0:0,0:0:0:0:
148,93,73759,2,0,L|164:289,1,170,2|8,3:1|1:0,0:0:0:0:
54,284,74027,1,8,1:0:0:0:
54,284,74116,2,0,P|48:236|50:197,1,85,0|0,3:0|0:0,0:0:0:0:
260,228,74295,2,0,P|266:276|264:315,1,85,10|0,1:0|0:0,0:0:0:0:
445,174,74474,6,0,P|361:179|318:112,1,170,2|8,3:1|1:0,0:0:0:0:
162,51,74741,1,0,0:1:0:0:
162,51,74831,2,0,L|252:54,1,85,0|0,3:1|0:0,0:0:0:0:
94,128,75009,2,0,L|4:131,1,85,10|0,1:0|0:1,0:0:0:0:
127,220,75188,2,0,P|49:244|32:323,1,170,0|10,3:1|1:0,0:0:0:0:
308,368,75456,37,8,1:0:0:0:
341,298,75545,1,2,0:1:0:0:
285,242,75634,1,8,1:0:0:0:
207,291,75724,5,0,1:0:0:0:
190,325,75813,1,0,1:0:0:0:
208,358,75902,53,4,0:2:0:0:
482,130,76081,2,0,B|384:114|400:163|291:141,1,170,2|0,0:0|0:0,0:0:0:0:
443,209,76616,1,0,0:1:0:0:
337,63,76795,1,0,0:1:0:0:
202,222,76974,69,2,0:3:0:0:
275,200,77152,1,0,0:0:0:0:
119,174,77331,5,0,0:1:0:0:
93,162,77509,1,0,0:0:0:0:
15,243,77688,69,4,0:1:0:0:
98,329,77866,2,0,L|272:308,1,170,2|2,0:1|0:1,0:0:0:0:
337,338,78402,1,2,0:3:0:0:
390,290,78581,1,0,0:0:0:0:
354,103,78759,6,0,P|359:175|451:213,1,170,2|4,0:1|0:1,0:0:0:0:
439,215,79295,1,0,0:0:0:0:
210,164,79474,2,0,P|205:236|113:274,1,170,2|2,0:1|0:3,0:0:0:0:
124,276,80009,1,2,0:1:0:0:
26,52,80188,70,0,L|116:46,1,85,8|2,1:2|0:3,0:0:0:0:
13,136,80545,6,0,L|155:124,1,127.500004863739,8|2,1:2|0:3,0:0:0:0:
470,216,80902,70,0,L|274:232,1,170,8|2,1:2|0:3,0:0:0:0:
26,348,81259,54,0,L|69:343,1,42.5,4|0,0:3|0:0,0:0:0:0:
26,348,81616,6,0,P|97:328|126:239,1,170,4|10,3:2|1:0,0:0:0:0:
13,136,81884,1,0,0:0:0:0:
13,136,81974,2,0,P|5:189|16:224,1,85,0|0,3:0|0:0,0:0:0:0:
239,217,82152,2,0,P|248:175|239:134,1,85,10|0,1:0|0:0,0:0:0:0:
396,30,82331,2,0,L|212:46,1,170,2|8,3:1|1:0,0:0:0:0:
408,123,82599,1,8,1:0:0:0:
408,123,82688,2,0,L|511:134,1,85,0|0,3:0|0:0,0:0:0:0:
354,190,82866,2,0,P|352:240|364:286,1,85,10|0,1:0|0:0,0:0:0:0:
179,297,83045,38,0,P|281:322|299:380,1,170,2|8,3:1|1:0,0:0:0:0:
105,257,83313,1,0,0:0:0:0:
105,257,83402,2,0,P|97:207|106:155,1,85,0|0,3:1|0:0,0:0:0:0:
0,87,83581,2,0,L|101:84,1,85,10|0,1:0|0:1,0:0:0:0:
333,31,83759,2,0,B|232:20|257:65|153:48,1,170,0|10,3:0|1:0,0:0:0:0:
339,116,84027,2,0,P|417:140|431:235,1,170,8|0,1:0|0:0,0:0:0:0:
279,284,84295,2,0,P|277:335|289:370,1,85,10|0,1:0|0:0,0:0:0:0:
252,192,84474,6,0,P|170:245|183:323,1,170,2|8,3:1|1:0,0:0:0:0:
378,361,84741,1,0,0:0:0:0:
378,361,84831,2,0,P|385:324|371:275,1,85,0|0,3:0|0:0,0:0:0:0:
132,158,85009,2,0,L|23:160,1,85,10|0,1:0|0:0,0:0:0:0:
162,29,85188,2,0,P|198:102|285:109,1,170,2|8,3:1|1:0,0:0:0:0:
434,181,85456,1,8,1:0:0:0:
434,181,85545,2,0,P|428:231|437:275,1,85,0|0,3:0|0:0,0:0:0:0:
258,350,85724,2,0,P|264:300|255:256,1,85,10|0,1:0|0:0,0:0:0:0:
6,347,85902,6,0,P|12:273|100:242,1,170,2|10,3:1|1:0,0:0:0:0:
25,75,86170,1,0,0:0:0:0:
25,75,86259,2,0,L|33:183,1,85,0|0,3:1|0:0,0:0:0:0:
159,342,86438,2,0,L|165:257,1,85,10|0,1:0|0:1,0:0:0:0:
271,108,86616,2,0,P|347:134|357:214,1,170,4|10,3:2|1:0,0:0:0:0:
272,267,86884,5,8,1:0:0:0:
268,324,86974,1,0,1:0:0:0:
320,367,87063,1,8,1:0:0:0:
389,347,87152,1,8,1:0:0:0:
411,274,87241,1,0,0:1:0:0:
245,191,87331,38,0,L|139:196,1,85,4|0,3:2|0:0,0:0:0:0:
29,97,87509,2,0,L|135:102,1,85,8|0,1:0|0:0,0:0:0:0:
115,283,87688,2,0,L|9:288,1,85,0|0,3:1|0:0,0:0:0:0:
194,353,87866,2,0,L|278:357,1,85,8|0,1:0|0:0,0:0:0:0:
461,211,88045,6,0,L|365:198,1,85,2|0,3:1|0:0,0:0:0:0:
500,55,88224,2,0,L|513:155,1,85,8|8,1:0|1:0,0:0:0:0:
158,230,88402,6,0,L|254:217,1,85,0|0,3:0|0:0,0:0:0:0:
119,74,88581,2,0,L|106:174,1,85,8|0,1:0|0:0,0:0:0:0:
298,143,88759,2,0,P|273:59|182:28,1,170,2|8,3:1|1:0,0:0:0:0:
56,241,89027,5,0,0:0:0:0:
56,241,89116,2,0,P|52:284|58:326,1,85,0|0,3:1|0:0,0:0:0:0:
285,374,89295,2,0,P|289:331|283:289,1,85,8|0,1:0|0:1,0:0:0:0:
127,353,89474,38,0,L|223:340,1,85,2|0,3:1|0:0,0:0:0:0:
440,174,89652,2,0,L|344:161,1,85,8|10,1:0|1:0,0:0:0:0:
82,56,89831,2,0,L|178:43,1,85,0|0,3:0|0:0,0:0:0:0:
47,139,90009,6,0,P|107:144|142:246,1,170,10|0,1:0|3:1,0:0:0:0:
296,253,90277,1,0,0:0:0:0:
296,253,90366,2,0,B|279:298|299:344,1,85,10|0,1:0|0:0,0:0:0:0:
479,300,90545,2,0,L|370:293,1,85,2|0,3:1|0:0,0:0:0:0:
237,160,90724,2,0,P|317:226|382:213,1,170,10|0,1:0|3:1,0:0:0:0:
454,130,90991,1,0,0:0:0:0:
454,130,91081,2,0,P|448:171|470:239,1,85,10|8,1:0|1:0,0:0:0:0:
358,119,91259,2,0,P|364:78|342:10,1,85,0|0,3:0|0:0,0:0:0:0:
193,55,91438,2,0,L|288:46,1,85,10|0,1:0|0:0,0:0:0:0:
87,98,91616,6,0,P|81:57|103:-11,1,85,0|0,3:1|0:1,0:0:0:0:
158,181,91795,2,0,L|47:198,1,85,10|0,1:0|0:1,0:0:0:0:
253,238,91974,2,0,P|183:273|179:366,1,170,2|8,3:1|1:0,0:0:0:0:
358,295,92241,1,0,0:0:0:0:
358,295,92331,2,0,P|363:255|348:197,1,85,2|0,3:1|1:0,0:0:0:0:
401,35,92509,5,10,1:0:0:0:
326,28,92599,1,8,1:0:0:0:
273,79,92688,1,0,1:0:0:0:
287,151,92777,1,8,1:0:0:0:
448,222,92866,37,8,1:0:0:0:
451,204,92956,1,0,0:1:0:0:
446,183,93045,69,4,3:2:0:0:
403,122,93402,1,4,3:1:0:0:
330,106,93759,1,4,3:1:0:0:
269,152,94116,1,4,3:1:0:0:
208,201,94474,1,4,3:1:0:0:
133,186,94831,1,4,3:1:0:0:
101,116,95188,1,4,3:1:0:0:
472,180,95366,69,8,1:2:0:0:
457,256,95456,1,8,1:2:0:0:
448,328,95545,1,12,1:2:0:0:
448,328,95902,38,0,B|358:307|372:366|254:331,1,170,4|10,3:2|1:0,0:0:0:0:
213,322,96170,1,0,0:0:0:0:
180,314,96259,1,0,3:0:0:0:
151,318,96349,1,0,0:0:0:0:
83,345,96438,1,10,1:0:0:0:
41,354,96527,1,0,0:0:0:0:
4,344,96616,1,2,3:1:0:0:
4,344,96706,2,0,P|-4:303|5:244,1,85,0|8,0:0|1:0,0:0:0:0:
41,97,96884,2,0,P|76:197|150:198,1,170,10|0,1:0|0:0,0:0:0:0:
202,229,97152,1,10,1:0:0:0:
268,193,97241,1,0,0:0:0:0:
268,193,97331,6,0,P|272:148|260:97,1,85,2|0,3:1|0:0,0:0:0:0:
466,276,97509,1,8,1:0:0:0:
466,276,97599,2,0,P|462:231|474:180,1,85,0|2,0:0|3:1,0:0:0:0:
285,338,97777,1,0,0:0:0:0:
285,338,97866,2,0,L|186:342,1,85,10|0,1:0|0:0,0:0:0:0:
361,297,98045,5,0,3:0:0:0:
370,272,98134,1,0,0:0:0:0:
360,248,98224,1,10,1:0:0:0:
164,82,98313,37,8,1:0:0:0:
122,145,98402,1,2,3:1:0:0:
158,217,98491,1,0,0:0:0:0:
158,217,98581,2,0,L|259:208,1,85,8|0,1:0|0:0,0:0:0:0:
482,84,98759,6,0,L|377:68,1,85,2|0,3:1|0:0,0:0:0:0:
470,168,98938,2,0,L|485:59,1,85,8|0,1:0|0:0,0:0:0:0:
317,254,99116,6,0,L|422:238,1,85,2|0,3:1|0:0,0:0:0:0:
329,338,99295,2,0,L|314:229,1,85,8|0,1:0|0:0,0:0:0:0:
218,63,99474,6,0,L|113:47,1,85,2|0,3:1|0:0,0:0:0:0:
206,147,99653,2,0,L|221:38,1,85,8|8,1:0|1:0,0:0:0:0:
62,269,99831,38,0,L|167:253,1,85,2|0,3:1|0:0,0:0:0:0:
74,353,100010,2,0,L|59:244,1,85,8|0,1:0|0:0,0:0:0:0:
322,182,100188,6,0,B|384:189|375:158|444:165,2,113.333333333333,2|10|8,3:1|1:1|1:0,0:0:0:0:
112,62,100545,2,0,B|50:69|59:38|-10:45,2,113.333333333333,2|10|10,3:1|1:1|1:1,0:0:0:0:
262,18,100902,6,0,P|266:123|208:151,1,170,4|10,3:2|1:0,0:0:0:0:
139,150,101170,1,8,1:0:0:0:
61,161,101259,1,0,1:0:0:0:
24,232,101349,1,0,1:0:0:0:
50,307,101438,5,10,1:0:0:0:
73,299,101527,1,0,1:0:0:0:
97,306,101616,2,0,B|190:284|167:349|276:318,1,170,4|10,3:2|1:0,0:0:0:0:
441,358,101884,1,0,0:0:0:0:
441,358,101974,2,0,P|445:304|430:244,1,85,0|0,3:0|0:0,0:0:0:0:
257,142,102152,2,0,P|251:184|256:226,1,85,10|0,1:0|0:0,0:0:0:0:
496,115,102331,2,0,P|424:58|333:64,1,170,2|8,3:1|1:0,0:0:0:0:
399,141,102599,1,0,0:0:0:0:
399,141,102688,2,0,P|405:183|400:228,1,85,0|0,3:0|0:0,0:0:0:0:
173,345,102866,2,0,P|168:302|174:260,1,85,10|0,1:0|0:0,0:0:0:0:
18,62,103045,38,0,P|100:137|93:203,1,170,4|10,3:2|1:0,0:0:0:0:
156,53,103313,1,0,0:0:0:0:
156,53,103402,2,0,L|253:43,1,85,0|0,3:0|0:0,0:0:0:0:
201,153,103581,1,10,1:0:0:0:
201,153,103670,2,0,P|273:178|278:278,1,170,8|0,1:0|0:0,0:0:0:0:
130,356,103938,1,10,1:0:0:0:
64,317,104027,1,0,0:0:0:0:
85,244,104116,2,0,L|194:256,1,85,0|0,3:1|3:0,0:0:0:0:
340,348,104295,2,0,L|231:360,1,85,10|0,1:0|0:0,0:0:0:0:
20,204,104474,6,0,P|17:164|28:120,1,85,4|0,3:2|0:0,0:0:0:0:
302,26,104652,2,0,P|312:67|309:109,1,85,10|0,1:0|0:0,0:0:0:0:
139,62,104831,2,0,L|230:72,1,85,0|0,3:0|0:0,0:0:0:0:
467,142,105009,2,0,L|376:152,1,85,10|0,1:0|0:0,0:0:0:0:
180,183,105188,2,0,P|176:223|187:267,1,85,0|0,3:0|0:0,0:0:0:0:
462,362,105366,2,0,P|472:320|469:278,1,85,10|0,1:0|0:0,0:0:0:0:
295,315,105545,2,0,L|304:198,1,85,2|0,3:1|0:0,0:0:0:0:
69,109,105724,2,0,L|79:216,1,85,8|0,1:0|0:0,0:0:0:0:
368,68,105902,6,0,L|266:57,1,85,4|0,3:2|0:0,0:0:0:0:
381,157,106081,2,0,P|457:117|448:20,1,170,10|0,1:0|3:0,0:0:0:0:
287,170,106349,1,0,0:0:0:0:
287,170,106438,2,0,P|280:215|295:267,1,85,10|0,1:0|0:0,0:0:0:0:
432,336,106616,2,0,P|440:294|433:252,1,85,2|0,3:1|0:0,0:0:0:0:
315,352,106795,1,8,1:0:0:0:
315,352,106884,2,0,B|217:329|238:393|112:349,1,170,8|0,1:0|0:0,0:0:0:0:
88,260,107152,2,0,L|-8:273,1,85,10|0,1:0|0:0,0:0:0:0:
143,107,107331,6,0,P|153:157|147:197,1,85,4|0,3:2|0:0,0:0:0:0:
54,106,107509,2,0,P|50:63|59:22,1,85,8|0,1:0|0:0,0:0:0:0:
229,37,107688,2,0,L|113:28,1,85,0|0,3:0|0:0,0:0:0:0:
271,100,107866,2,0,L|387:91,1,85,10|0,1:0|0:0,0:0:0:0:
503,176,108045,38,0,P|432:168|397:181,1,85,4|0,3:2|0:0,0:0:0:0:
413,344,108224,2,0,P|454:349|496:339,1,85,8|0,1:0|0:0,0:0:0:0:
355,259,108402,2,0,L|252:249,1,85,0|0,3:0|0:0,0:0:0:0:
168,325,108581,2,0,L|61:335,1,85,10|0,1:0|0:0,0:0:0:0:
156,42,108759,6,0,L|270:27,1,85,4|0,3:2|0:0,0:0:0:0:
115,195,108938,2,0,P|106:159|108:109,1,85,8|0,1:0|0:0,0:0:0:0:
300,99,109116,2,0,P|315:134|313:185,1,85,0|0,3:0|0:0,0:0:0:0:
219,256,109295,2,0,L|211:162,1,85,10|0,1:0|0:0,0:0:0:0:
383,248,109474,2,0,P|339:333|254:340,1,170,4|8,3:2|1:0,0:0:0:0:
94,281,109741,1,8,1:0:0:0:
94,281,109831,2,0,P|139:325|179:337,1,85,0|0,3:0|0:0,0:0:0:0:
98,197,110009,2,0,L|7:213,1,85,10|0,1:0|0:0,0:0:0:0:
149,44,110188,53,12,0:2:0:0:
149,44,110366,1,8,0:2:0:0:
149,44,110545,1,8,0:2:0:0:
149,44,110724,1,8,0:2:0:0:
149,44,110902,5,8,1:2:0:0:
410,193,111081,5,8,1:2:0:0:
89,197,111259,5,8,1:2:0:0:
317,40,111438,5,8,1:2:0:0:
484,346,111616,5,12,1:2:0:0:
28,346,111974,1,8,1:2:0:0:
484,346,112331,1,4,1:2:0:0:
28,346,112688,1,8,1:2:0:0:
453,128,113045,5,4,1:2:0:0:
453,128,113581,1,0,1:0:0:0:
414,109,113670,1,0,1:0:0:0:
370,109,113759,1,0,1:0:0:0:
334,131,113849,1,0,1:0:0:0:
229,209,113938,5,0,1:0:0:0:
186,277,114027,5,0,1:0:0:0:
221,350,114116,5,0,1:0:0:0:
299,354,114206,5,0,1:0:0:0:
347,290,114295,5,0,1:0:0:0:
312,217,114384,5,0,1:0:0:0:
198,132,114474,6,0,B|83:107|113:182|-1:153,1,195.500003728867,4|10,1:2|1:0,0:0:0:0:
283,18,114741,1,0,0:0:0:0:
283,18,114831,2,0,B|294:63|294:63|281:126,1,97.7500018644333,0|0,3:2|0:0,0:0:0:0:
98,18,115009,2,0,L|200:11,1,97.7500018644333,10|0,1:0|0:0,0:0:0:0:
203,254,115188,2,0,L|101:247,1,97.7500018644333,0|0,3:1|0:0,0:0:0:0:
34,354,115366,2,0,P|22:306|30:258,1,97.7500018644333,10|0,1:0|0:0,0:0:0:0:
284,221,115545,2,0,P|295:268|287:316,1,97.7500018644333,2|0,3:1|0:0,0:0:0:0:
62,157,115724,2,0,L|169:148,1,97.7500018644333,10|0,1:0|0:0,0:0:0:0:
383,33,115902,6,0,P|428:141|359:178,1,195.500003728867,4|8,3:2|1:0,0:0:0:0:
231,103,116170,1,8,1:0:0:0:
231,103,116259,2,0,P|221:59|229:1,1,97.7500018644333,0|0,3:0|0:0,0:0:0:0:
27,79,116438,2,0,L|137:68,1,97.7500018644333,10|0,1:0|0:0,0:0:0:0:
270,220,116616,2,0,L|160:209,1,97.7500018644333,2|0,3:1|0:0,0:0:0:0:
397,264,116795,5,8,1:0:0:0:
397,264,116884,2,0,P|290:315|296:375,1,195.500003728867,10|0,1:0|0:0,0:0:0:0:
472,346,117152,2,0,B|424:333|424:333|365:349,1,97.7500018644333,10|0,1:0|0:0,0:0:0:0:
488,260,117331,6,0,P|465:193|332:188,1,195.500003728867,4|10,3:2|1:0,0:0:0:0:
235,60,117599,1,0,0:0:0:0:
235,60,117688,2,0,P|227:129|245:176,1,97.7500018644333,0|0,3:0|0:0,0:0:0:0:
435,51,117866,2,0,L|315:33,1,97.7500018644333,10|0,1:0|0:0,0:0:0:0:
144,338,118045,6,0,P|237:334|261:235,1,195.500003728867,2|8,3:1|1:0,0:0:0:0:
74,185,118313,1,0,0:0:0:0:
74,185,118402,2,0,P|66:238|74:289,1,97.7500018644333,2|0,3:1|0:0,0:0:0:0:
255,159,118581,2,0,P|217:133|159:119,1,97.7500018644333,10|0,1:0|0:0,0:0:0:0:
169,231,118759,6,0,L|270:248,1,97.7500018644333,4|0,3:2|0:0,0:0:0:0:
478,169,118938,2,0,L|365:187,1,97.7500018644333,10|0,1:0|0:0,0:0:0:0:
408,362,119116,2,0,B|417:314|417:314|404:266,1,97.7500018644333,2|0,3:1|0:0,0:0:0:0:
261,63,119295,2,0,B|247:109|247:109|254:158,1,97.7500018644333,8|0,1:0|0:0,0:0:0:0:
467,61,119474,2,0,L|362:47,1,97.7500018644333,4|0,3:2|0:0,0:0:0:0:
142,238,119652,5,8,1:0:0:0:
142,238,119741,2,0,P|232:304|314:248,1,195.500003728867,8|0,1:0|0:0,0:0:0:0:
121,151,120009,2,0,P|80:156|18:151,1,97.7500018644333,8|0,1:0|0:0,0:0:0:0:
137,69,120188,6,0,P|204:5|293:34,1,195.500003728867,4|10,3:2|1:0,0:0:0:0:
223,201,120456,1,0,0:0:0:0:
223,201,120545,2,0,B|211:152|211:152|223:96,1,97.7500018644333,0|0,3:0|0:0,0:0:0:0:
397,227,120724,2,0,B|406:273|406:273|394:322,1,97.7500018644333,10|0,1:0|0:0,0:0:0:0:
216,352,120902,2,0,L|325:333,1,97.7500018644333,0|0,3:0|0:0,0:0:0:0:
142,309,121081,2,0,L|33:290,1,97.7500018644333,10|8,1:0|1:0,0:0:0:0:
305,264,121259,2,0,P|314:208|297:155,1,97.7500018644333,2|0,3:1|0:0,0:0:0:0:
114,115,121438,2,0,P|103:162|113:210,1,97.7500018644333,10|0,1:0|0:0,0:0:0:0:
312,29,121616,6,0,B|361:40|361:40|427:26,1,97.7500018644333,4|0,3:2|0:0,0:0:0:0:
280,99,121795,2,0,B|231:110|231:110|165:96,1,97.7500018644333,10|0,1:0|0:0,0:0:0:0:
359,152,121974,2,0,L|446:198,1,97.7500018644333,0|0,3:0|0:0,0:0:0:0:
221,312,122152,2,0,L|231:207,1,97.7500018644333,10|0,1:0|0:0,0:0:0:0:
441,331,122331,2,0,L|342:387,1,97.7500018644333,2|0,3:1|0:0,0:0:0:0:
30,166,122509,5,8,1:0:0:0:
30,166,122599,2,0,P|130:206|116:295,1,195.500003728867,10|0,1:0|0:0,0:0:0:0:
47,253,122866,2,0,P|39:305|59:361,1,97.7500018644333,10|0,1:0|0:0,0:0:0:0:
400,145,123045,6,0,B|292:130|313:192|202:172,1,195.500003728867,4|8,3:2|1:0,0:0:0:0:
239,9,123313,1,0,0:0:0:0:
239,9,123402,2,0,B|251:56|251:56|239:108,1,97.7500018644333,0|0,3:0|0:0,0:0:0:0:
372,319,123581,2,0,B|360:271|360:271|372:224,1,97.7500018644333,10|0,1:0|0:0,0:0:0:0:
143,251,123759,2,0,P|208:348|291:338,1,195.500003728867,4|10,3:2|1:0,0:0:0:0:
145,162,124027,1,0,0:0:0:0:
145,162,124116,2,0,L|17:179,1,97.7500018644333,2|0,3:1|0:0,0:0:0:0:
0,77,124295,2,0,L|128:94,1,97.7500018644333,8|0,1:0|0:0,0:0:0:0:
483,33,124474,6,0,P|361:94|367:141,1,195.500003728867,4|8,3:2|1:0,0:0:0:0:
29,351,124741,2,0,P|151:290|145:243,1,195.500003728867,4|0,1:2|0:0,0:0:0:0:
407,230,125009,6,0,B|357:216|357:216|294:228,1,97.7500018644333,4|0,1:2|0:0,0:0:0:0:
93,145,125188,2,0,B|143:131|143:131|206:143,1,97.7500018644333,4|0,3:2|0:0,0:0:0:0:
326,9,125366,5,10,1:0:0:0:
265,69,125456,1,0,1:0:0:0:
327,138,125545,2,0,L|441:127,1,97.7500018644333,10|0,3:1|0:0,0:0:0:0:
161,281,125724,2,0,L|47:270,1,97.7500018644333,10|0,1:0|0:0,0:0:0:0:
246,205,125902,6,0,P|297:284|227:376,1,195.500003728867,4|8,3:2|1:0,0:0:0:0:
163,188,126170,1,0,0:0:0:0:
163,188,126259,2,0,B|153:137|153:137|170:78,1,97.7500018644333,0|0,3:0|0:0,0:0:0:0:
0,49,126438,2,0,L|100:50,1,97.7500018644333,10|0,1:0|0:0,0:0:0:0:
433,93,126616,2,0,B|330:79|356:143|215:121,1,195.500003728867,2|8,3:1|1:0,0:0:0:0:
416,178,126884,1,0,0:0:0:0:
416,178,126974,2,0,P|430:242|414:289,1,97.7500018644333,2|0,3:1|0:0,0:0:0:0:
288,350,127152,2,0,P|274:286|290:239,1,97.7500018644333,10|0,1:0|0:0,0:0:0:0:
72,204,127331,6,0,P|179:242|180:315,1,195.500003728867,4|8,3:2|1:0,0:0:0:0:
10,369,127599,1,8,1:0:0:0:
10,369,127688,2,0,P|4:315|20:248,1,97.7500018644333,0|0,3:0|0:0,0:0:0:0:
198,144,127866,2,0,P|204:90|188:23,1,97.7500018644333,10|0,1:0|0:0,0:0:0:0:
416,74,128045,2,0,L|318:81,1,97.7500018644333,2|0,3:1|0:0,0:0:0:0:
496,178,128224,5,10,1:0:0:0:
496,178,128313,2,0,P|394:213|388:318,1,195.500003728867,8|0,1:0|0:0,0:0:0:0:
266,358,128581,2,0,P|274:311|255:254,1,97.7500018644333,10|0,1:0|0:0,0:0:0:0:
0,337,128759,6,0,B|103:360|88:307|198:318,1,195.500003728867,4|8,3:2|1:0,0:0:0:0:
77,123,129027,1,0,0:0:0:0:
77,123,129116,2,0,P|66:154|71:217,1,97.7500018644333,0|0,3:0|0:0,0:0:0:0:
258,147,129295,2,0,P|265:99|252:52,1,97.7500018644333,10|0,1:0|0:0,0:0:0:0:
508,260,129474,6,0,P|397:269|352:185,1,195.500003728867,2|8,3:1|1:0,0:0:0:0:
171,367,129741,1,0,0:0:0:0:
171,367,129831,2,0,P|219:358|282:376,1,97.7500018644333,2|0,3:1|0:0,0:0:0:0:
112,294,130009,2,0,P|64:285|1:303,1,97.7500018644333,10|0,1:0|0:0,0:0:0:0:
179,233,130188,2,0,P|186:200|172:131,1,97.7500018644333,4|0,3:2|0:0,0:0:0:0:
281,19,130366,2,0,P|269:66|277:114,1,97.7500018644333,10|8,1:0|1:0,0:0:0:0:
155,52,130545,2,0,L|43:47,1,97.7500018644333,2|0,3:1|0:0,0:0:0:0:
284,214,130724,2,0,L|396:209,1,97.7500018644333,10|0,1:0|0:0,0:0:0:0:
508,260,130902,2,0,P|409:285|398:368,1,195.500003728867,4|8,3:2|1:0,0:0:0:0:
496,169,131170,1,8,1:0:0:0:
496,169,131259,2,0,B|509:117|509:117|488:44,1,97.7500018644333,0|0,3:0|0:0,0:0:0:0:
341,13,131438,2,0,B|328:62|328:62|341:110,1,97.7500018644333,8|0,1:0|0:0,0:0:0:0:
146,141,131616,6,0,L|245:143,1,97.7500018644333,4|0,3:2|0:0,0:0:0:0:
241,241,131795,2,0,L|244:133,1,97.7500018644333,10|0,1:0|0:0,0:0:0:0:
153,235,131974,2,0,P|146:283|153:341,1,97.7500018644333,0|0,3:0|0:0,0:0:0:0:
325,339,132152,2,0,P|332:291|325:233,1,97.7500018644333,10|0,1:0|0:0,0:0:0:0:
53,328,132331,6,0,L|154:332,1,97.7500018644333,0|0,3:0|0:0,0:0:0:0:
425,239,132509,2,0,L|324:243,1,97.7500018644333,10|0,1:0|0:0,0:0:0:0:
131,57,132688,2,0,P|242:32|294:103,1,195.500003728867,2|8,3:1|1:0,0:0:0:0:
46,145,132956,1,0,0:0:0:0:
46,145,133045,6,0,P|39:194|52:246,1,97.7500018644333,4|0,3:2|0:0,0:0:0:0:
233,350,133224,2,0,P|243:302|236:254,1,97.7500018644333,10|8,1:0|1:0,0:0:0:0:
55,315,133402,2,0,L|169:306,1,97.7500018644333,0|0,3:0|0:0,0:0:0:0:
333,262,133581,2,0,L|219:253,1,97.7500018644333,10|0,1:0|0:0,0:0:0:0:
386,96,133759,2,0,P|401:153|389:213,1,97.7500018644333,0|0,3:0|0:0,0:0:0:0:
173,86,133938,5,10,1:0:0:0:
173,86,134027,2,0,P|204:31|332:43,1,195.500003728867,8|0,1:0|0:0,0:0:0:0:
257,94,134295,2,0,P|248:137|258:195,1,97.7500018644333,10|0,1:0|0:0,0:0:0:0:
502,339,134474,6,0,P|485:271|357:253,1,195.500003728867,4|8,3:2|1:0,0:0:0:0:
265,354,134741,1,0,0:0:0:0:
265,354,134831,2,0,B|215:344|215:344|148:353,1,97.7500018644333,2|0,3:1|0:0,0:0:0:0:
145,279,135009,1,8,1:0:0:0:
67,294,135099,1,0,1:0:0:0:
8,242,135188,1,2,1:0:0:0:
17,164,135277,1,0,1:0:0:0:
179,86,135366,5,8,1:0:0:0:
199,124,135456,1,0,1:0:0:0:
202,166,135545,1,2,3:1:0:0:
191,197,135634,1,0,0:0:0:0:
191,197,135724,2,0,P|144:206|84:194,1,97.7500018644333,8|0,1:0|0:0,0:0:0:0:
47,32,135902,6,0,B|151:15|130:83|250:60,1,195.500003728867,4|8,3:2|1:0,0:0:0:0:
325,151,136170,1,8,1:0:0:0:
325,151,136259,2,0,P|316:208|326:261,1,97.7500018644333,0|0,3:0|0:0,0:0:0:0:
488,204,136438,2,0,L|376:198,1,97.7500018644333,10|0,1:0|0:0,0:0:0:0:
264,320,136616,2,0,P|383:333|411:255,1,195.500003728867,4|8,3:2|1:0,0:0:0:0:
222,250,136884,1,8,1:0:0:0:
222,250,136974,2,0,P|164:258|106:246,1,97.7500018644333,0|0,3:0|0:0,0:0:0:0:
120,92,137152,2,0,P|168:86|216:94,1,97.7500018644333,8|0,1:0|0:0,0:0:0:0:
34,170,137331,37,4,0:3:0:0:
256,192,137375,12,0,139474,0:0:0:0:
258,266,139652,21,2,1:2:0:0:
350,177,139831,5,2,1:0:0:0:
225,117,140009,5,2,1:0:0:0:
110,213,140188,6,0,P|127:287|208:324,1,170,4|8,1:2|1:0,0:0:0:0:
306,359,140456,1,0,0:0:0:0:
306,359,140545,2,0,P|356:350|406:363,1,85,0|0,3:0|0:0,0:0:0:0:
498,218,140724,2,0,P|456:223|414:214,1,85,8|0,1:0|0:0,0:0:0:0:
326,53,140902,2,0,P|426:71|448:151,1,170,0|8,3:0|1:0,0:0:0:0:
311,147,141170,2,0,B|224:126|227:175|120:140,1,170,8|0,1:0|0:0,0:0:0:0:
34,195,141438,2,0,P|29:154|33:109,1,85,8|0,1:0|0:0,0:0:0:0:
186,256,141616,38,0,P|191:297|187:342,1,85,0|0,3:0|0:0,0:0:0:0:
342,238,141795,2,0,P|338:280|343:322,1,85,8|0,1:0|0:0,0:0:0:0:
155,217,141974,2,0,P|160:258|156:303,1,85,0|0,3:0|0:0,0:0:0:0:
311,199,142153,2,0,P|307:241|312:283,1,85,8|0,1:0|0:0,0:0:0:0:
494,142,142331,2,0,P|429:80|350:106,1,170,0|8,3:0|1:0,0:0:0:0:
424,330,142599,5,8,1:0:0:0:
424,330,142688,2,0,P|459:321|508:329,1,85,2|0,3:1|0:0,0:0:0:0:
346,364,142866,2,0,P|311:355|262:363,1,85,10|0,1:0|0:0,0:0:0:0:
277,127,143045,6,0,P|269:253|236:269,1,170,0|10,3:0|1:0,0:0:0:0:
171,290,143313,1,0,0:0:0:0:
105,253,143402,1,2,3:1:0:0:
114,181,143491,1,0,0:0:0:0:
178,29,143581,5,10,1:0:0:0:
209,66,143670,1,0,0:0:0:0:
195,106,143759,1,2,3:1:0:0:
195,106,143849,2,0,P|149:111|96:102,1,85,2|8,0:1|1:0,0:0:0:0:
145,201,144027,2,0,P|52:238|54:303,1,170,2|0,0:1|0:0,0:0:0:0:
269,369,144295,37,10,1:0:0:0:
232,302,144384,1,0,0:0:0:0:
258,231,144474,2,0,P|252:182|259:132,1,85,2|0,3:1|0:0,0:0:0:0:
462,54,144652,1,8,1:0:0:0:
462,54,144741,2,0,P|468:103|461:153,1,85,2|0,0:1|3:0,0:0:0:0:
287,38,144920,1,0,0:0:0:0:
287,38,145009,2,0,L|376:33,1,85,10|0,1:0|0:0,0:0:0:0:
456,219,145188,5,2,3:1:0:0:
460,247,145277,1,0,0:0:0:0:
452,270,145366,2,0,L|346:275,1,85,10|0,1:0|0:0,0:0:0:0:
159,299,145545,5,8,1:2:0:0:
115,238,145634,1,8,1:2:0:0:
119,162,145724,1,8,1:2:0:0:
172,112,145813,1,8,1:2:0:0:
257,190,145902,6,0,B|239:289|289:266|284:361,1,170,4|8,3:2|1:0,0:0:0:0:
156,287,146170,37,0,0:0:0:0:
156,287,146259,2,0,P|128:200|179:113,1,170,2|8,3:1|1:0,0:0:0:0:
363,126,146527,5,0,0:0:0:0:
363,126,146616,2,0,P|391:213|348:305,1,170,2|8,3:1|1:0,0:0:0:0:
251,119,146884,5,8,1:0:0:0:
251,119,146974,2,0,L|239:24,1,85,0|0,3:0|0:0,0:0:0:0:
256,216,147152,2,0,L|245:300,1,85,10|0,1:0|0:0,0:0:0:0:
126,119,147331,6,0,P|115:66|126:30,1,85,2|0,3:1|0:0,0:0:0:0:
389,36,147509,2,0,P|397:78|386:119,1,85,8|0,1:0|0:0,0:0:0:0:
170,202,147688,38,0,P|123:200|60:209,1,85,2|0,3:1|0:0,0:0:0:0:
322,198,147866,2,0,P|390:211|423:311,1,170,10|0,1:0|3:0,0:0:0:0:
255,229,148134,5,0,0:0:0:0:
255,229,148224,2,0,P|247:195|256:135,1,85,10|8,1:1|1:0,0:0:0:0:
344,98,148402,5,0,3:0:0:0:
422,88,148491,1,0,0:0:0:0:
489,133,148581,1,10,1:0:0:0:
491,210,148670,1,0,0:0:0:0:
412,362,148759,2,0,L|225:337,1,170,4|8,3:2|1:0,0:0:0:0:
160,326,149027,5,0,0:0:0:0:
149,282,149116,1,0,3:0:0:0:
112,257,149206,1,0,0:0:0:0:
31,277,149295,37,8,1:0:0:0:
35,224,149384,1,8,1:0:0:0:
73,188,149474,1,0,3:0:0:0:
123,179,149563,1,0,0:0:0:0:
195,215,149652,5,8,1:0:0:0:
190,135,149741,1,0,0:0:0:0:
121,100,149831,1,0,3:0:0:0:
47,105,149920,5,0,0:0:0:0:
38,93,150009,1,8,1:0:0:0:
31,82,150099,1,8,1:0:0:0:
55,20,150188,6,0,L|46:114,1,85,4|0,3:2|0:0,0:0:0:0:
291,142,150366,2,0,L|282:57,1,85,8|0,1:3|0:0,0:0:0:0:
112,257,150545,5,8,3:0:0:0:
112,257,150724,1,0,1:0:0:0:
102,298,150813,1,0,3:0:0:0:
93,339,150902,1,4,0:0:0:0:
261,332,151081,1,8,1:3:0:0:
252,291,151170,1,0,3:0:0:0:
242,250,151259,1,8,3:0:0:0:
180,358,151438,1,8,3:0:0:0:
377,211,151616,5,4,0:2:0:0:
377,211,151974,2,0,P|376:158|381:117,1,85,4|0,0:1|0:0,0:0:0:0:
301,140,152331,2,0,P|299:90|191:35,1,170,0|2,0:1|0:3,0:0:0:0:
219,107,152866,1,0,0:0:0:0:
219,107,153224,70,0,P|217:170|223:200,1,85,2|4,0:1|0:1,0:0:0:0:
145,210,153581,1,2,0:1:0:0:
145,210,153759,2,0,P|199:216|235:330,1,170,2|2,0:1|0:3,0:0:0:0:
182,355,154295,1,0,0:0:0:0:
49,262,154474,5,2,0:1:0:0:
66,189,154652,1,0,0:1:0:0:
66,189,154741,1,0,0:0:0:0:
66,189,154831,2,0,L|75:113,2,42.5,4|2|0,0:1|0:1|0:0,0:0:0:0:
137,279,155188,69,2,0:1:0:0:
51,349,155366,1,2,0:1:0:0:
168,138,155545,5,6,0:1:0:0:
271,204,155724,1,2,0:1:0:0:
468,82,155902,70,0,L|361:88,1,85,8|2,1:2|0:3,0:0:0:0:
497,177,156259,6,0,L|348:186,1,127.500004863739,8|2,0:2|0:3,0:0:0:0:
247,300,156616,70,0,L|425:288,1,170,8|2,0:2|0:3,0:0:0:0:
165,225,156974,54,0,L|96:230,1,42.5,4|0,0:3|0:0,0:0:0:0:
165,225,157331,6,0,P|80:210|47:141,1,170,4|10,3:2|1:0,0:0:0:0:
156,134,157599,1,0,0:0:0:0:
156,134,157688,2,0,P|195:128|250:136,1,85,0|0,3:0|0:1,0:0:0:0:
244,319,157866,2,0,P|205:325|150:317,1,85,10|0,1:0|0:0,0:0:0:0:
243,227,158045,2,0,P|328:242|361:311,1,170,2|8,3:1|1:0,0:0:0:0:
323,151,158313,1,8,1:0:0:0:
323,151,158402,2,0,P|315:109|321:51,1,85,0|0,3:0|0:0,0:0:0:0:
487,45,158581,2,0,L|381:41,1,85,10|0,1:0|0:0,0:0:0:0:
149,84,158759,38,0,L|255:80,1,85,2|0,3:1|0:0,0:0:0:0:
490,190,158938,2,0,L|384:186,1,85,8|0,1:0|0:1,0:0:0:0:
179,292,159116,2,0,L|285:288,1,85,0|0,3:0|0:0,0:0:0:0:
112,218,159295,2,0,P|78:290|137:379,1,170,10|0,1:0|3:1,0:0:0:0:
348,333,159563,1,0,0:0:0:0:
348,333,159652,2,0,P|356:292|343:240,1,85,10|8,1:0|1:0,0:0:0:0:
219,128,159831,2,0,P|210:169|218:210,1,85,0|0,0:0|0:0,0:0:0:0:
388,95,160009,2,0,L|284:106,1,85,10|0,1:0|0:0,0:0:0:0:
157,26,160188,6,0,P|132:111|34:129,1,170,2|8,3:1|1:0,0:0:0:0:
209,297,160456,1,0,0:0:0:0:
209,297,160545,2,0,P|217:338|209:379,1,85,2|0,3:1|0:1,0:0:0:0:
75,324,160724,2,0,P|66:282|75:241,1,85,8|0,1:0|0:0,0:0:0:0:
296,144,160902,2,0,L|305:333,1,170,2|8,3:1|1:0,0:0:0:0:
222,195,161170,1,8,1:0:0:0:
222,195,161259,2,0,P|177:186|136:201,1,85,0|0,3:0|0:0,0:0:0:0:
382,148,161438,2,0,P|427:139|468:154,1,85,10|0,1:0|0:0,0:0:0:0:
218,101,161616,22,0,P|211:65|222:16,1,85,2|0,3:1|0:0,0:0:0:0:
415,227,161795,2,0,P|424:268|417:309,1,85,8|0,1:0|0:1,0:0:0:0:
258,267,161974,2,0,L|342:276,1,85,0|0,3:1|0:0,0:0:0:0:
197,338,162152,2,0,B|110:325|123:368|27:356,1,170,10|0,1:0|3:1,0:0:0:0:
61,284,162420,1,0,0:0:0:0:
43,242,162509,1,10,1:0:0:0:
52,200,162599,1,8,1:0:0:0:
126,86,162688,37,2,0:1:0:0:
196,112,162777,1,8,1:0:0:0:
196,187,162866,1,0,1:0:0:0:
134,230,162956,1,0,1:0:0:0:
47,115,163045,54,0,L|52:11,1,85,4|0,0:2|0:0,0:0:0:0:
251,88,163402,1,4,0:1:0:0:
250,54,163581,1,2,0:1:0:0:
426,107,163759,2,0,L|417:15,1,85,2|2,0:1|0:1,0:0:0:0:
272,179,164116,5,2,0:3:0:0:
247,214,164295,1,2,0:1:0:0:
311,256,164474,1,2,0:1:0:0:
214,300,164652,1,2,0:1:0:0:
296,370,164831,1,4,0:1:0:0:
392,332,165009,1,2,0:1:0:0:
166,231,165188,2,0,P|124:293|174:376,1,170,2|2,0:1|0:3,0:0:0:0:
163,370,165724,1,2,0:1:0:0:
210,140,165902,69,2,0:1:0:0:
101,156,166081,1,0,0:0:0:0:
180,139,166259,1,4,0:1:0:0:
107,114,166438,1,2,0:1:0:0:
274,46,166616,5,2,0:1:0:0:
396,54,166795,1,2,0:1:0:0:
286,88,166974,1,2,0:3:0:0:
369,58,167152,1,2,0:1:0:0:
484,178,167331,70,0,L|366:163,1,85,8|2,1:2|0:3,0:0:0:0:
190,253,167688,6,0,L|335:231,1,127.500004863739,8|2,1:2|0:3,0:0:0:0:
501,364,168045,70,0,L|317:333,1,170,8|2,1:2|0:3,0:0:0:0:
103,173,168402,38,0,L|53:180,1,42.5,4|0,0:3|0:0,0:0:0:0:
103,173,168759,6,0,P|26:204|17:291,1,170,4|10,3:2|1:0,0:0:0:0:
273,354,169027,1,0,0:0:0:0:
273,354,169116,2,0,P|276:310|268:266,1,85,0|0,3:0|0:0,0:0:0:0:
345,179,169295,2,0,L|235:176,1,85,10|0,1:0|0:0,0:0:0:0:
344,98,169474,2,0,P|422:156|411:240,1,170,2|8,3:1|1:0,0:0:0:0:
176,239,169741,1,8,1:0:0:0:
176,239,169831,2,0,P|172:194|180:147,1,85,0|0,3:0|0:0,0:0:0:0:
362,280,170009,2,0,P|367:322|363:364,1,85,10|0,1:0|0:0,0:0:0:0:
121,322,170188,6,0,L|225:313,1,85,2|0,3:1|0:0,0:0:0:0:
85,248,170366,2,0,L|-19:239,1,85,8|0,1:0|0:0,0:0:0:0:
177,154,170545,2,0,L|281:145,1,85,0|0,3:1|0:0,0:0:0:0:
86,57,170724,2,0,L|-8:49,1,85,10|0,1:0|0:1,0:0:0:0:
269,35,170902,38,0,L|356:43,1,85,0|0,3:0|1:0,0:0:0:0:
463,160,171081,1,8,1:0:0:0:
463,160,171170,2,0,P|408:149|346:241,1,170,8|0,1:0|0:0,0:0:0:0:
436,300,171438,2,0,P|431:337|441:386,1,85,10|0,1:0|0:0,0:0:0:0:
106,291,171616,6,0,B|197:306|179:257|274:269,1,170,2|8,3:1|1:0,0:0:0:0:
203,167,171884,1,0,0:0:0:0:
203,167,171974,2,0,P|201:118|205:68,1,85,0|0,3:0|0:0,0:0:0:0:
64,113,172152,2,0,P|66:70|63:28,1,85,10|0,1:0|0:0,0:0:0:0:
274,29,172331,2,0,P|354:93|337:173,1,170,2|8,3:1|1:0,0:0:0:0:
505,265,172599,1,8,1:0:0:0:
505,265,172688,2,0,P|440:266|404:282,1,85,0|0,3:0|0:0,0:0:0:0:
240,336,172866,2,0,P|305:337|341:353,1,85,10|0,1:0|0:0,0:0:0:0:
178,247,173045,6,0,L|165:140,1,85,2|0,3:1|0:0,0:0:0:0:
0,250,173224,2,0,L|13:143,1,85,10|0,1:0|0:0,0:0:0:0:
136,327,173402,2,0,P|87:320|37:331,1,85,0|0,3:1|0:0,0:0:0:0:
251,186,173581,2,0,P|323:186|365:286,1,170,10|0,1:0|3:1,0:0:0:0:
303,308,173849,1,0,0:0:0:0:
289,342,173938,1,10,1:0:0:0:
302,372,174027,1,8,1:0:0:0:
482,276,174116,5,0,1:0:0:0:
512,207,174206,1,8,1:0:0:0:
479,139,174295,1,8,1:0:0:0:
404,126,174384,1,0,0:1:0:0:
350,60,174474,38,0,L|255:50,1,85,4|0,3:2|0:0,0:0:0:0:
149,109,174652,2,0,L|64:117,1,85,10|0,1:0|0:0,0:0:0:0:
320,217,174831,2,0,L|235:208,1,85,2|0,3:1|0:0,0:0:0:0:
118,275,175009,2,0,L|33:283,1,85,10|0,1:0|0:0,0:0:0:0:
341,355,175188,2,0,B|253:333|254:377|160:349,1,170,2|8,3:1|1:0,0:0:0:0:
405,273,175456,1,8,1:0:0:0:
405,273,175545,2,0,P|402:239|412:168,1,85,0|0,3:0|0:0,0:0:0:0:
483,37,175724,2,0,P|487:79|484:121,1,85,10|0,1:0|0:0,0:0:0:0:
245,35,175902,6,0,L|340:63,1,85,2|0,3:1|0:0,0:0:0:0:
188,183,176081,2,0,L|178:86,1,85,10|0,1:0|0:0,0:0:0:0:
341,149,176259,2,0,L|258:216,1,85,0|0,3:1|0:0,0:0:0:0:
248,25,176438,2,0,L|343:53,1,85,10|0,1:0|0:1,0:0:0:0:
201,264,176616,6,0,P|130:253|101:142,1,170,2|8,3:1|1:0,0:0:0:0:
314,330,176884,2,0,P|385:319|414:208,1,170,10|0,1:0|0:0,0:0:0:0:
502,184,177152,2,0,P|497:145|505:91,1,85,10|0,1:0|0:0,0:0:0:0:
248,25,177331,6,0,L|259:137,1,85,2|0,3:1|0:0,0:0:0:0:
5,172,177509,2,0,L|13:87,1,85,10|0,1:0|0:0,0:0:0:0:
262,235,177688,2,0,P|199:231|168:246,1,85,2|0,3:1|0:0,0:0:0:0:
5,332,177866,2,0,P|46:339|87:328,1,85,8|0,1:0|0:0,0:0:0:0:
156,153,178045,38,0,L|146:44,1,85,2|0,3:1|0:0,0:0:0:0:
373,236,178224,2,0,L|365:320,1,85,10|8,1:0|1:0,0:0:0:0:
488,149,178402,6,0,P|435:138|397:148,1,85,0|0,3:0|0:0,0:0:0:0:
119,252,178581,2,0,P|212:278|269:214,1,170,10|0,1:0|3:1,0:0:0:0:
65,180,178849,1,0,0:1:0:0:
65,180,178938,2,0,L|-19:175,1,85,10|0,1:0|0:1,0:0:0:0:
296,151,179116,2,0,L|380:146,1,85,2|0,3:1|0:0,0:0:0:0:
100,69,179295,6,0,P|193:43|250:107,1,170,10|0,1:0|3:1,0:0:0:0:
169,132,179563,1,0,1:0:0:0:
169,132,179652,2,0,P|176:178|169:222,1,85,10|8,1:0|1:0,0:0:0:0:
240,295,179831,5,2,1:0:0:0:
298,343,179920,1,8,1:0:0:0:
374,342,180009,1,8,1:0:0:0:
437,298,180099,1,0,0:1:0:0:
445,222,180188,21,4,3:2:0:0:
411,225,180545,1,4,3:1:0:0:
377,228,180902,1,4,3:1:0:0:
343,228,181259,1,4,3:1:0:0:
309,229,181616,1,4,3:1:0:0:
275,232,181974,1,4,3:1:0:0:
241,234,182331,1,4,3:1:0:0:
353,75,182509,69,8,1:2:0:0:
277,91,182599,1,8,1:2:0:0:
201,107,182688,1,12,1:2:0:0:
201,107,183045,22,0,B|291:93|276:142|381:121,1,170,4|10,3:2|1:0,0:0:0:0:
492,191,183313,1,0,0:0:0:0:
425,228,183402,1,0,3:0:0:0:
351,208,183491,1,0,0:0:0:0:
276,186,183581,1,10,1:0:0:0:
200,198,183670,1,0,0:0:0:0:
159,262,183759,1,2,3:1:0:0:
159,262,183849,2,0,P|156:300|166:349,1,85,0|8,0:0|1:0,0:0:0:0:
105,123,184027,2,0,P|79:220|-2:235,1,170,10|0,1:0|0:0,0:0:0:0:
27,156,184295,2,0,P|30:115|18:66,1,85,10|0,1:0|0:0,0:0:0:0:
126,23,184474,5,2,3:1:0:0:
148,35,184563,1,0,0:0:0:0:
173,38,184652,1,8,1:0:0:0:
238,91,184741,5,0,0:0:0:0:
270,81,184831,1,2,3:1:0:0:
299,98,184920,1,0,0:0:0:0:
329,82,185009,1,10,1:0:0:0:
361,92,185099,1,0,0:0:0:0:
424,141,185188,5,0,3:0:0:0:
488,183,185277,1,0,0:0:0:0:
494,261,185366,1,10,1:0:0:0:
434,310,185456,1,8,1:0:0:0:
434,310,185545,2,2,L|316:295,1,85,2|0,3:1|0:0,1:0:0:0:
229,258,185724,37,8,1:0:0:0:
204,253,185813,1,0,0:0:0:0:
179,259,185902,2,2,P|232:269|263:257,1,85,2|0,3:1|0:0,1:0:0:0:
313,192,186081,1,8,1:0:0:0:
338,187,186170,1,0,0:0:0:0:
363,193,186259,2,2,P|310:203|279:191,1,85,2|0,3:1|0:0,1:0:0:0:
198,140,186438,1,8,1:0:0:0:
173,135,186527,1,0,0:0:0:0:
148,141,186616,2,2,P|201:151|232:139,1,85,2|0,3:1|0:0,1:0:0:0:
305,73,186795,1,8,1:0:0:0:
330,68,186884,1,8,1:0:0:0:
355,74,186973,2,2,P|302:84|271:72,1,85,2|0,3:1|0:0,1:0:0:0:
112,37,187152,5,8,1:0:0:0:
153,31,187241,1,0,0:0:0:0:
188,55,187331,2,2,P|136:67|57:48,2,113.333333333333,2|2|0,3:1|0:1|0:0,1:0:0:0:
348,217,187688,2,2,P|400:229|479:210,2,113.333333333333,2|2|2,3:1|0:1|0:1,1:0:0:0:
177,337,188045,6,0,P|212:250|154:176,1,170,2|8,3:1|1:0,0:0:0:0:
106,162,188313,1,8,1:0:0:0:
39,199,188402,1,0,1:0:0:0:
49,274,188491,1,0,0:0:0:0:
49,274,188581,2,0,L|141:259,1,85,10|0,1:0|1:0,0:0:0:0:
294,310,188759,38,0,L|398:324,1,85,4|2,0:2|0:1,0:0:0:0:
441,275,189116,1,6,0:1:0:0:
441,275,189295,1,0,0:0:0:0:
402,209,189474,2,0,P|398:151|405:116,1,85,0|0,0:0|0:1,0:0:0:0:
488,131,189831,2,0,P|475:76|353:53,1,170,2|2,0:3|0:1,0:0:0:0:
297,110,190366,69,0,0:1:0:0:
259,119,190456,1,0,0:0:0:0:
221,113,190545,1,6,0:1:0:0:
233,193,190724,2,0,P|162:209|129:298,1,170,2|0,0:1|0:0,0:0:0:0:
217,276,191259,1,2,0:3:0:0:
279,336,191438,1,0,0:0:0:0:
44,372,191616,6,0,P|43:322|35:286,1,85,2|2,0:1|0:1,0:0:0:0:
101,185,191974,1,4,0:1:0:0:
0,122,192152,1,2,0:1:0:0:
186,52,192331,69,0,0:1:0:0:
108,78,192509,1,2,0:1:0:0:
274,148,192688,5,2,0:3:0:0:
225,135,192866,1,2,0:1:0:0:
345,232,193045,70,0,L|435:220,1,85,8|2,1:2|0:3,0:0:0:0:
177,293,193402,6,0,L|37:279,1,127.500004863739,8|2,0:2|0:3,0:0:0:0:
324,361,193759,70,0,L|511:338,1,170,8|2,0:2|0:3,0:0:0:0:
118,182,194116,54,0,L|127:132,1,42.5,4|0,0:3|0:0,0:0:0:0:
118,182,194474,6,0,P|142:113|232:101,1,170,4|10,3:2|1:0,0:0:0:0:
263,332,194741,1,0,0:0:0:0:
263,332,194831,2,0,P|224:324|168:331,1,85,0|0,3:0|0:1,0:0:0:0:
19,269,195009,2,0,P|57:261|113:268,1,85,10|0,1:0|0:0,0:0:0:0:
439,246,195188,38,0,P|415:177|325:165,1,170,2|8,3:1|1:0,0:0:0:0:
356,319,195456,1,8,1:0:0:0:
356,319,195545,2,0,P|359:267|348:216,1,85,0|0,3:0|0:0,0:0:0:0:
269,11,195724,2,0,P|266:63|277:114,1,85,10|0,1:0|0:0,0:0:0:0:
403,41,195902,6,0,L|492:47,1,85,2|0,3:1|0:0,0:0:0:0:
239,195,196081,2,0,L|150:201,1,85,8|0,1:0|0:1,0:0:0:0:
504,282,196259,2,0,P|498:318|512:374,1,85,0|0,3:0|0:0,0:0:0:0:
320,153,196438,2,0,P|401:196|408:289,1,170,10|0,1:0|3:1,0:0:0:0:
248,290,196706,1,0,0:0:0:0:
248,290,196795,2,0,P|237:335|254:384,1,85,10|8,1:0|1:0,0:0:0:0:
336,307,196974,2,0,P|336:258|310:224,1,85,0|0,0:0|0:0,0:0:0:0:
172,224,197152,2,0,P|150:259|152:301,1,85,10|0,1:0|0:0,0:0:0:0:
72,122,197331,6,0,B|167:106|149:161|262:138,1,170,2|8,3:1|1:0,0:0:0:0:
323,44,197599,1,0,0:0:0:0:
323,44,197688,2,0,L|410:53,1,85,2|0,3:1|0:1,0:0:0:0:
511,189,197866,2,0,L|424:198,1,85,8|0,1:0|0:0,0:0:0:0:
329,300,198045,2,0,P|416:336|467:291,1,170,2|8,3:1|1:0,0:0:0:0:
285,207,198313,1,8,1:0:0:0:
285,207,198402,2,0,P|225:213|197:208,1,85,0|0,3:0|0:0,0:0:0:0:
358,138,198581,2,0,L|363:34,1,85,10|0,1:0|0:0,0:0:0:0:
468,11,198759,6,0,P|477:50|466:110,1,85,2|0,3:1|0:0,0:0:0:0:
243,98,198938,2,0,P|234:59|245:-1,1,85,8|0,1:0|0:1,0:0:0:0:
72,122,199116,2,0,L|176:128,1,85,0|0,3:1|0:0,0:0:0:0:
19,219,199295,2,0,P|118:219|148:291,1,170,10|0,1:0|3:1,0:0:0:0:
231,307,199563,37,0,0:0:0:0:
173,357,199652,1,10,1:0:0:0:
100,332,199741,1,8,1:0:0:0:
243,232,199831,5,2,0:1:0:0:
285,207,199920,1,8,1:0:0:0:
328,229,200009,1,0,1:0:0:0:
337,212,200099,1,0,1:0:0:0:
407,190,200188,54,0,B|317:207|335:152|239:162,1,170,4|2,0:2|0:3,0:0:0:0:
150,87,200724,1,2,0:1:0:0:
34,147,200902,1,2,0:1:0:0:
57,73,201081,1,0,0:1:0:0:
117,189,201259,1,2,0:3:0:0:
117,189,201438,70,0,P|56:206|55:306,1,170,2|0,0:1|0:0,0:0:0:0:
191,218,201974,1,4,0:1:0:0:
191,218,202152,2,0,P|252:235|253:335,1,170,2|2,0:1|0:1,0:0:0:0:
191,299,202688,1,2,0:3:0:0:
191,299,202866,1,2,0:1:0:0:
115,107,203045,6,0,L|206:118,1,85,2|2,0:1|0:1,0:0:0:0:
332,165,203402,1,4,0:1:0:0:
406,134,203581,1,0,0:0:0:0:
512,206,203759,70,0,L|421:217,1,85,6|2,0:1|0:1,0:0:0:0:
251,264,204116,6,0,L|398:285,1,127.500004863739,2|2,0:3|0:1,0:0:0:0:
201,350,204474,1,8,1:2:0:0:
44,216,204652,1,2,0:3:0:0:
229,147,204831,1,8,1:2:0:0:
170,254,205009,1,2,0:3:0:0:
103,92,205188,38,0,P|171:39|308:127,1,255,8|0,1:2|0:0,0:0:0:0:
359,181,205545,6,0,L|354:227,1,42.5,4|0,0:3|0:0,0:0:0:0:
359,181,205902,38,0,P|434:190|450:273,1,170,4|10,3:2|1:0,0:0:0:0:
293,352,206170,1,0,0:0:0:0:
293,352,206259,2,0,P|282:313|294:255,1,85,0|0,3:0|0:0,0:0:0:0:
149,200,206438,2,0,L|252:216,1,85,10|0,1:0|0:0,0:0:0:0:
167,32,206616,2,0,P|82:69|96:150,1,170,2|8,3:1|1:0,0:0:0:0:
257,69,206884,1,8,1:0:0:0:
257,69,206974,2,0,P|266:111|259:158,1,85,0|0,3:0|0:0,0:0:0:0:
359,89,207152,2,0,L|451:101,1,85,10|0,1:0|0:0,0:0:0:0:
491,214,207331,6,0,P|482:256|489:303,1,85,2|0,3:1|0:0,0:0:0:0:
237,345,207509,2,0,P|242:303|233:261,1,85,8|0,1:0|0:0,0:0:0:0:
48,207,207688,2,0,P|39:248|44:290,1,85,0|0,3:1|0:0,0:0:0:0:
150,200,207866,2,0,B|126:111|181:125|152:22,1,170,10|0,1:0|3:0,0:0:0:0:
245,151,208134,1,0,0:0:0:0:
245,151,208224,2,0,L|255:53,1,85,10|8,1:0|1:0,0:0:0:0:
53,110,208402,2,0,L|43:12,1,85,0|0,0:0|0:0,0:0:0:0:
243,227,208581,2,0,P|292:220|341:238,1,85,10|0,1:0|0:0,0:0:0:0:
497,53,208759,6,0,P|403:87|408:165,1,170,2|8,3:1|1:0,0:0:0:0:
310,313,209027,1,0,0:0:0:0:
310,313,209116,2,0,P|356:317|401:298,1,85,0|0,3:0|0:0,0:0:0:0:
221,352,209295,2,0,L|119:339,1,85,10|0,1:0|0:0,0:0:0:0:
179,179,209474,2,0,L|5:199,1,170,2|8,3:1|1:0,0:0:0:0:
82,26,209741,1,8,1:0:0:0:
82,26,209831,2,0,P|77:71|89:114,1,85,0|0,3:0|0:0,0:0:0:0:
283,205,210009,2,0,P|292:163|287:121,1,85,10|0,1:0|0:0,0:0:0:0:
444,31,210188,21,10,3:0:0:0:
495,92,210456,1,0,3:0:0:0:
495,92,210545,1,8,3:0:0:0:
458,154,210724,1,10,1:3:0:0:
487,227,210902,69,4,3:2:0:0:
411,239,210991,1,0,0:0:0:0:
368,303,211081,1,10,1:0:0:0:
387,376,211170,1,8,1:0:0:0:
512,350,211259,37,0,1:0:0:0:
499,327,211349,1,8,1:0:0:0:
476,315,211438,1,8,1:0:0:0:
450,314,211527,1,0,0:1:0:0:
271,250,211616,6,0,P|269:291|279:346,1,85,4|0,3:2|0:0,0:0:0:0:
487,227,211795,2,0,P|489:186|478:130,1,85,10|0,1:0|0:0,0:0:0:0:
313,70,211974,2,0,L|419:58,1,85,0|0,3:1|0:0,0:0:0:0:
408,192,212152,2,0,L|302:180,1,85,10|0,1:0|0:0,0:0:0:0:
141,131,212331,2,0,L|244:118,1,85,2|0,3:1|0:0,0:0:0:0:
31,249,212509,6,0,P|26:211|27:158,1,85,10|8,1:0|1:0,0:0:0:0:
251,300,212688,2,0,P|256:262|255:209,1,85,0|0,3:0|0:0,0:0:0:0:
141,335,212866,2,0,L|132:232,1,85,10|0,1:0|0:0,0:0:0:0:
349,373,213045,6,0,L|358:270,1,85,2|0,3:1|0:0,0:0:0:0:
475,203,213224,2,0,L|482:287,1,85,8|0,1:0|0:0,0:0:0:0:
293,109,213402,2,0,P|338:117|395:104,1,85,2|0,3:1|0:0,0:0:0:0:
374,212,213581,2,0,P|329:204|272:217,1,85,8|0,1:0|0:1,0:0:0:0:
204,30,213759,2,0,P|249:22|306:35,1,85,2|0,3:1|0:0,0:0:0:0:
312,285,213938,2,0,P|270:290|228:282,1,85,10|10,1:0|1:0,0:0:0:0:
44,82,214116,38,0,P|148:116|159:184,1,170,2|10,3:1|1:0,0:0:0:0:
72,160,214384,1,0,0:0:0:0:
72,160,214474,2,0,P|80:209|76:246,1,85,0|0,3:1|0:0,0:0:0:0:
323,188,214652,6,0,L|229:198,1,85,10|0,1:0|0:0,0:0:0:0:
385,274,214831,2,0,L|479:284,1,85,2|0,3:1|0:0,0:0:0:0:
406,95,215009,2,0,P|398:157|408:193,1,85,10|0,1:0|0:0,0:0:0:0:
286,359,215188,2,0,P|294:297|284:261,1,85,2|0,3:1|0:0,0:0:0:0:
111,183,215366,2,0,P|105:224|114:266,1,85,10|8,1:0|1:0,0:0:0:0:
221,125,215545,2,0,L|209:31,1,85,2|0,3:1|0:0,0:0:0:0:
210,208,215724,2,0,L|203:307,1,85,10|0,1:0|0:0,0:0:0:0:
50,85,215902,6,0,L|141:87,1,85,2|0,3:1|0:1,0:0:0:0:
415,135,216081,2,0,L|324:137,1,85,8|0,1:0|0:1,0:0:0:0:
12,267,216259,2,0,P|46:260|103:269,1,85,2|0,3:1|0:0,0:0:0:0:
367,344,216438,2,0,P|321:335|276:346,1,85,8|0,1:0|0:0,0:0:0:0:
426,275,216616,2,0,P|468:276|507:291,1,85,2|0,3:1|1:0,0:0:0:0:
365,208,216795,5,10,1:0:0:0:
305,255,216884,1,8,1:0:0:0:
235,222,216974,1,0,1:0:0:0:
166,182,217063,1,8,1:0:0:0:
92,209,217152,1,8,1:0:0:0:
92,284,217242,1,0,0:1:0:0:
167,320,217331,21,4,3:2:0:0:
199,309,217688,1,4,3:1:0:0:
231,297,218045,1,4,3:1:0:0:
263,286,218402,1,4,3:1:0:0:
294,272,218759,1,4,3:1:0:0:
325,258,219116,1,4,3:1:0:0:
356,244,219474,1,4,3:1:0:0:
306,98,219652,69,8,1:2:0:0:
380,114,219741,1,8,1:2:0:0:
455,130,219831,1,12,1:2:0:0:
455,130,220188,22,0,B|361:117|375:164|279:142,1,170,4|10,3:2|1:0,0:0:0:0:
233,89,220456,1,0,0:0:0:0:
160,63,220545,1,0,3:0:0:0:
89,91,220634,1,0,0:0:0:0:
72,166,220724,1,10,1:0:0:0:
114,229,220813,1,0,0:0:0:0:
189,238,220902,1,2,3:1:0:0:
189,238,220991,2,0,L|203:138,1,85,0|8,0:0|1:0,0:0:0:0:
404,210,221170,2,0,P|457:254|431:357,1,170,10|0,1:0|0:0,0:0:0:0:
410,356,221438,1,10,1:0:0:0:
383,334,221527,1,0,0:0:0:0:
330,270,221616,6,0,P|298:269|246:298,1,85,2|0,3:1|0:0,0:0:0:0:
316,84,221795,1,8,1:0:0:0:
316,84,221884,2,0,P|325:124|353:156,1,85,0|2,0:0|3:1,0:0:0:0:
175,176,222063,1,0,0:0:0:0:
175,176,222152,2,0,P|186:134|178:87,1,85,10|0,1:0|0:0,0:0:0:0:
34,35,222331,5,0,3:0:0:0:
13,62,222420,1,0,0:0:0:0:
10,95,222509,1,10,1:0:0:0:
23,126,222599,1,8,1:0:0:0:
70,209,222688,5,2,3:1:0:0:
134,250,222777,1,0,0:0:0:0:
145,325,222866,1,8,1:0:0:0:
84,372,222956,1,0,0:0:0:0:
121,154,223045,38,0,L|115:48,1,85,2|0,3:1|0:0,0:0:0:0:
201,63,223224,2,0,L|86:71,1,85,8|0,1:0|0:0,0:0:0:0:
440,208,223402,6,0,L|446:102,1,85,2|0,3:1|0:0,0:0:0:0:
360,118,223581,2,0,L|474:125,1,85,8|0,1:0|0:0,0:0:0:0:
129,318,223759,6,0,L|123:212,1,85,2|0,3:1|0:0,0:0:0:0:
210,227,223938,2,0,L|95:234,1,85,8|8,1:0|1:0,0:0:0:0:
429,382,224116,6,0,L|435:276,1,85,2|0,3:1|0:0,0:0:0:0:
349,292,224295,2,0,L|463:299,1,85,8|0,1:0|0:0,0:0:0:0:
328,160,224474,38,0,P|346:130|346:49,2,113.333333333333,2|10|8,3:1|1:1|1:0,0:0:0:0:
22,157,224831,2,0,P|4:127|4:46,2,113.333333333333,2|10|10,3:1|1:1|1:1,0:0:0:0:
193,209,225188,6,0,P|278:265|268:328,1,170,4|10,3:2|1:0,0:0:0:0:
211,366,225456,1,8,1:0:0:0:
138,345,225545,1,0,1:0:0:0:
81,283,225634,5,0,1:0:0:0:
52,279,225724,1,10,1:0:0:0:
23,287,225813,1,0,1:0:0:0:
57,194,225902,6,0,P|131:161|136:81,1,170,4|10,3:2|1:0,0:0:0:0:
31,100,226170,1,0,0:0:0:0:
31,100,226259,2,0,P|20:57|37:7,1,85,0|0,3:0|0:0,0:0:0:0:
232,106,226438,2,0,L|230:299,1,170,10|2,1:0|3:1,0:0:0:0:
325,209,226706,1,0,0:0:0:0:
325,209,226795,2,0,P|320:259|333:299,1,85,8|0,1:0|0:0,0:0:0:0:
505,244,226974,2,0,P|515:202|509:161,1,85,0|0,3:0|0:0,0:0:0:0:
423,273,227152,2,0,L|420:357,1,85,10|0,1:0|0:0,0:0:0:0:
258,337,227331,38,0,P|208:330|156:349,1,85,4|0,3:2|0:0,0:0:0:0:
33,141,227509,2,0,P|83:134|135:153,1,85,10|0,1:0|0:0,0:0:0:0:
116,285,227688,2,0,P|74:293|33:286,1,85,0|0,3:0|0:0,0:0:0:0:
190,67,227866,1,10,1:0:0:0:
190,67,227956,2,0,B|215:161|164:162|193:242,1,170,8|0,1:0|0:0,0:0:0:0:
276,105,228224,1,10,1:0:0:0:
364,153,228313,1,0,0:0:0:0:
450,97,228402,2,0,P|453:53|441:11,1,85,0|0,3:1|3:0,0:0:0:0:
272,206,228581,2,0,P|269:250|281:292,1,85,10|0,1:0|0:0,0:0:0:0:
448,341,228759,6,0,L|334:357,1,85,4|0,3:2|0:0,0:0:0:0:
505,241,228938,2,0,L|420:229,1,85,10|0,1:0|0:0,0:0:0:0:
254,119,229116,6,0,L|368:135,1,85,0|0,3:0|0:0,0:0:0:0:
197,19,229295,2,0,L|281:7,1,85,10|0,1:0|0:0,0:0:0:0:
121,162,229474,6,0,L|12:179,1,85,0|0,3:0|0:0,0:0:0:0:
180,241,229652,2,0,P|90:277|91:349,1,170,10|2,1:0|3:1,0:0:0:0:
251,351,229920,1,0,0:0:0:0:
251,351,230009,2,0,P|256:309|249:258,1,85,8|0,1:0|0:0,0:0:0:0:
253,42,230188,38,0,P|248:84|253:126,1,85,4|0,3:2|0:0,0:0:0:0:
466,173,230366,2,0,P|451:115|333:98,1,170,10|0,1:0|3:0,0:0:0:0:
374,191,230634,1,0,0:0:0:0:
374,191,230724,2,0,P|382:235|370:284,1,85,10|0,1:0|0:0,0:0:0:0:
204,244,230902,2,0,L|300:237,1,85,2|0,3:1|0:0,0:0:0:0:
174,89,231081,1,8,1:0:0:0:
174,89,231170,2,0,P|150:192|88:200,1,170,8|0,1:0|0:0,0:0:0:0:
26,175,231438,1,10,1:0:0:0:
88,123,231527,1,0,0:0:0:0:
9,14,231616,6,0,P|6:53|14:102,1,85,4|0,3:2|0:0,0:0:0:0:
93,19,231795,2,0,L|184:8,1,85,8|0,1:0|0:0,0:0:0:0:
259,54,231974,2,0,L|343:64,1,85,0|0,3:0|0:0,0:0:0:0:
486,195,232152,6,0,P|492:153|489:110,1,85,10|0,1:0|0:0,0:0:0:0:
376,163,232331,2,0,L|279:177,1,85,4|0,3:2|0:0,0:0:0:0:
191,209,232509,2,0,L|105:220,1,85,8|0,1:0|0:0,0:0:0:0:
215,357,232688,2,0,L|248:259,1,85,0|0,3:0|0:0,0:0:0:0:
71,300,232866,2,0,L|143:378,1,85,10|0,1:0|0:0,0:0:0:0:
317,321,233045,6,0,P|322:270|309:211,1,85,4|0,3:2|0:0,0:0:0:0:
30,145,233224,2,0,P|25:187|30:229,1,85,8|0,1:0|0:0,0:0:0:0:
311,113,233402,2,0,P|315:70|310:28,1,85,0|0,3:0|0:0,0:0:0:0:
129,58,233581,2,0,L|231:61,1,85,10|0,1:0|0:0,0:0:0:0:
130,245,233759,38,0,P|125:165|199:136,1,170,4|8,3:2|1:0,0:0:0:0:
411,193,234027,2,0,P|485:224|480:304,1,170,8|0,1:0|0:0,0:0:0:0:
315,368,234295,2,0,P|273:364|232:371,1,85,10|0,1:0|0:0,0:0:0:0:
20,184,234474,69,12,0:2:0:0:
20,184,234652,1,8,0:2:0:0:
20,184,234831,1,8,0:2:0:0:
20,184,235009,1,8,0:2:0:0:
20,184,235188,5,8,1:2:0:0:
316,78,235366,5,8,1:2:0:0:
457,236,235545,5,8,1:2:0:0:
161,130,235723,5,8,1:2:0:0:
256,364,235902,5,12,1:2:0:0:
256,20,236259,1,8,1:2:0:0:
256,364,236616,1,4,1:2:0:0:
256,20,236973,1,8,1:2:0:0:
20,173,237331,5,4,1:2:0:0:
20,173,237866,1,0,1:0:0:0:
47,193,237956,1,0,1:0:0:0:
80,198,238045,1,0,1:0:0:0:
112,188,238134,1,0,1:0:0:0:
209,258,238224,5,0,1:0:0:0:
270,212,238313,5,0,1:0:0:0:
343,231,238402,5,0,1:0:0:0:
363,304,238491,5,0,1:0:0:0:
303,353,238581,5,0,1:0:0:0:
229,333,238670,5,0,1:0:0:0:
178,79,238759,6,0,B|289:57|258:148|405:108,1,203.999993774414,4|10,1:2|1:0,0:0:0:0:
476,255,239027,1,0,0:0:0:0:
476,255,239116,2,0,B|470:303|470:303|488:377,1,101.999996887207,0|0,3:2|0:0,0:0:0:0:
412,185,239295,2,0,P|466:173|537:191,1,101.999996887207,10|0,1:0|0:0,0:0:0:0:
398,355,239474,2,0,P|347:361|298:349,1,101.999996887207,0|0,3:1|0:0,0:0:0:0:
156,217,239652,1,10,1:0:0:0:
203,145,239741,1,0,0:0:0:0:
289,171,239831,2,0,B|302:222|302:222|294:272,1,101.999996887207,2|0,3:1|0:0,0:0:0:0:
67,338,240009,2,0,B|53:291|53:291|63:231,1,101.999996887207,10|0,1:0|0:0,0:0:0:0:
139,33,240188,6,0,P|127:124|26:147,1,203.999993774414,4|8,3:2|1:0,0:0:0:0:
359,72,240456,2,0,P|371:163|472:186,1,203.999993774414,8|0,1:0|0:0,0:0:0:0:
247,278,240724,2,0,B|263:325|263:325|250:388,1,101.999996887207,10|0,1:0|0:0,0:0:0:0:
83,229,240902,6,0,P|131:238|200:220,1,101.999996887207,2|0,3:1|0:0,0:0:0:0:
220,51,241081,1,8,1:0:0:0:
220,51,241170,2,0,P|289:101|277:212,1,203.999993774414,10|0,1:0|0:0,0:0:0:0:
13,141,241438,2,0,P|10:98|48:42,1,101.999996887207,10|0,1:0|0:0,0:0:0:0:
131,141,241616,6,0,B|178:240|94:250|145:349,1,203.999993774414,4|10,3:2|1:0,0:0:0:0:
334,287,241884,1,0,0:0:0:0:
334,287,241974,2,0,B|277:276|277:276|209:291,1,101.999996887207,0|0,3:0|0:0,0:0:0:0:
411,246,242152,2,0,B|468:235|468:235|536:250,1,101.999996887207,10|0,1:0|0:0,0:0:0:0:
237,120,242331,6,0,P|225:83|239:19,1,101.999996887207,2|0,3:1|0:0,0:0:0:0:
469,34,242509,2,0,P|481:82|469:131,1,101.999996887207,8|0,1:0|0:0,0:0:0:0:
234,196,242688,2,0,L|115:209,1,101.999996887207,2|0,3:1|0:0,0:0:0:0:
405,352,242866,2,0,L|524:365,1,101.999996887207,10|0,1:0|0:0,0:0:0:0:
327,242,243045,6,0,B|336:195|336:195|315:132,1,101.999996887207,4|0,3:2|0:0,0:0:0:0:
46,97,243224,2,0,B|28:148|28:148|37:195,1,101.999996887207,10|0,1:0|0:0,0:0:0:0:
174,103,243402,2,0,L|167:-3,1,101.999996887207,2|0,3:1|0:0,0:0:0:0:
190,282,243581,2,0,L|183:383,1,101.999996887207,8|0,1:0|0:0,0:0:0:0:
97,294,243759,6,0,P|135:206|241:199,1,203.999993774414,4|8,3:2|1:0,0:0:0:0:
443,373,244027,2,0,P|405:285|299:278,1,203.999993774414,8|0,1:0|0:0,0:0:0:0:
490,156,244295,2,0,B|479:107|479:107|496:45,1,101.999996887207,8|0,1:0|0:0,0:0:0:0:
296,29,244474,6,0,L|411:25,1,101.999996887207,4|0,3:2|0:0,0:0:0:0:
300,173,244652,2,0,L|401:176,1,101.999996887207,10|0,1:0|0:0,0:0:0:0:
83,130,244831,2,0,P|74:181|95:244,1,101.999996887207,0|0,3:0|0:0,0:0:0:0:
243,111,245009,2,0,P|201:81|151:72,1,101.999996887207,10|0,1:0|0:0,0:0:0:0:
173,282,245188,2,0,P|226:264|256:219,1,101.999996887207,0|0,3:0|0:0,0:0:0:0:
310,374,245366,2,0,B|265:352|265:352|187:358,1,101.999996887207,10|8,1:0|1:0,0:0:0:0:
339,243,245545,2,0,P|348:288|391:342,1,101.999996887207,2|0,3:1|0:0,0:0:0:0:
106,333,245724,6,0,L|-14:352,1,101.999996887207,10|0,1:0|0:0,0:0:0:0:
133,208,245902,2,0,L|32:192,1,101.999996887207,4|0,3:2|0:0,0:0:0:0:
160,57,246081,2,0,L|59:72,1,101.999996887207,10|0,1:0|0:0,0:0:0:0:
382,61,246259,6,0,B|332:48|332:48|275:62,1,101.999996887207,0|0,3:0|0:0,0:0:0:0:
287,214,246438,2,0,B|337:227|337:227|394:213,1,101.999996887207,10|0,1:0|0:0,0:0:0:0:
260,136,246616,2,0,L|141:142,1,101.999996887207,2|0,3:1|0:0,0:0:0:0:
427,138,246795,5,8,1:0:0:0:
427,138,246884,2,0,P|505:180|500:303,1,203.999993774414,10|0,1:0|0:0,0:0:0:0:
207,254,247152,2,0,P|196:292|212:355,1,101.999996887207,10|0,1:0|0:0,0:0:0:0:
335,256,247331,6,0,B|296:153|376:175|332:39,1,203.999993774414,4|8,3:2|1:0,0:0:0:0:
264,27,247599,1,0,3:0:0:0:
225,86,247688,1,0,3:0:0:0:
154,96,247777,1,0,3:0:0:0:
86,72,247866,2,0,L|-14:87,1,101.999996887207,10|0,1:0|0:0,0:0:0:0:
146,175,248045,2,0,B|161:222|161:222|154:282,1,101.999996887207,4|0,3:2|0:0,0:0:0:0:
22,341,248224,2,0,B|6:293|6:293|17:237,1,101.999996887207,10|0,1:0|0:0,0:0:0:0:
242,240,248402,2,0,L|240:367,1,101.999996887207,2|0,3:1|0:0,0:0:0:0:
318,198,248581,2,0,P|368:206|443:193,1,101.999996887207,8|0,1:0|0:0,0:0:0:0:
371,22,248759,6,0,P|471:47|490:152,1,203.999993774414,4|8,3:2|1:0,0:0:0:0:
130,114,249027,2,0,P|30:139|11:244,1,203.999993774414,4|0,1:2|0:0,0:0:0:0:
376,373,249295,6,0,P|381:322|365:256,1,101.999996887207,4|0,1:2|0:0,0:0:0:0:
122,214,249474,2,0,P|112:263|117:314,1,101.999996887207,4|0,3:2|0:0,0:0:0:0:
349,106,249652,5,10,1:0:0:0:
266,69,249741,1,0,1:0:0:0:
206,139,249831,2,0,B|191:188|191:188|211:267,1,101.999996887207,10|0,3:1|0:0,0:0:0:0:
283,366,250009,2,0,B|298:317|298:317|285:266,1,101.999996887207,10|0,1:0|0:0,0:0:0:0:
499,207,250188,6,0,B|400:231|417:167|299:182,1,203.999993774414,4|8,3:2|1:0,0:0:0:0:
91,46,250456,1,0,0:0:0:0:
91,46,250545,2,0,P|117:37|194:47,1,101.999996887207,0|0,3:0|0:0,0:0:0:0:
203,237,250724,2,0,P|141:245|104:235,1,101.999996887207,10|0,1:0|0:0,0:0:0:0:
206,139,250902,1,2,3:1:0:0:
283,81,250991,1,0,0:0:0:0:
383,111,251081,2,0,L|492:118,1,101.999996887207,8|0,1:0|0:0,0:0:0:0:
419,306,251259,2,0,B|411:255|411:255|422:188,1,101.999996887207,2|0,3:1|0:0,0:0:0:0:
323,352,251438,1,10,1:0:0:0:
323,352,251527,6,0,P|312:277|194:240,1,203.999993774414,0|0,0:0|0:0,0:0:0:0:
6,206,251795,2,0,P|17:131|135:94,1,203.999993774414,8|0,1:0|3:0,0:0:0:0:
110,220,252063,1,0,0:0:0:0:
110,220,252152,2,0,B|104:273|104:273|119:325,1,101.999996887207,10|0,1:0|0:0,0:0:0:0:
293,151,252331,2,0,B|299:98|299:98|284:46,1,101.999996887207,2|0,3:1|0:0,0:0:0:0:
475,216,252509,5,10,1:0:0:0:
475,216,252599,2,0,P|483:146|360:95,1,203.999993774414,8|0,1:0|0:0,0:0:0:0:
231,227,252866,2,0,P|222:275|238:329,1,101.999996887207,10|0,1:0|0:0,0:0:0:0:
483,362,253045,6,0,P|394:367|339:271,1,203.999993774414,4|8,3:2|1:0,0:0:0:0:
201,153,253313,1,0,0:0:0:0:
201,153,253402,2,0,B|313:158,1,101.999996887207,0|0,3:0|0:0,0:0:0:0:
148,59,253581,2,0,L|34:69,1,101.999996887207,10|0,1:0|0:0,0:0:0:0:
8,320,253759,6,0,P|97:325|152:229,1,203.999993774414,2|8,3:1|1:0,0:0:0:0:
262,370,254027,1,0,0:0:0:0:
262,370,254116,2,0,L|255:258,1,101.999996887207,2|0,3:1|0:0,0:0:0:0:
428,49,254295,6,0,P|339:44|284:140,1,203.999993774414,10|4,1:0|3:2,0:0:0:0:
448,268,254563,1,0,0:0:0:0:
448,268,254652,2,0,B|459:218|459:218|447:153,1,101.999996887207,10|8,1:0|1:0,0:0:0:0:
146,139,254831,2,0,B|137:189|137:189|156:262,1,101.999996887207,2|0,3:1|0:0,0:0:0:0:
350,224,255009,2,0,L|238:233,1,101.999996887207,10|0,1:0|0:0,0:0:0:0:
153,44,255188,2,0,P|56:71|52:166,1,203.999993774414,4|8,3:2|1:0,0:0:0:0:
264,21,255456,6,0,P|361:48|366:140,1,203.999993774414,8|0,1:0|0:0,0:0:0:0:
468,149,255724,2,0,L|354:136,1,101.999996887207,8|0,1:0|0:0,0:0:0:0:
226,178,255902,6,0,P|222:229|233:284,1,101.999996887207,4|0,3:2|0:0,0:0:0:0:
412,356,256081,2,0,P|421:305|417:255,1,101.999996887207,10|0,1:0|0:0,0:0:0:0:
233,88,256259,2,0,P|141:145|148:235,1,203.999993774414,0|10,3:0|1:0,0:0:0:0:
306,40,256527,1,0,0:0:0:0:
306,40,256616,2,0,P|346:46|403:93,1,101.999996887207,0|0,3:0|0:0,0:0:0:0:
138,24,256795,2,0,P|98:30|41:77,1,101.999996887207,10|0,1:0|0:0,0:0:0:0:
319,173,256974,6,0,L|331:287,1,101.999996887207,2|0,3:1|0:0,0:0:0:0:
229,376,257152,2,0,L|239:274,1,101.999996887207,8|0,1:0|0:0,0:0:0:0:
22,133,257331,6,0,B|14:187|14:187|35:251,1,101.999996887207,4|0,3:2|0:0,0:0:0:0:
236,201,257509,2,0,B|244:147|244:147|223:83,1,101.999996887207,10|8,1:0|1:0,0:0:0:0:
122,182,257688,2,0,L|137:307,1,101.999996887207,0|0,3:0|0:0,0:0:0:0:
476,258,257866,2,0,L|461:383,1,101.999996887207,10|0,1:0|0:0,0:0:0:0:
294,266,258045,2,0,L|309:391,1,101.999996887207,0|0,3:0|0:0,0:0:0:0:
319,107,258224,5,10,1:0:0:0:
319,107,258313,2,0,P|369:33|485:57,1,203.999993774414,8|0,1:0|0:0,0:0:0:0:
407,108,258581,2,0,P|420:157|410:223,1,101.999996887207,10|0,1:0|0:0,0:0:0:0:
139,163,258759,6,0,B|254:143|216:207|349:185,1,203.999993774414,4|8,3:2|1:0,0:0:0:0:
98,234,259027,1,0,0:0:0:0:
50,291,259116,1,2,3:1:0:0:
92,353,259206,1,0,0:0:0:0:
243,290,259295,5,8,1:0:0:0:
205,270,259384,1,0,1:0:0:0:
169,292,259474,2,0,L|284:288,1,101.999996887207,2|0,1:0|1:0,0:0:0:0:
405,185,259652,5,8,1:0:0:0:
469,215,259741,1,0,1:0:0:0:
484,285,259831,1,2,3:1:0:0:
443,343,259920,1,0,0:0:0:0:
373,356,260009,2,0,P|363:308|372:253,1,101.999996887207,8|0,1:0|0:0,0:0:0:0:
199,67,260188,6,0,P|311:97|314:193,1,203.999993774414,4|8,3:2|1:0,0:0:0:0:
199,224,260456,1,8,1:0:0:0:
199,224,260545,2,0,L|97:233,1,101.999996887207,0|0,3:0|0:0,0:0:0:0:
12,37,260724,2,0,B|61:24|61:24|113:37,1,101.999996887207,10|0,1:0|0:0,0:0:0:0:
59,330,260902,1,4,3:2:0:0:
59,330,260991,2,0,P|12:256|64:128,1,203.999993774414,0|8,0:0|1:0,0:0:0:0:
250,319,261259,2,0,P|206:341|133:347,1,101.999996887207,0|0,3:0|0:0,0:0:0:0:
134,107,261438,2,0,P|183:103|239:121,1,101.999996887207,8|0,1:0|0:0,0:0:0:0:
144,232,261616,69,4,0:3:0:0:
256,192,261661,12,0,263759,0:0:0:0:
144,232,263938,21,2,1:0:0:0:
264,152,264116,5,2,1:0:0:0:
413,322,264295,5,2,1:0:0:0:
491,59,264474,38,0,P|401:71|322:56,1,170,4|2,1:2|0:3,0:0:0:0:
407,152,265009,2,0,P|405:197|406:251,1,85,0|0,3:0|0:0,0:0:0:0:
303,232,265366,2,0,P|309:293|308:333,1,85,0|4,3:0|0:1,0:0:0:0:
213,279,265724,1,0,3:0:0:0:
124,353,265902,69,4,0:3:0:0:
28,180,266081,1,2,0:3:0:0:
28,180,266438,2,0,L|208:168,1,170,0|0,3:0|0:0,0:0:0:0:
283,113,266974,1,2,0:3:0:0:
116,50,267152,1,0,3:0:0:0:
160,316,267331,5,4,0:2:0:0:
160,316,267509,1,0,0:0:0:0:
160,316,267866,2,0,L|257:304,1,85,0|0,3:0|0:0,0:0:0:0:
319,235,268224,2,0,L|422:246,1,85,0|2,3:0|0:3,0:0:0:0:
252,144,268581,1,0,3:0:0:0:
455,63,268759,69,4,3:1:0:0:
308,26,268938,1,8,3:0:0:0:
308,26,269027,1,0,3:0:0:0:
308,26,269116,1,0,3:0:0:0:
348,160,269295,1,2,0:0:0:0:
364,85,269474,1,8,3:0:0:0:
364,85,269652,1,2,0:0:0:0:
427,137,269831,1,8,0:3:0:0:
427,137,270009,1,0,3:0:0:0:
254,138,270188,6,0,P|166:165|165:245,1,170,4|2,0:0|0:3,0:0:0:0:
260,229,270724,2,0,P|263:295|277:331,1,85,0|0,0:0|0:0,0:0:0:0:
353,255,271081,2,0,L|453:264,1,85,0|4,3:0|0:1,0:0:0:0:
488,173,271438,2,0,L|393:184,1,85,0|2,3:0|0:3,0:0:0:0:
337,104,271795,2,0,P|334:41|342:9,1,85,0|2,3:0|0:3,0:0:0:0:
242,55,272152,2,0,P|207:95|84:86,1,170,0|2,3:0|0:0,0:0:0:0:
133,191,272688,1,4,0:1:0:0:
49,248,272866,1,2,0:0:0:0:
241,231,273045,69,4,0:0:0:0:
333,266,273224,2,0,P|326:333|330:365,1,85,0|2,3:0|0:3,0:0:0:0:
450,317,273581,2,0,P|451:274|444:232,1,85,0|0,3:0|0:0,0:0:0:0:
360,175,273938,2,0,L|265:160,1,85,0|4,3:0|0:1,0:0:0:0:
182,202,274295,2,0,L|88:222,1,85,0|2,3:0|0:3,0:0:0:0:
26,146,274652,5,0,0:0:0:0:
81,328,274831,1,2,0:3:0:0:
264,181,275009,2,0,P|272:123|237:11,1,170,0|2,3:0|0:0,0:0:0:0:
167,88,275545,1,4,0:1:0:0:
73,46,275724,1,2,0:0:0:0:
23,246,275902,69,4,0:0:0:0:
117,206,276081,2,0,L|133:314,1,85,2|2,0:0|0:3,0:0:0:0:
250,252,276438,2,0,L|235:360,1,85,2|0,0:0|0:0,0:0:0:0:
354,243,276795,2,0,L|368:351,1,85,2|4,0:0|0:1,0:0:0:0:
444,223,277152,5,2,0:0:0:0:
323,121,277331,1,0,3:0:0:0:
467,55,277509,1,2,0:0:0:0:
418,133,277688,1,2,0:3:0:0:
372,46,277866,1,2,3:2:0:0:
352,203,278224,6,0,P|358:262|352:379,1,170,4|0,0:0|0:0,0:0:0:0:
217,197,278759,69,4,0:0:0:0:
154,238,278938,2,0,P|153:303|160:345,1,85,2|2,0:0|0:3,0:0:0:0:
130,109,279295,2,0,P|91:175|-4:186,2,170,0|0|0,3:0|3:0|3:0,0:0:0:0:
290,130,280188,5,2,0:0:0:0:
170,27,280366,1,2,0:0:0:0:
221,192,280545,1,2,0:3:0:0:
254,32,280724,2,0,B|346:20|325:71|436:53,1,170,4|0,0:0|3:0,0:0:0:0:
483,99,281259,1,4,0:1:0:0:
434,160,281438,1,0,3:0:0:0:
170,118,281616,69,4,0:0:0:0:
121,174,281795,2,0,P|119:238|128:275,1,85,0|2,3:0|0:3,0:0:0:0:
237,330,282152,2,0,L|143:328,1,85,2|0,0:0|0:0,0:0:0:0:
56,367,282509,2,0,L|158:355,1,85,0|4,3:0|0:1,0:0:0:0:
217,230,282866,5,0,3:0:0:0:
29,184,283045,2,0,P|28:99|106:57,1,170,2|2,0:3|0:3,0:0:0:0:
145,110,283581,1,0,3:0:0:0:
313,20,283759,2,0,P|307:62|313:103,1,85,0|0,3:0|0:0,0:0:0:0:
475,174,284116,2,0,P|480:132|475:90,1,85,4|0,0:1|0:0,0:0:0:0:
260,192,284474,2,0,P|332:212|354:308,1,170,4|2,0:0|0:3,0:0:0:0:
434,254,285009,1,0,3:0:0:0:
234,283,285188,2,0,P|231:336|237:382,1,85,8|2,1:2|0:3,0:0:0:0:
67,196,285545,2,0,P|70:249|64:295,1,85,8|2,1:2|0:3,0:0:0:0:
254,42,285902,69,4,0:3:0:0:
254,42,286438,1,4,0:1:0:0:
228,46,286616,1,4,0:1:0:0:
202,49,286795,1,4,0:1:0:0:
176,52,286974,1,4,0:1:0:0:
150,56,287152,1,4,0:1:0:0:
412,157,287331,6,2,B|341:180|341:180|269:149,1,153,4|0,1:2|0:0,0:1:0:0:
245,227,288224,5,8,1:2:0:0:
245,227,288402,1,8,1:2:0:0:
245,227,288581,1,8,1:2:0:0:
245,227,288759,6,0,P|227:296|90:303,1,212.5,4|8,3:2|1:0,0:0:0:0:
136,130,289027,1,0,0:0:0:0:
136,130,289116,2,0,P|151:169|140:236,1,106.25,0|0,3:0|0:0,0:0:0:0:
3,127,289295,2,0,P|-7:75|9:25,1,106.25,10|0,1:0|0:0,0:0:0:0:
186,30,289474,2,0,L|318:19,1,106.25,0|0,3:0|0:0,0:0:0:0:
407,101,289652,1,10,1:0:0:0:
348,164,289741,1,8,1:0:0:0:
399,232,289831,2,0,B|452:243|452:243|514:224,1,106.25,0|0,3:1|0:0,0:0:0:0:
241,122,290009,2,0,L|131:130,1,106.25,10|0,1:0|1:0,1:0:0:0:
17,228,290188,6,0,P|131:238|177:321,1,212.5,4|8,3:2|1:0,0:0:0:0:
307,238,290456,1,0,0:0:0:0:
307,238,290545,2,0,B|295:291|295:291|312:357,1,106.25,0|0,3:0|0:0,0:0:0:0:
497,159,290724,2,0,B|509:209|509:209|497:262,1,106.25,10|0,1:0|0:0,0:0:0:0:
261,83,290902,5,0,3:1:0:0:
261,83,290991,2,0,P|356:102|397:206,1,212.5,10|8,1:0|1:0,0:0:0:0:
190,137,291259,2,0,L|72:149,1,106.25,2|0,3:1|0:0,0:0:0:0:
217,233,291438,2,0,P|210:290|226:348,1,106.25,8|0,1:0|0:0,0:0:0:0:
512,307,291616,6,0,B|387:278|414:349|300:315,1,212.5,4|10,3:2|1:0,0:0:0:0:
454,208,291884,1,0,0:0:0:0:
454,208,291974,2,0,P|458:140|438:89,1,106.25,0|0,3:0|0:0,0:0:0:0:
250,31,292152,2,0,L|371:35,1,106.25,0|0,1:0|0:0,0:0:0:0:
120,212,292331,6,0,B|108:268|108:268|123:326,1,106.25,4|0,3:2|0:0,0:0:0:0:
344,240,292509,2,0,B|354:186|354:186|336:121,1,106.25,8|0,1:0|0:0,0:0:0:0:
17,128,292688,2,0,L|146:116,1,106.25,2|0,3:1|0:0,0:0:0:0:
397,337,292866,2,0,L|268:325,1,106.25,10|0,1:0|0:0,0:0:0:0:
406,83,293045,6,0,P|491:161|473:265,1,212.5,4|10,3:2|1:0,0:0:0:0:
252,150,293313,1,8,1:0:0:0:
252,150,293402,2,0,L|254:31,1,106.25,0|0,3:2|0:0,0:0:0:0:
85,194,293581,2,0,P|59:237|66:296,1,106.25,10|0,1:0|0:0,0:0:0:0:
261,236,293759,5,4,3:2:0:0:
261,236,293849,2,0,P|363:266|379:375,1,212.5,8|8,1:0|1:0,0:0:0:0:
278,313,294116,2,0,P|235:322|192:364,1,106.25,0|0,3:0|0:0,0:0:0:0:
357,155,294295,2,0,P|390:154|474:193,1,106.25,8|0,1:0|0:0,0:0:0:0:
228,45,294474,6,0,P|183:29|98:32,1,106.25,4|0,3:2|0:0,0:0:0:0:
0,137,294652,2,0,P|45:121|130:124,1,106.25,10|0,1:0|0:0,0:0:0:0:
104,299,294831,2,0,P|51:297|0:280,1,106.25,2|0,3:1|0:0,0:0:0:0:
259,348,295009,6,0,P|214:364|129:361,1,106.25,10|0,1:0|0:0,0:0:0:0:
152,194,295188,2,0,P|204:195|255:212,1,106.25,2|0,3:1|0:0,0:0:0:0:
409,279,295366,2,0,L|277:273,1,106.25,8|0,1:0|0:0,0:0:0:0:
389,181,295545,2,0,L|521:175,1,106.25,2|0,3:1|0:0,0:0:0:0:
288,26,295724,6,0,B|280:83|280:83|294:137,1,106.25,10|0,1:0|0:0,0:0:0:0:
36,212,295902,2,0,B|42:158|42:158|28:97,1,106.25,4|0,3:2|0:0,0:0:0:0:
192,249,296081,1,8,1:0:0:0:
192,249,296170,2,0,P|301:295|294:391,1,212.5,8|0,1:0|0:0,0:0:0:0:
116,293,296438,2,0,P|108:238|118:185,1,106.25,10|0,1:0|0:0,0:0:0:0:
193,59,296616,2,0,L|80:67,1,106.25,2|0,3:1|0:0,0:0:0:0:
278,131,296795,1,8,1:0:0:0:
278,131,296884,2,0,P|374:197|455:157,1,212.5,8|0,1:0|0:0,0:0:0:0:
371,11,297152,2,0,P|362:46|375:116,1,106.25,10|0,1:0|0:0,0:0:0:0:
254,274,297331,6,0,B|361:257|349:333|471:300,1,212.5,4|10,3:2|1:0,0:0:0:0:
225,199,297599,1,0,0:0:0:0:
162,247,297688,1,2,3:1:0:0:
190,318,297777,1,0,3:0:0:0:
278,131,297866,5,8,1:0:0:0:
288,93,297956,1,0,0:0:0:0:
266,55,298045,2,0,L|157:64,1,106.25,2|0,3:1|0:0,0:0:0:0:
0,137,298224,2,0,L|109:146,1,106.25,10|8,1:0|1:0,0:0:0:0:
321,222,298402,2,0,P|338:273|325:338,1,106.25,0|0,3:0|0:0,0:0:0:0:
75,371,298581,2,0,P|68:318|85:268,1,106.25,8|0,1:0|0:0,0:0:0:0:
410,100,298759,6,0,P|488:179|456:276,1,212.5,4|8,1:2|1:0,0:0:0:0:
31,219,299027,2,0,P|10:120|86:52,1,212.5,4|8,1:2|1:0,0:0:0:0:
319,40,299295,6,0,B|333:94|333:94|322:170,1,106.25,4|0,1:2|0:0,0:0:0:0:
177,18,299474,2,0,B|163:72|163:72|174:148,1,106.25,10|0,1:0|0:0,0:0:0:0:
278,209,299652,5,8,1:0:0:0:
333,274,299741,1,8,1:2:0:0:
292,355,299831,1,12,1:2:0:0:
153,264,299920,5,8,1:2:0:0:
149,225,300009,1,8,1:0:0:0:
176,201,300099,1,8,1:2:0:0:
248,126,300188,6,0,B|369:145|341:82|468:96,1,212.5,4|8,3:2|1:0,0:0:0:0:
414,190,300456,1,0,0:0:0:0:
414,190,300545,2,0,B|406:239|406:239|420:313,1,106.25,0|0,3:0|0:0,0:0:0:0:
185,350,300724,2,0,L|290:354,1,106.25,10|0,1:0|0:0,0:0:0:0:
48,186,300902,2,0,B|56:235|56:235|42:309,1,106.25,2|0,3:1|0:0,0:0:0:0:
140,71,301081,1,8,1:0:0:0:
223,35,301170,1,0,0:0:0:0:
308,75,301259,2,0,P|306:131|314:195,1,106.25,2|0,3:1|0:0,0:0:0:0:
185,169,301438,2,0,P|191:224|188:290,1,106.25,10|0,1:0|0:0,0:0:0:0:
512,372,301616,6,0,P|473:287|344:283,1,212.5,4|10,3:2|1:0,0:0:0:0:
483,108,301884,1,8,1:0:0:0:
483,108,301974,2,0,B|497:162|497:162|485:218,1,106.25,0|0,3:0|0:0,0:0:0:0:
276,348,302152,2,0,B|262:294|262:294|274:238,1,106.25,10|0,1:0|0:0,0:0:0:0:
196,41,302331,2,0,L|326:31,1,106.25,0|0,3:0|0:0,0:0:0:0:
90,270,302509,5,10,1:0:0:0:
90,270,302599,2,0,P|18:200|48:97,1,212.5,8|0,1:0|0:0,0:0:0:0:
107,171,302866,2,0,P|157:156|209:168,1,106.25,10|0,1:0|0:0,0:0:0:0:
276,348,303045,6,0,L|517:332,1,212.5,4|8,3:2|1:0,0:0:0:0:
323,259,303313,1,0,0:0:0:0:
323,259,303402,2,0,B|314:207|314:207|327:133,1,106.25,0|0,3:0|0:0,0:0:0:0:
504,205,303581,2,0,L|393:211,1,106.25,10|0,1:0|0:0,0:0:0:0:
36,103,303759,6,0,L|75:-13,1,106.25,4|0,3:2|0:0,0:0:0:0:
254,108,303938,2,0,L|215:-8,1,106.25,10|8,1:0|1:0,0:0:0:0:
105,199,304116,2,0,P|46:191|-18:222,1,106.25,0|0,3:0|0:0,0:0:0:0:
221,273,304295,2,0,P|323:280|368:372,1,212.5,10|4,1:0|3:2,0:0:0:0:
132,333,304563,5,0,0:0:0:0:
132,333,304652,2,0,L|8:341,1,106.25,10|8,1:0|1:0,0:0:0:0:
212,185,304831,2,0,L|336:193,1,106.25,0|0,3:0|0:0,0:0:0:0:
356,29,305009,2,0,B|348:82|348:82|364:144,1,106.25,10|0,1:0|0:0,0:0:0:0:
368,370,305188,2,0,B|381:319|381:319|373:266,1,106.25,4|0,3:2|0:0,0:0:0:0:
167,64,305366,5,10,1:0:0:0:
167,64,305456,2,0,P|83:150|114:235,1,212.5,8|0,1:0|0:0,0:0:0:0:
220,265,305724,2,0,P|230:321|218:380,1,106.25,10|0,1:0|0:0,0:0:0:0:
12,316,305902,6,0,B|64:309|64:309|127:317,1,106.25,4|0,3:2|0:0,0:0:0:0:
391,202,306081,2,0,B|339:195|339:195|276:203,1,106.25,8|0,1:0|0:0,0:0:0:0:
397,110,306259,2,0,L|504:102,1,106.25,2|0,3:1|0:0,0:0:0:0:
272,71,306438,2,0,L|165:63,1,106.25,8|0,1:0|0:0,0:0:0:0:
473,182,306616,2,0,P|486:240|470:293,1,106.25,2|0,3:1|0:0,0:0:0:0:
221,369,306795,2,0,P|208:311|224:258,1,106.25,10|0,1:0|3:0,0:0:0:0:
409,333,306974,2,0,L|284:320,1,106.25,2|0,3:1|0:0,0:0:0:0:
51,202,307152,2,0,L|157:192,1,106.25,10|0,1:0|0:0,0:0:0:0:
70,21,307331,6,0,P|63:77|79:136,1,106.25,4|0,3:2|0:0,0:0:0:0:
296,224,307509,2,0,P|303:168|287:109,1,106.25,8|8,1:0|1:0,0:0:0:0:
504,84,307688,2,0,L|385:98,1,106.25,2|0,3:1|0:0,0:0:0:0:
192,246,307866,1,8,1:0:0:0:
192,246,307956,2,0,P|288:331|364:306,1,212.5,8|0,1:0|0:0,0:0:0:0:
310,32,308224,1,10,1:0:0:0:
310,32,308313,2,0,B|254:14|189:40,1,106.25,8|2,1:0|3:1,0:0:0:0:
129,25,308491,1,0,1:0:0:0:
94,103,308581,1,8,1:0:0:0:
10,89,308670,1,0,1:0:0:0:
10,89,308759,2,0,P|1:144|20:208,1,106.25,4|0,1:2|0:0,0:0:0:0:
158,194,308938,5,2,0:0:0:0:
154,268,309027,1,2,0:0:0:0:
204,321,309116,1,4,1:2:0:0:
278,326,309206,1,2,0:0:0:0:
273,167,309295,5,2,0:0:0:0:
250,187,309384,1,2,0:0:0:0:
253,219,309474,1,4,1:2:0:0:
281,205,309563,1,2,0:0:0:0:
374,180,309652,5,2,0:0:0:0:
353,97,309741,1,2,0:0:0:0:
274,61,309831,1,4,1:2:0:0:
195,94,309920,1,2,0:0:0:0:
345,263,310009,5,2,0:0:0:0:
370,282,310099,1,2,0:0:0:0:
401,302,310188,69,4,1:2:0:0:
92,101,310366,1,8,3:0:0:0:
97,107,310634,1,0,3:0:0:0:
97,107,310724,1,8,1:3:0:0:
426,106,310902,5,0,1:0:0:0:
87,305,311081,1,8,3:0:0:0:
255,15,311259,69,0,1:0:0:0:
259,363,311438,1,0,3:0:0:0:
6,31,311616,5,4,0:0:0:0:
256,192,311661,12,0,313759,0:0:0:0:
6,31,313938,5,2,1:0:0:0:
144,107,314116,5,2,1:0:0:0:
325,20,314295,5,2,1:0:0:0:
488,188,314474,6,0,B|271:198,1,212.5,4|10,3:2|1:0,0:0:0:0:
442,352,314741,1,0,0:0:0:0:
442,352,314831,2,0,L|312:336,1,106.25,0|0,3:0|0:0,0:0:0:0:
38,289,315009,2,0,P|30:236|53:156,1,106.25,8|0,1:0|0:0,0:0:0:0:
233,258,315188,2,0,P|245:309|225:387,1,106.25,0|0,3:0|0:0,0:0:0:0:
136,196,315366,5,10,1:0:0:0:
176,107,315456,1,0,3:0:0:0:
281,118,315545,2,0,L|386:106,1,106.25,2|0,3:1|0:0,0:0:0:0:
463,261,315724,2,0,B|449:212|449:212|462:148,1,106.25,10|0,1:0|0:0,0:0:0:0:
189,27,315902,6,0,P|68:63|71:150,1,212.5,4|8,3:2|1:0,0:0:0:0:
302,206,316170,1,8,1:0:0:0:
302,206,316259,2,0,P|316:257|308:325,1,106.25,0|0,3:0|0:0,0:0:0:0:
108,358,316438,2,0,P|104:305|118:254,1,106.25,10|0,1:0|0:0,0:0:0:0:
382,359,316616,6,0,L|493:362,1,106.25,4|0,3:2|0:0,0:0:0:0:
212,193,316795,1,8,1:0:0:0:
212,193,316884,2,0,P|177:133|34:130,1,212.5,8|0,1:0|0:0,0:0:0:0:
357,22,317152,2,0,B|345:75|345:75|363:140,1,106.25,8|0,1:0|0:0,0:0:0:0:
480,250,317331,6,0,L|491:123,1,106.25,2|0,3:1|0:0,0:0:0:0:
277,352,317509,2,0,P|279:251|388:218,1,212.5,12|0,1:2|3:0,0:0:0:0:
262,122,317777,1,0,0:0:0:0:
262,122,317866,2,0,P|266:70|251:10,1,106.25,8|0,1:0|0:0,0:0:0:0:
7,161,318045,2,0,B|117:141|93:219|231:189,1,212.5,4|8,3:2|1:0,0:0:0:0:
46,251,318313,1,0,0:0:0:0:
46,251,318402,2,0,P|42:302|54:357,1,106.25,2|0,3:1|0:0,0:0:0:0:
231,305,318581,2,0,L|117:296,1,106.25,8|0,1:0|0:0,0:0:0:0:
414,178,318759,6,0,L|287:198,1,106.25,2|0,3:1|0:0,0:0:0:0:
155,31,318938,2,0,P|270:40|308:118,1,212.5,12|0,1:2|3:0,0:0:0:0:
503,246,319206,1,0,0:0:0:0:
503,246,319295,2,0,P|492:298|497:353,1,106.25,10|0,1:0|0:0,0:0:0:0:
346,296,319474,2,0,L|125:276,1,212.5,4|10,3:2|1:0,0:0:0:0:
86,78,319741,2,0,P|12:156|45:250,1,212.5,8|0,1:0|0:0,0:0:0:0:
214,151,320009,2,0,L|92:170,1,106.25,10|0,1:0|0:0,0:0:0:0:
305,200,320188,6,0,B|316:150|316:150|294:89,1,106.25,0|0,3:0|0:0,0:0:0:0:
398,161,320366,2,0,L|503:152,1,106.25,10|0,1:0|0:0,0:0:0:0:
508,183,320545,2,0,L|395:173,1,106.25,2|0,3:1|0:0,0:0:0:0:
229,236,320724,2,0,L|124:227,1,106.25,10|0,1:0|0:0,0:0:0:0:
119,258,320903,2,0,L|232:248,1,106.25,2|0,3:1|0:0,0:0:0:0:
366,298,321081,2,0,L|471:289,1,106.25,10|0,1:0|0:0,0:0:0:0:
476,320,321260,2,0,L|363:310,1,106.25,2|0,3:1|0:0,0:0:0:0:
249,344,321438,2,0,L|144:335,1,106.25,10|0,1:0|0:0,0:0:0:0:
306,234,321616,6,0,P|314:188|303:125,1,106.25,0|0,3:1|0:0,0:0:0:0:
54,96,321795,2,0,P|44:148|52:200,1,106.25,10|0,1:0|0:0,0:0:0:0:
186,114,321974,2,0,L|170:6,1,106.25,2|2,3:1|3:1,0:0:0:0:
397,200,322152,2,0,P|411:104|514:54,1,212.5,10|0,1:0|3:0,0:0:0:0:
227,198,322420,1,0,0:0:0:0:
227,198,322509,2,0,P|223:258|237:314,1,106.25,10|8,1:0|1:0,0:0:0:0:
459,364,322688,2,0,P|469:312|464:259,1,106.25,2|0,3:1|0:0,0:0:0:0:
269,370,322866,2,0,B|316:360|316:360|391:374,1,106.25,10|0,1:0|0:0,0:0:0:0:
264,109,323045,6,0,B|150:87|170:165|45:148,1,212.5,4|8,3:2|1:0,0:0:0:0:
86,227,323313,1,0,3:0:0:0:
53,254,323402,1,0,3:0:0:0:
48,296,323491,1,0,3:0:0:0:
72,331,323581,1,10,1:0:0:0:
113,338,323670,1,0,0:0:0:0:
181,274,323759,5,0,3:0:0:0:
253,255,323849,1,0,3:0:0:0:
319,286,323938,1,10,1:0:0:0:
331,359,324027,1,0,0:0:0:0:
375,224,324116,6,0,B|366:170|366:170|381:115,1,106.25,4|0,3:2|0:0,0:0:0:0:
98,15,324295,2,0,B|111:64|111:64|102:118,1,106.25,10|0,1:0|0:0,0:0:0:0:
270,48,324474,6,0,L|512:31,1,212.5,4|8,3:2|1:0,0:0:0:0:
221,222,324741,1,8,1:0:0:0:
221,222,324831,2,0,L|-21:205,1,212.5,4|8,3:2|1:0,0:0:0:0:
290,352,325099,5,8,1:0:0:0:
370,310,325188,1,0,0:0:0:0:
453,345,325277,2,0,B|460:291|460:291|445:240,1,106.25,8|0,1:0|0:0,0:0:0:0:
512,179,325456,1,0,0:0:0:0:
512,179,325545,2,0,B|459:191|459:191|416:224,1,106.25,4|0,3:2|0:0,0:0:0:0:
329,190,325724,2,0,B|367:228|367:228|416:248,1,106.25,10|0,1:0|0:0,0:0:0:0:
404,68,325902,6,0,B|289:107|306:38|185:57,1,212.5,4|10,3:2|1:0,0:0:0:0:
64,138,326170,1,0,0:0:0:0:
64,138,326259,2,0,P|130:131|187:142,1,106.25,4|0,3:2|0:0,0:0:0:0:
213,342,326438,2,0,P|147:349|90:338,1,106.25,10|0,1:0|0:0,0:0:0:0:
13,239,326616,2,0,L|141:235,1,106.25,0|0,3:0|0:0,0:0:0:0:
248,166,326795,5,8,1:0:0:0:
322,207,326884,1,0,3:0:0:0:
372,143,326974,1,2,3:1:0:0:
420,164,327063,1,0,0:0:0:0:
463,133,327152,2,0,B|412:121|412:121|355:130,1,106.25,10|0,1:0|0:0,0:0:0:0:
144,27,327331,6,0,L|365:41,1,212.5,4|10,3:2|1:0,0:0:0:0:
145,105,327599,1,8,1:0:0:0:
112,131,327688,1,2,3:1:0:0:
113,173,327777,1,0,0:0:0:0:
188,218,327866,5,8,1:0:0:0:
256,277,327956,1,0,0:0:0:0:
203,352,328045,2,0,P|87:375|40:288,1,212.5,4|8,3:2|1:0,0:0:0:0:
317,186,328313,2,0,P|433:209|480:122,1,212.5,12|0,1:2|0:0,0:0:0:0:
227,122,328581,2,0,L|219:7,1,106.25,12|0,1:2|0:0,0:0:0:0:
46,162,328759,6,0,P|33:112|46:48,1,106.25,2|0,3:1|0:0,0:0:0:0:
149,200,328938,2,0,P|252:226|272:327,1,212.5,12|0,1:2|3:0,0:0:0:0:
450,330,329206,1,0,0:0:0:0:
450,330,329295,2,0,B|393:317|393:317|341:331,1,106.25,8|0,1:0|0:0,0:0:0:0:
398,115,329474,2,0,L|393:-21,1,106.25,2|0,3:1|0:0,0:0:0:0:
471,65,329652,2,0,P|485:110|469:182,1,106.25,10|0,1:0|0:0,0:0:0:0:
319,163,329831,2,0,P|309:111|324:60,1,106.25,2|0,3:1|0:0,0:0:0:0:
479,65,330009,2,0,P|493:110|477:182,1,106.25,10|0,1:0|0:0,0:0:0:0:
275,222,330188,6,0,L|265:-14,1,212.5,4|8,3:2|1:0,0:0:0:0:
367,228,330456,1,8,1:0:0:0:
367,228,330545,2,0,P|410:228|472:258,1,106.25,2|0,3:1|0:0,0:0:0:0:
197,240,330724,2,0,P|154:246|92:292,1,106.25,8|0,1:0|0:0,0:0:0:0:
8,44,330902,6,0,P|114:82|118:174,1,212.5,4|8,3:2|1:0,0:0:0:0:
512,15,331170,2,0,P|406:53|402:145,1,212.5,12|0,1:2|0:0,0:0:0:0:
195,37,331438,2,0,B|250:48|250:48|309:32,1,106.25,12|0,1:2|0:0,0:0:0:0:
263,191,331616,6,0,L|273:321,1,106.25,2|0,3:1|0:0,0:0:0:0:
377,327,331795,1,8,1:0:0:0:
397,323,331884,1,0,0:0:0:0:
417,329,331974,1,0,3:0:0:0:
437,322,332063,1,0,1:0:0:0:
470,343,332152,2,0,B|423:338|423:338|353:352,1,106.25,8|0,1:0|0:0,0:0:0:0:
170,262,332331,1,2,3:1:0:0:
139,253,332420,1,0,3:0:0:0:
112,270,332509,1,8,1:0:0:0:
81,260,332599,1,0,0:0:0:0:
74,290,332688,2,0,B|124:278|124:278|177:292,1,106.25,0|0,3:0|0:0,0:0:0:0:
346,183,332866,1,8,1:0:0:0:
394,204,332956,1,0,3:0:0:0:
439,176,333045,6,0,P|395:106|277:122,1,212.5,2|8,3:1|1:0,0:0:0:0:
137,70,333313,1,8,1:0:0:0:
137,70,333402,2,0,L|18:86,1,106.25,2|0,3:1|0:0,0:0:0:0:
183,202,333581,1,8,1:0:0:0:
205,199,333670,1,0,0:0:0:0:
227,214,333759,2,0,L|107:204,1,106.25,2|0,3:1|3:0,0:0:0:0:
16,214,333938,2,0,L|136:204,1,106.25,10|0,1:0|3:0,0:0:0:0:
279,279,334116,1,2,3:1:0:0:
347,243,334206,1,0,0:0:0:0:
412,280,334295,1,8,1:0:0:0:
487,262,334384,1,0,0:0:0:0:
487,262,334474,6,0,B|363:237|389:305|266:277,1,212.5,4|10,3:2|1:0,0:0:0:0:
457,157,334741,1,0,3:0:0:0:
462,125,334831,1,0,3:0:0:0:
453,94,334920,1,0,0:0:0:0:
383,38,335009,5,10,1:0:0:0:
313,10,335099,1,0,0:0:0:0:
251,51,335188,1,2,3:1:0:0:
70,134,335277,5,0,3:0:0:0:
142,183,335367,1,10,1:0:0:0:
208,122,335456,1,0,0:0:0:0:
136,57,335545,6,0,B|80:46|80:46|9:60,1,106.25,2|0,3:1|0:0,0:0:0:0:
23,285,335724,2,0,B|79:296|79:296|150:282,1,106.25,10|0,1:0|0:0,0:0:0:0:
511,361,335902,6,0,P|496:256|383:205,1,212.5,4|8,3:2|1:0,0:0:0:0:
347,51,336170,1,0,0:0:0:0:
347,51,336259,2,0,B|238:19|243:82|123:55,1,212.5,4|8,3:2|1:0,0:0:0:0:
101,204,336527,1,0,0:0:0:0:
101,204,336616,2,0,P|13:259|1:361,1,212.5,4|8,3:2|1:0,0:0:0:0:
129,305,336884,1,8,1:0:0:0:
129,305,336974,2,0,P|178:316|219:366,1,106.25,0|0,3:0|0:0,0:0:0:0:
197,235,337152,2,0,P|183:174|189:121,1,106.25,8|0,1:0|0:0,0:0:0:0:
423,37,337331,5,4,3:2:0:0:
256,192,337375,12,0,339474,0:0:0:0:
452,146,339652,5,2,1:0:0:0:
34,209,339831,5,2,1:0:0:0:
478,306,340009,5,2,1:0:0:0:
75,28,340188,37,4,1:2:0:0:
75,28,340788,37,0,2:2:0:0:
166,42,341264,5,0,0:0:0:0:
262,55,341785,5,0,0:0:0:0:
25,275,342330,5,0,0:0:0:0:
25,275,342687,1,0,0:0:0:0:
104,293,343044,5,0,0:0:0:0:
265,261,343580,5,0,0:0:0:0:
60,185,344115,5,0,0:0:0:0:
290,136,344651,5,0,0:0:0:0:
40,76,345187,5,0,0:0:0:0:
502,16,345544,5,4,0:0:0:0:
485,35,348520,6,0,L|487:73,1,28.3333333333333
465,37,348639,2,0,L|474:73,1,28.3333333333333
448,47,348758,2,0,L|466:82,1,28.3333333333333
430,61,348877,2,0,L|458:92,1,28.3333333333333
421,84,348996,5,4,0:0:0:0:
