osu file format v13

[General]
AudioFilename: 06..mp3
AudioLeadIn: 0
PreviewTime: 94977
Countdown: 0
SampleSet: Soft
StackLeniency: 0.7
Mode: 0
LetterboxInBreaks: 1
WidescreenStoryboard: 0

[Editor]
DistanceSpacing: 1.2
BeatDivisor: 4
GridSize: 4
TimelineZoom: 2.4

[Metadata]
Title:Kutsu no Ne o, Hibikasete, Sono Te o
TitleUnicode:靴の音を、響かせて、その手を
Artist:Meramipop
ArtistUnicode:めらみぽっぷ
Creator:Sakaue Nachi
Version:Lunatic
Source:Touhou
Tags:zun rd sounds 明治十七年の上海アリス sharlo hong meirin irodori withered leaf
BeatmapID:352603
BeatmapSetID:141354

[Difficulty]
HPDrainRate:6
CircleSize:4.5
OverallDifficulty:7
ApproachRate:8
SliderMultiplier:1.8
SliderTickRate:2

[Events]
//Background and Video events
0,0,"bg.jpg",0,0
//Break Periods
//Storyboard Layer 0 (Background)
//Storyboard Layer 1 (Fail)
//Storyboard Layer 2 (Pass)
//Storyboard Layer 3 (Foreground)
//Storyboard Sound Samples
//Background Colour Transformations
3,100,163,162,255

[TimingPoints]
403,458.015267175573,4,2,1,50,1,0
21586,-100,4,2,1,35,0,0
21700,-100,4,2,1,50,0,0
29601,-100,4,2,1,60,0,0
35784,-100,4,2,1,35,0,0
36299,-100,4,2,1,60,0,0
36528,-100,4,2,1,35,0,0
36986,-100,4,2,1,60,0,0
39563,-90.9090909090909,4,2,1,60,0,0
40021,-100,4,2,1,60,0,0
41051,-105.263157894737,4,2,1,60,0,0
41509,-111.111111111111,4,2,1,60,0,0
41967,-117.647058823529,4,2,1,60,0,0
42425,-100,4,2,1,60,0,0
44372,-100,4,2,1,70,0,0
70364,-100,4,2,1,50,0,0
70479,-100,4,2,1,75,0,0
72769,-100,4,2,1,50,0,0
73112,-100,4,2,1,60,0,0
73341,-100,4,2,1,45,0,0
73685,-133.333333333333,4,2,1,75,0,0
74143,-100,4,2,1,75,0,0
95670,-100,4,2,1,85,0,1
102540,-100,4,2,1,70,0,1
102654,-100,4,2,1,45,0,1
102998,-100,4,2,1,85,0,1
105173,-100,4,2,1,60,0,1
105288,-100,4,2,1,85,0,1
112044,-100,4,2,1,60,0,1
112158,-100,4,2,1,85,0,1
114448,-66.6666666666667,4,2,1,85,0,1
114792,-100,4,2,1,50,0,1
114906,-100,4,2,1,85,0,1
115364,-66.6666666666667,4,2,1,85,0,1
115708,-100,4,2,1,50,0,1
115822,-100,4,2,1,85,0,1
117196,-100,4,2,1,65,0,1
117311,-100,4,2,1,45,0,1
117654,-100,4,2,1,85,0,1
123494,-100,4,2,1,55,0,1
123609,-100,4,2,1,50,0,1
124067,-153.846153846154,4,2,1,70,0,1
124410,-200,4,2,1,55,0,1
124983,-166.666666666667,4,2,1,45,0,0
125441,-200,4,2,1,25,0,0
125555,-100,4,2,1,40,0,0
126815,-100,4,2,1,28,0,0
127044,-100,4,2,1,18,0,0
127273,-100,4,2,1,5,0,0

[Colours]
Combo1 : 202,158,157
Combo2 : 239,94,98
Combo3 : 178,157,222
Combo4 : 56,190,197

[HitObjects]
40,184,15059,6,0,P|12:240|4:280,1,90,4|0,0:0|0:0,0:0:0:0:
128,168,15517,2,0,P|156:112|164:72,1,90,8|0,0:0|0:0,0:0:0:0:
128,168,15975,1,2,0:0:0:0:
246,153,16204,1,0,0:0:0:0:
231,34,16433,1,8,0:0:0:0:
113,49,16662,1,0,0:0:0:0:
128,168,16891,5,0,0:0:0:0:
246,153,17120,2,0,P|290:146|351:165,1,90,0|8,0:0|0:0,0:0:0:0:
241,235,17578,2,0,P|176:198|170:128,1,135,0|2,0:0|0:3,0:0:0:0:
189,124,18036,2,0,L|221:85,1,45,2|2,0:0|0:0,0:0:0:0:
216,59,18265,2,0,L|108:59,1,90,8|0,0:0|0:0,0:0:0:0:
176,198,18723,5,2,0:0:0:0:
282,91,18952,1,0,0:0:0:0:
282,91,19067,1,0,0:0:0:0:
282,91,19181,2,0,P|286:45|241:-11,1,90,8|0,0:0|0:0,0:0:0:0:
176,198,19639,2,0,L|240:198,1,45,2|0,0:0|0:0,0:0:0:0:
109,167,19868,2,0,P|104:211|124:251,1,90,0|8,0:0|0:0,0:0:0:0:
246,126,20326,1,0,0:0:0:0:
192,272,20555,5,0,0:0:0:0:
109,167,20784,1,0,0:0:0:0:
231,200,21013,1,8,0:0:0:0:
126,299,21242,2,0,P|158:335|258:303,1,135,2|0,0:0|0:0,0:0:0:0:
270,261,21700,1,0,0:0:0:0:
270,126,21929,1,8,0:0:0:0:
270,126,22044,2,0,L|270:75,1,45
211,275,22387,6,0,P|171:295|127:299,1,90,6|0,0:0|0:0,0:0:0:0:
127,113,22845,2,0,P|146:152|149:197,1,90,8|0,0:0|0:0,0:0:0:0:
43,179,23303,1,2,0:0:0:0:
127,113,23532,1,0,0:0:0:0:
229,147,23761,1,8,0:0:0:0:
321,91,23990,1,0,0:0:0:0:
438,171,24219,5,0,0:0:0:0:
438,171,24448,2,0,P|421:219|375:264,1,90,0|8,0:0|0:0,0:0:0:0:
256,328,24906,2,0,P|256:234|319:214,1,135,2|2,0:0|0:3,0:0:0:0:
352,297,25364,2,0,L|302:281,1,45,2|2,0:0|0:0,0:0:0:0:
349,202,25593,2,0,P|325:164|283:149,1,90,8|0,0:0|0:0,0:0:0:0:
198,241,26051,5,2,0:0:0:0:
197,132,26280,1,0,0:0:0:0:
197,132,26395,1,0,0:0:0:0:
197,132,26509,2,0,P|221:86|267:51,1,90,8|0,0:0|0:0,0:0:0:0:
198,241,26967,2,0,P|154:268|96:275,1,90,2|0,0:0|0:0,0:0:0:0:
15,110,27425,2,0,P|59:83|117:76,1,90,8|0,0:0|0:0,0:0:0:0:
262,66,27883,5,2,0:0:0:0:
396,65,28112,1,0,0:0:0:0:
327,184,28341,1,8,0:0:0:0:
262,66,28570,2,0,L|407:65,1,135,2|0,0:0|0:0,0:0:0:0:
396,65,29028,1,0,0:0:0:0:
396,65,29257,5,8,0:0:0:0:
396,65,29372,2,0,L|336:65,1,45
428,328,29715,6,0,B|443:300|459:264|433:226|405:215|405:215|328:204,1,180,4|8,0:0|0:0,0:0:0:0:
274,271,30403,1,0,0:0:0:0:
274,271,30632,2,0,L|376:283,1,90,2|0,0:0|0:0,0:0:0:0:
454,151,31090,2,0,L|364:140,1,90,8|0,0:0|0:0,0:0:0:0:
270,64,31548,5,0,0:0:0:0:
406,27,31777,1,0,0:0:0:0:
270,64,32006,1,8,0:0:0:0:
406,27,32235,2,0,P|448:28|505:52,2,90,0|2|0,0:0|0:0|0:0,0:0:0:0:
383,26,32807,1,0,0:0:0:0:
360,28,32922,1,8,0:0:0:0:
233,112,33151,1,0,0:0:0:0:
115,44,33380,5,0,0:0:0:0:
226,130,33609,1,0,0:0:0:0:
89,117,33838,1,8,0:0:0:0:
230,148,34067,1,0,0:0:0:0:
100,194,34296,1,0,0:0:0:0:
241,166,34525,1,0,0:0:0:0:
127,266,34754,2,0,P|79:291|8:291,1,90,8|0,0:0|0:0,0:0:0:0:
49,118,35212,6,0,P|64:67|112:16,2,90,0|0|8,0:0|0:0|0:0,0:0:0:0:
140,234,35899,1,8,0:3:0:0:
149,213,36013,1,8,0:3:0:0:
153,190,36128,1,8,0:3:0:0:
150,167,36242,1,8,0:3:0:0:
140,146,36357,2,0,P|116:130|86:130,1,45,2|2,0:0|0:0,0:0:0:0:
60,154,36586,1,8,0:3:0:0:
53,175,36700,1,8,0:3:0:0:
49,197,36815,1,8,0:3:0:0:
51,219,36929,1,8,0:3:0:0:
56,240,37044,6,0,P|91:317|196:328,1,180,6|8,0:0|0:0,0:0:0:0:
56,240,37731,1,0,0:0:0:0:
136,120,37960,2,0,P|184:120|240:156,1,90,2|0,0:0|0:0,0:0:0:0:
376,196,38418,2,0,P|338:220|294:226,1,90,8|0,0:0|0:0,0:0:0:0:
164,227,38876,5,0,0:0:0:0:
164,107,39105,1,0,0:0:0:0:
284,107,39334,1,8,0:0:0:0:
284,227,39563,2,0,P|200:203|163:107,1,198.000006042481,2|0,0:0|0:0,0:0:0:0:
284,107,40250,1,8,0:0:0:0:
354,211,40479,1,0,0:0:0:0:
263,298,40708,6,0,L|163:314,1,90,2|0,0:0|0:0,0:0:0:0:
354,211,41166,2,0,L|438:195,1,85.4999977169037,2|0,0:0|0:0,0:0:0:0:
263,298,41624,2,0,L|248:218,1,80.9999975280763,2|0,0:0|0:0,0:0:0:0:
438,196,42082,2,0,L|452:271,1,76.5000014591217,2|0,0:0|0:0,0:0:0:0:
472,375,42540,5,4,0:0:0:0:
256,192,42654,12,0,44143,0:0:0:0:
103,122,44372,6,0,P|119:82|156:49,2,90,4|0|8,0:0|0:0|0:0,0:0:0:0:
148,240,45059,1,0,0:0:0:0:
253,171,45288,1,0,0:0:0:0:
253,171,45403,1,0,0:0:0:0:
253,171,45517,1,0,0:0:0:0:
256,307,45746,2,0,P|227:345|172:373,1,90,8|0,0:0|0:0,0:0:0:0:
77,313,46204,5,0,0:0:0:0:
102,180,46433,1,0,0:0:0:0:
102,180,46548,1,0,0:0:0:0:
102,180,46662,1,8,0:0:0:0:
224,89,46891,2,0,P|250:136|250:191,1,90,0|2,0:0|0:0,0:0:0:0:
267,306,47349,1,0,0:0:0:0:
169,210,47578,1,8,0:0:0:0:
299,183,47807,1,0,0:0:0:0:
174,291,48036,6,0,P|128:278|90:232,1,90
177,114,48494,1,8,0:0:0:0:
266,233,48723,1,0,0:0:0:0:
266,233,48838,1,0,0:0:0:0:
266,233,48952,1,0,0:0:0:0:
372,157,49181,2,0,P|340:119|299:105,1,90,0|8,0:0|0:0,0:0:0:0:
198,185,49639,1,0,0:0:0:0:
254,307,49868,5,0,0:0:0:0:
376,250,50097,1,0,0:0:0:0:
457,357,50326,1,8,0:0:0:0:
327,316,50555,1,0,0:0:0:0:
327,316,50670,1,0,0:0:0:0:
327,316,50784,1,0,0:0:0:0:
408,205,51013,1,0,0:0:0:0:
327,133,51242,2,0,P|283:138|251:169,1,90,8|0,0:0|0:0,0:0:0:0:
408,205,51700,6,0,P|448:133|400:49,1,180,2|8,0:0|0:0,0:0:0:0:
280,68,52387,1,0,0:0:0:0:
264,204,52616,1,0,0:0:0:0:
264,204,52731,1,0,0:0:0:0:
264,204,52845,1,0,0:0:0:0:
408,205,53074,2,0,P|423:156|455:97,1,90,8|0,0:0|0:0,0:0:0:0:
355,293,53532,6,0,P|316:315|267:331,1,90
251,322,53876,1,0,0:0:0:0:
229,314,53990,1,8,0:0:0:0:
324,176,54219,2,0,P|368:183|407:204,1,90,0|2,0:0|0:0,0:0:0:0:
450,318,54677,1,0,0:0:0:0:
315,330,54906,1,8,0:0:0:0:
221,232,55135,1,0,0:0:0:0:
367,205,55364,6,0,L|404:121,1,90,2|0,0:0|0:0,0:0:0:0:
304,64,55822,1,8,0:0:0:0:
304,64,56051,2,0,L|202:101,1,90
396,96,56509,2,0,L|498:59,1,90,0|8,0:0|0:0,0:0:0:0:
296,108,56967,1,0,0:0:0:0:
424,156,57196,5,2,0:0:0:0:
371,30,57425,1,0,0:0:0:0:
326,204,57654,1,8,0:0:0:0:
183,253,57883,1,0,0:0:0:0:
183,253,57998,1,0,0:0:0:0:
183,253,58112,2,0,P|147:209|139:156,1,90,2|0,0:0|0:0,0:0:0:0:
63,136,58456,2,0,L|63:200,1,45,2|8,0:0|0:0,0:0:0:0:
65,358,58799,1,0,0:0:0:0:
65,358,58914,1,0,0:0:0:0:
65,358,59028,6,0,P|143:338|183:251,1,180,4|8,0:0|0:0,0:0:0:0:
40,152,59715,1,0,0:0:0:0:
40,152,59944,2,0,P|44:200|92:240,1,90
183,253,60403,1,8,0:0:0:0:
296,234,60632,2,0,P|332:186|324:126,1,90,0|0,0:0|0:0,0:0:0:0:
244,62,61090,5,0,0:0:0:0:
244,62,61204,1,0,0:0:0:0:
244,62,61319,1,8,0:0:0:0:
122,127,61548,2,0,P|154:166|204:181,1,90,0|2,0:0|0:0,0:0:0:0:
350,211,62006,1,0,0:0:0:0:
190,179,62235,1,8,0:0:0:0:
332,280,62464,1,0,0:0:0:0:
370,142,62693,6,0,P|308:92|191:121,1,180,2|8,0:0|0:0,0:0:0:0:
356,256,63380,2,0,P|434:242|488:135,1,180,0|0,0:0|0:0,0:0:0:0:
370,142,64067,1,8,0:0:0:0:
278,215,64296,1,0,0:0:0:0:
316,325,64525,5,0,0:0:0:0:
278,215,64754,1,0,0:0:0:0:
278,215,64868,1,0,0:0:0:0:
278,215,64983,1,8,0:0:0:0:
163,231,65212,1,0,0:0:0:0:
163,231,65326,1,0,0:0:0:0:
163,231,65441,1,0,0:0:0:0:
278,215,65670,1,0,0:0:0:0:
200,115,65899,2,0,P|153:106|104:123,1,90,8|0,0:0|0:0,0:0:0:0:
224,228,66357,5,2,0:0:0:0:
332,144,66586,1,0,0:0:0:0:
332,144,66700,1,0,0:0:0:0:
332,144,66815,2,0,L|368:56,1,90,8|0,0:0|0:0,0:0:0:0:
336,256,67273,2,0,L|302:339,1,90
292,88,67731,2,0,L|326:4,1,90,8|0,0:0|0:0,0:0:0:0:
249,200,68189,5,0,0:0:0:0:
242,80,68418,1,0,0:0:0:0:
272,208,68647,1,8,0:0:0:0:
219,72,68876,1,0,0:0:0:0:
295,216,69105,1,2,0:0:0:0:
400,128,69334,2,0,P|376:88|336:68,1,90,0|8,0:0|0:0,0:0:0:0:
196,84,69792,1,0,0:0:0:0:
196,84,70021,6,0,P|213:123|294:152,1,135,2|0,0:0|0:0,0:0:0:0:
347,110,70479,1,8,0:0:0:0:
244,16,70708,1,0,0:0:0:0:
244,16,70822,1,0,0:0:0:0:
244,16,70937,1,2,0:0:0:0:
375,68,71166,1,0,0:0:0:0:
269,166,71395,1,8,0:0:0:0:
132,120,71624,1,0,0:0:0:0:
132,120,71738,1,0,0:0:0:0:
132,120,71853,6,0,P|120:78|116:23,1,90
300,180,72311,2,0,P|256:192|212:196,1,90,8|0,0:0|0:0,0:0:0:0:
206,179,72654,1,0,0:0:0:0:
200,161,72769,1,8,0:0:0:0:
366,135,72998,1,8,0:0:0:0:
384,300,73227,1,8,3:2:0:0:
384,300,73341,1,0,3:0:0:0:
384,300,73456,1,0,3:0:0:0:
384,300,73570,1,0,3:0:0:0:
384,300,73685,6,0,L|228:272,1,135.000005149842,6|8,0:0|0:0,0:0:0:0:
251,276,74372,1,0,0:0:0:0:
190,210,74601,2,0,L|74:250,1,90
208,76,75059,2,0,L|320:124,2,90,8|0|0,0:0|0:0|0:0,0:0:0:0:
88,108,75746,5,0,0:0:0:0:
88,108,75861,1,0,0:0:0:0:
88,108,75975,1,8,0:0:0:0:
66,248,76204,1,0,0:0:0:0:
88,108,76433,1,2,0:0:0:0:
153,232,76662,1,0,0:0:0:0:
25,170,76891,2,0,L|148:152,1,90,8|0,0:0|0:0,0:0:0:0:
284,52,77349,6,0,L|160:32,1,90,2|0,0:0|0:0,0:0:0:0:
160,32,77693,1,0,0:0:0:0:
160,32,77807,1,8,0:0:0:0:
164,180,78036,1,0,0:0:0:0:
297,117,78265,2,0,P|322:78|335:34,1,90,2|0,0:0|0:0,0:0:0:0:
292,265,78723,2,0,P|308:313|341:357,1,90,8|0,0:0|0:0,0:0:0:0:
442,260,79181,5,0,0:0:0:0:
327,194,79410,1,0,0:0:0:0:
480,194,79639,1,8,0:0:0:0:
365,127,79868,1,0,0:0:0:0:
365,260,80097,1,0,0:0:0:0:
442,128,80326,1,0,0:0:0:0:
442,128,80441,1,0,0:0:0:0:
442,128,80555,2,0,L|401:23,1,90,8|0,0:0|0:0,0:0:0:0:
185,53,81013,6,0,L|292:29,2,90,2|0|8,0:0|0:0|0:0,0:0:0:0:
95,143,81700,1,0,0:0:0:0:
153,256,81929,1,2,0:0:0:0:
153,256,82044,1,0,0:0:0:0:
153,256,82158,1,0,0:0:0:0:
278,236,82387,1,8,0:0:0:0:
298,112,82616,1,0,0:0:0:0:
367,232,82845,5,0,0:0:0:0:
349,103,83074,1,0,0:0:0:0:
313,239,83303,1,8,0:0:0:0:
393,137,83532,1,0,0:0:0:0:
271,207,83761,1,2,0:0:0:0:
400,190,83990,1,0,0:0:0:0:
263,153,84219,2,0,L|156:124,1,90,8|0,0:0|0:0,0:0:0:0:
72,184,84677,5,0,0:0:0:0:
176,216,84906,1,0,0:0:0:0:
263,153,85135,2,0,P|271:105|263:41,1,90,8|0,0:0|0:0,0:0:0:0:
176,216,85593,1,0,0:0:0:0:
328,184,85822,1,0,0:0:0:0:
188,101,86051,2,0,P|143:93|99:99,1,90,8|0,0:0|0:0,0:0:0:0:
18,183,86509,5,0,0:0:0:0:
111,253,86738,1,0,0:0:0:0:
213,196,86967,1,8,0:0:0:0:
317,249,87196,1,0,0:0:0:0:
317,249,87311,1,0,0:0:0:0:
317,249,87425,1,0,0:0:0:0:
200,112,87654,1,0,0:0:0:0:
236,216,87883,1,8,0:0:0:0:
200,112,88112,1,0,0:0:0:0:
344,136,88341,6,0,P|368:176|360:236,1,90,6|0,0:0|0:0,0:0:0:0:
272,128,88799,2,0,P|252:72|280:20,2,90,8|0|0,0:0|0:0|0:0,0:0:0:0:
368,64,89486,1,0,0:0:0:0:
260,44,89715,1,8,0:0:0:0:
156,88,89944,1,0,0:0:0:0:
88,164,90173,6,0,L|-8:132,2,90,2|0|8,0:0|0:0|0:0,0:0:0:0:
64,264,90861,2,0,L|168:304,1,90,0|2,0:0|0:0,0:0:0:0:
256,296,91319,1,0,0:0:0:0:
204,212,91548,1,8,0:0:0:0:
152,128,91777,1,0,0:0:0:0:
152,128,91891,1,0,0:0:0:0:
152,128,92006,6,0,P|109:114|68:129,2,90,2|0|8,0:0|0:0|0:0,0:0:0:0:
258,22,92693,1,0,0:0:0:0:
360,112,92922,2,0,P|296:124|260:96,1,90
192,48,93380,1,8,0:0:0:0:
216,212,93609,1,2,0:0:0:0:
216,212,93838,5,2,0:0:0:0:
320,110,94067,1,2,0:0:0:0:
88,143,94296,1,8,0:0:0:0:
320,110,94525,1,12,0:0:0:0:
192,324,94983,5,2,0:0:0:0:
136,232,95212,1,8,0:0:0:0:
192,324,95441,1,0,0:0:0:0:
256,232,95670,6,0,P|260:184|232:120,2,90,6|0|8,0:0|0:0|0:0,0:0:0:0:
216,40,96357,1,0,0:0:0:0:
84,152,96586,2,0,P|128:170|173:176,1,90,2|0,0:0|0:0,0:0:0:0:
324,72,97044,2,0,P|286:101|258:137,1,90,8|0,0:0|0:0,0:0:0:0:
278,317,97502,6,0,P|272:273|256:231,1,90,2|0,0:0|0:0,0:0:0:0:
136,132,97960,1,8,0:0:0:0:
96,277,98189,1,0,0:0:0:0:
257,232,98418,2,0,P|305:220|361:176,1,90,2|0,0:0|0:0,0:0:0:0:
353,188,98761,1,0,0:0:0:0:
366,175,98876,1,8,0:0:0:0:
328,36,99105,6,0,L|232:12,1,90,0|2,0:0|0:0,0:0:0:0:
384,144,99563,2,0,L|471:166,1,90,0|8,0:0|0:0,0:0:0:0:
343,255,100021,1,0,0:0:0:0:
272,119,100250,1,2,0:0:0:0:
401,37,100479,1,0,0:0:0:0:
470,167,100708,2,0,P|448:206|405:231,1,90,8|0,0:0|0:0,0:0:0:0:
290,250,101166,5,2,0:0:0:0:
149,190,101395,1,0,0:0:0:0:
155,329,101624,1,8,0:0:0:0:
290,250,101853,1,0,0:0:0:0:
149,190,102082,2,0,B|117:193|94:211|52:203,1,90,2|0,0:0|0:0,0:0:0:0:
152,88,102540,1,8,3:2:0:0:
172,77,102654,1,0,3:0:0:0:
194,71,102769,1,0,3:0:0:0:
216,71,102883,1,0,3:0:0:0:
237,77,102998,6,0,P|281:89|326:137,1,90,4|0,0:0|0:0,0:0:0:0:
407,241,103456,1,8,0:0:0:0:
485,110,103685,1,0,0:0:0:0:
354,33,103914,2,0,P|309:18|256:18,1,90,2|0,0:0|0:0,0:0:0:0:
123,84,104372,1,8,0:0:0:0:
214,204,104601,1,0,0:0:0:0:
305,139,104830,2,0,P|317:79|287:2,1,135,2|0,0:0|0:0,0:0:0:0:
229,11,105288,5,8,0:0:0:0:
468,11,105517,1,12,0:0:0:0:
173,304,105975,5,2,0:0:0:0:
293,364,106204,1,8,0:0:0:0:
425,340,106433,1,0,0:0:0:0:
493,224,106662,6,0,P|473:168|417:136,1,90,2|0,0:0|0:0,0:0:0:0:
230,218,107120,2,0,P|286:235|346:210,1,90,8|0,0:0|0:0,0:0:0:0:
465,72,107578,2,0,P|406:84|367:135,1,90,2|0,0:0|0:0,0:0:0:0:
423,332,108036,2,0,P|447:278|431:216,1,90,8|0,0:0|0:0,0:0:0:0:
300,201,108494,5,2,0:0:0:0:
445,248,108723,1,0,0:0:0:0:
507,108,108952,1,8,0:0:0:0:
342,268,109181,1,4,0:0:0:0:
342,268,109639,5,2,0:0:0:0:
282,162,109868,1,8,0:0:0:0:
221,57,110097,1,0,0:0:0:0:
383,24,110326,6,0,P|426:19|470:30,1,90,4|0,0:0|0:0,0:0:0:0:
175,163,110784,2,0,P|146:196|130:238,1,90,8|0,0:0|0:0,0:0:0:0:
372,160,111242,2,0,P|411:178|443:210,1,90,2|0,0:0|0:0,0:0:0:0:
250,297,111700,2,0,P|190:279|140:184,1,135,8|0,0:0|0:0,0:0:0:0:
137,160,112158,5,4,0:0:0:0:
372,160,112387,1,0,0:0:0:0:
183,297,112616,1,8,0:0:0:0:
256,74,112845,1,0,0:0:0:0:
327,297,113074,1,2,0:0:0:0:
196,180,113303,1,0,0:0:0:0:
196,180,113418,1,0,0:0:0:0:
196,180,113532,1,8,0:0:0:0:
311,265,113761,5,0,0:0:0:0:
185,314,113990,1,2,0:0:0:0:
74,235,114219,1,0,0:0:0:0:
251,138,114448,2,0,P|320:155|401:209,1,135.000005149842,8|0,0:0|0:0,0:0:0:0:
399,319,114906,1,2,0:0:0:0:
264,325,115135,1,0,0:0:0:0:
166,147,115364,2,0,P|211:85|277:42,1,135.000005149842,8|0,0:0|0:0,0:0:0:0:
432,20,115822,5,2,0:0:0:0:
431,167,116051,1,0,0:0:0:0:
344,47,116280,1,8,0:0:0:0:
485,93,116509,1,0,0:0:0:0:
344,138,116738,2,0,P|339:87|350:44,1,90,2|0,0:0|0:0,0:0:0:0:
451,135,117196,1,8,3:2:0:0:
466,151,117311,1,0,3:0:0:0:
477,170,117425,1,0,3:0:0:0:
484,191,117540,1,0,3:0:0:0:
486,213,117654,6,0,P|489:259|466:321,2,90,4|0|8,0:0|0:0|0:0,0:0:0:0:
357,63,118341,1,0,0:0:0:0:
281,171,118570,1,2,0:0:0:0:
461,115,118799,1,0,0:0:0:0:
293,67,119028,1,8,0:0:0:0:
412,183,119257,5,0,0:0:0:0:
412,183,119372,1,0,0:0:0:0:
412,183,119486,1,2,0:0:0:0:
346,82,119715,1,0,0:0:0:0:
512,176,119944,1,8,0:0:0:0:
387,262,120173,1,0,0:0:0:0:
387,262,120288,1,0,0:0:0:0:
387,262,120403,2,0,L|291:249,1,90,2|0,0:0|0:0,0:0:0:0:
100,132,120861,2,0,P|127:90|174:63,1,90,8|0,0:0|0:0,0:0:0:0:
73,236,121319,6,0,P|46:278|-1:305,1,90,2|0,0:0|0:0,0:0:0:0:
173,215,121777,2,0,P|209:240|232:278,1,90,8|0,0:0|0:0,0:0:0:0:
315,360,122235,2,0,P|291:262|329:194,1,180,2|8,0:0|0:0,0:0:0:0:
386,300,122922,1,0,0:0:0:0:
386,300,123151,6,0,P|331:258|351:161,1,135,2|0,0:0|0:0,0:0:0:0:
367,142,123609,2,0,P|401:127|465:139,1,90,8|8,0:0|0:0,0:0:0:0:
383,244,124067,6,0,L|323:244,1,58.4999973220826,2|0,0:0|0:0,0:0:0:0:
382,47,124754,1,2,0:0:0:0:
382,47,124983,2,0,L|266:47,1,107.999996704102,4|0,0:0|0:0,0:0:0:0:
256,192,125555,12,0,127272,0:0:0:0:
