osu file format v14

[General]
AudioFilename: dd3.mp3
AudioLeadIn: 0
PreviewTime: 89072
Countdown: 0
SampleSet: None
StackLeniency: 0.7
Mode: 0
LetterboxInBreaks: 0
WidescreenStoryboard: 1

[Editor]
DistanceSpacing: 1
BeatDivisor: 4
GridSize: 4
TimelineZoom: 1

[Metadata]
Title:DD
TitleUnicode:DD
Artist:Meramipop
ArtistUnicode:めらみぽっぷ
Creator:[CSGA]Ar3sgice
Version:Normal
Source:Touhou
Tags:monochrome-coat ID th14 辉く针の小人族 ~ Little Princess
BeatmapID:660962
BeatmapSetID:293554

[Difficulty]
HPDrainRate:2
CircleSize:3
OverallDifficulty:2
ApproachRate:4
SliderMultiplier:0.8
SliderTickRate:1

[Events]
//Background and Video events
0,0,"ez2.jpg",0,0
//Break Periods
2,127072,133352
//Storyboard Layer 0 (Background)
//Storyboard Layer 1 (Fail)
//Storyboard Layer 2 (Pass)
//Storyboard Layer 3 (Foreground)
//Storyboard Sound Samples

[TimingPoints]
272,300,4,1,1,65,1,0
31472,-100,4,1,1,65,0,0
50672,-100,4,1,1,65,0,0
60272,-100,4,1,1,65,0,0
79472,-100,4,1,1,65,0,0
89072,-100,4,1,1,65,0,0
125072,-100,4,1,1,65,0,0
125372,-100,4,2,1,65,0,0
126872,-100,4,2,1,5,0,0
134672,-100,4,1,1,65,0,0
152222,-100,4,1,1,65,0,0
153872,-100,4,1,1,65,0,0
173072,-100,4,1,1,40,0,0
180272,-100,4,1,1,65,0,0
181472,-100,4,1,1,65,0,0
210272,-100,4,1,1,55,0,0
210872,-100,4,1,1,65,0,0

[Colours]
Combo1 : 114,183,252
Combo2 : 193,255,119
Combo3 : 157,228,255
Combo4 : 143,249,125

[HitObjects]
96,320,2672,6,0,L|256:320,1,160,4|0,0:0|0:0,0:0:0:0:
348,192,3872,1,0,0:0:0:0:
256,60,4472,1,0,0:0:0:0:
108,116,5072,6,0,L|108:280,1,160,4|0,0:0|0:0,0:0:0:0:
244,360,6272,1,0,0:0:0:0:
396,308,6872,1,4,0:0:0:0:
436,152,7472,6,0,L|272:152,1,160,4|0,0:0|0:0,0:0:0:0:
160,40,8672,1,0,0:0:0:0:
16,108,9272,1,4,0:0:0:0:
16,268,9872,6,0,L|176:268,1,160,4|0,0:0|0:0,0:0:0:0:
276,336,10922,1,8,0:0:0:0:
484,176,12272,5,0,0:0:0:0:
448,104,12572,1,0,0:0:0:0:
380,64,12872,2,0,L|212:64,1,160,8|0,0:0|0:0,0:0:0:0:
144,36,13772,1,0,0:0:0:0:
72,68,14072,2,0,P|60:116|68:228,1,160,8|0,0:0|0:0,0:0:0:0:
108,292,14972,5,0,0:0:0:0:
184,320,15272,2,0,L|356:320,2,160,8|0|8,0:0|0:0|0:0,0:0:0:0:
248,172,17072,5,0,0:0:0:0:
324,200,17372,1,0,0:0:0:0:
400,172,17672,2,0,P|404:120|388:44,2,120,8|0|0,0:0|0:0|0:0,0:0:0:0:
460,224,18872,1,8,0:0:0:0:
372,360,19472,6,0,L|208:360,1,160,0|8,0:0|0:0,0:0:0:0:
152,212,20672,2,0,L|316:212,1,160,0|8,0:0|0:0,0:0:0:0:
372,156,21572,1,8,0:0:0:0:
344,80,21872,6,0,P|388:72|508:84,1,160,0|8,0:0|0:0,0:0:0:0:
500,244,23072,2,0,P|456:252|336:240,1,160,0|8,0:0|0:0,0:0:0:0:
196,308,24272,5,0,0:0:0:0:
56,232,24872,1,8,0:0:0:0:
92,76,25472,2,0,P|152:64|252:72,1,160,0|8,0:0|0:0,0:0:0:0:
392,140,26672,5,0,0:0:0:0:
304,276,27272,2,0,P|352:292|460:288,2,160,8|0|8,0:0|0:0|0:0,0:0:0:0:
168,360,29072,5,0,0:0:0:0:
32,276,29672,1,8,0:0:0:0:
60,120,30272,1,0,0:0:0:0:
216,152,30872,1,8,0:0:0:0:
236,228,31172,1,8,0:0:0:0:
308,264,31472,6,0,P|356:268|468:240,1,160,4|8,0:0|0:0,0:0:0:0:
492,168,32372,2,0,B|432:144|353:145|353:145|364:112|364:80|352:48,1,240,0|8,0:0|0:0,0:0:0:0:
200,100,33872,5,0,0:0:0:0:
48,48,34472,2,0,P|36:96|32:184,2,120,8|0|0,0:0|0:0|0:0,0:0:0:0:
120,80,35672,2,0,L|212:80,1,80,8|0,0:0|0:0,0:0:0:0:
276,56,36272,6,0,P|288:104|284:224,1,160,0|8,0:0|0:0,0:0:0:0:
252,284,37172,2,0,P|300:296|492:284,1,240,0|8,0:0|0:0,0:0:0:0:
452,128,38672,5,0,0:0:0:0:
312,48,39272,1,8,0:0:0:0:
160,96,39872,2,0,L|68:96,2,80,0|0|8,0:0|0:0|0:0,0:0:0:0:
220,152,40772,1,0,0:0:0:0:
164,208,41072,6,0,P|152:276|168:364,1,160,0|8,0:0|0:0,0:0:0:0:
248,344,41972,2,0,P|300:352|488:324,1,240,0|8,0:0|0:0,0:0:0:0:
396,192,43472,5,0,0:0:0:0:
484,60,44072,1,8,0:0:0:0:
308,224,44972,2,0,L|220:224,1,80,0|8,0:0|0:0,0:0:0:0:
132,352,45872,6,0,P|108:312|92:200,1,160,0|8,0:0|0:0,0:0:0:0:
44,136,46772,2,0,P|124:152|280:132,1,240,0|8,0:0|0:0,0:0:0:0:
404,32,48272,5,0,0:0:0:0:
500,160,48872,1,8,0:0:0:0:
420,300,49472,1,0,0:0:0:0:
268,256,50072,2,0,L|184:256,1,80,8|0,0:0|0:0,0:0:0:0:
116,292,50672,6,0,P|104:240|112:132,1,160,0|8,0:0|0:0,0:0:0:0:
328,36,52172,1,0,0:0:0:0:
396,80,52472,2,0,P|400:120|392:168,1,80,8|0,0:0|0:0,0:0:0:0:
340,216,53072,5,0,0:0:0:0:
184,172,53672,2,0,L|56:172,2,120,8|0|0,0:0|0:0|0:0,0:0:0:0:
248,124,54872,1,8,0:0:0:0:
308,272,55472,6,0,P|352:276|392:272,1,80,0|0,0:0|0:0,0:0:0:0:
460,236,56072,1,8,0:0:0:0:
388,140,56522,2,0,L|388:16,1,120,0|0,0:0|0:0,0:0:0:0:
308,32,57272,1,8,0:0:0:0:
176,124,57872,5,0,0:0:0:0:
16,148,58472,1,8,0:0:0:0:
40,308,59072,1,0,0:0:0:0:
200,284,59672,1,8,0:0:0:0:
344,356,60272,6,0,P|360:296|352:192,1,160,4|8,0:0|0:0,0:0:0:0:
292,148,61172,2,0,B|332:168|408:168|462:152|462:152|472:192|488:224,1,240,0|8,0:0|0:0,0:0:0:0:
392,348,62672,5,0,0:0:0:0:
244,288,63272,2,0,L|112:288,1,120,8|0,0:0|0:0,0:0:0:0:
32,212,64172,1,0,0:0:0:0:
16,132,64472,2,0,P|20:92|44:48,1,80,8|0,0:0|0:0,0:0:0:0:
100,108,65072,6,0,P|160:116|264:108,1,160,0|8,0:0|0:0,0:0:0:0:
372,72,66122,1,0,0:0:0:0:
440,28,66422,2,0,P|456:76|452:156,1,120,8|8,0:0|0:0,0:0:0:0:
364,276,67472,5,0,0:0:0:0:
228,364,68072,1,8,0:0:0:0:
156,332,68372,1,0,0:0:0:0:
80,364,68672,2,0,P|32:344|4:320,2,80,0|0|8,0:0|0:0|0:0,0:0:0:0:
184,244,69872,6,0,P|192:184|184:80,1,160,0|8,0:0|0:0,0:0:0:0:
120,40,70772,2,0,P|176:52|360:40,1,240,0|8,0:0|0:0,0:0:0:0:
464,160,72272,5,0,0:0:0:0:
350,273,72872,1,8,0:0:0:0:
248,208,73322,2,0,L|112:208,1,120,0|0,0:0|0:0,0:0:0:0:
56,240,74072,1,8,0:0:0:0:
4,180,74372,1,0,0:0:0:0:
36,108,74672,6,0,P|92:116|196:108,1,160,0|8,0:0|0:0,0:0:0:0:
256,56,75572,2,0,P|272:168|256:296,1,240,0|8,0:0|0:0,0:0:0:0:
400,364,77072,5,0,0:0:0:0:
508,248,77672,1,8,0:0:0:0:
444,100,78272,1,0,0:0:0:0:
284,124,78872,2,0,L|200:124,2,80,8|8|4,0:0|0:0|0:0,0:0:0:0:
200,260,80072,5,8,0:0:0:0:
52,200,80672,1,0,0:0:0:0:
80,44,81272,1,0,0:0:0:0:
236,20,81872,6,0,P|240:76|232:112,1,80,4|0,0:0|0:0,0:0:0:0:
284,164,82472,1,0,0:0:0:0:
440,136,83072,1,0,0:0:0:0:
504,280,83672,1,0,0:0:0:0:
376,376,84272,6,0,P|368:324|372:288,1,80,4|0,0:0|0:0,0:0:0:0:
312,240,84872,1,0,0:0:0:0:
176,320,85472,1,0,0:0:0:0:
52,216,86072,1,4,0:0:0:0:
112,68,86672,6,0,L|200:68,1,80,4|0,0:0|0:0,0:0:0:0:
304,28,87422,2,0,P|308:68|304:112,1,80,0|8,0:0|0:0,0:0:0:0:
228,288,89072,6,0,P|276:296|396:288,2,160,4|8|0,0:0|0:0|0:0,0:0:0:0:
160,244,90572,1,0,0:0:0:0:
132,168,90872,1,8,0:0:0:0:
160,92,91172,1,0,0:0:0:0:
228,48,91472,2,0,P|244:112|236:208,2,160,4|8|0,0:0|0:0|0:0,0:0:0:0:
148,64,92972,6,0,L|60:64,1,80,0|8,0:0|0:0,0:0:0:0:
4,112,93572,1,0,0:0:0:0:
68,160,93872,2,0,P|76:224|68:324,1,160,4|8,0:0|0:0,0:0:0:0:
136,364,94772,5,0,0:0:0:0:
204,324,95072,2,0,L|332:324,1,120,0|0,0:0|0:0,0:0:0:0:
404,324,95822,1,0,0:0:0:0:
456,216,96272,6,0,P|380:228|296:216,1,160,0|8,0:0|0:0,0:0:0:0:
296,56,97472,2,0,P|372:44|456:56,1,160,0|8,0:0|0:0,0:0:0:0:
316,136,98672,6,0,L|236:136,1,80,4|0,0:0|0:0,0:0:0:0:
156,120,99272,2,0,P|144:192|152:280,1,160,8|0,0:0|0:0,0:0:0:0:
216,328,100172,5,0,0:0:0:0:
296,340,100472,1,8,0:0:0:0:
368,308,100772,1,0,0:0:0:0:
408,240,101072,2,0,L|408:152,1,80,4|0,0:0|0:0,0:0:0:0:
440,88,101672,2,0,P|392:96|280:88,1,160,8|0,0:0|0:0,0:0:0:0:
220,36,102572,5,0,0:0:0:0:
140,28,102872,1,8,0:0:0:0:
72,72,103172,1,0,0:0:0:0:
36,144,103472,2,0,P|32:208|64:304,1,160,4|8,0:0|0:0,0:0:0:0:
140,292,104372,5,0,0:0:0:0:
196,348,104672,2,0,L|356:348,1,160,0|8,0:0|0:0,0:0:0:0:
492,268,105872,5,0,0:0:0:0:
448,200,106172,1,0,0:0:0:0:
488,132,106472,1,8,0:0:0:0:
368,28,107072,1,0,0:0:0:0:
248,132,107672,1,8,0:0:0:0:
108,52,108272,6,0,P|92:128|108:212,1,160,4|8,0:0|0:0,0:0:0:0:
184,300,109322,2,0,L|312:300,1,120,0|0,0:0|0:0,0:0:0:0:
384,300,110072,2,0,P|428:300|472:288,1,80,8|0,0:0|0:0,0:0:0:0:
504,224,110672,5,0,0:0:0:0:
460,72,111272,1,8,0:0:0:0:
312,12,111872,1,0,0:0:0:0:
160,60,112472,1,8,0:0:0:0:
104,212,113072,6,0,P|156:224|268:216,1,160,4|8,0:0|0:0,0:0:0:0:
368,164,114122,2,0,P|376:224|364:296,1,120,0|0,0:0|0:0,0:0:0:0:
312,340,114872,1,8,0:0:0:0:
236,312,115172,1,0,0:0:0:0:
160,340,115472,2,0,L|76:340,2,80,0|0|8,0:0|0:0|0:0,0:0:0:0:
212,232,116522,6,0,P|212:172|188:112,1,120,0|0,0:0|0:0,0:0:0:0:
128,68,117272,1,12,0:0:0:0:
60,112,117572,1,8,0:0:0:0:
36,188,117872,6,0,L|200:188,1,160,0|8,0:0|0:0,0:0:0:0:
312,160,118922,2,0,P|316:219|300:288,1,120,0|0,0:0|0:0,0:0:0:0:
244,332,119672,1,8,0:0:0:0:
168,312,119972,1,0,0:0:0:0:
92,336,120272,6,0,P|80:272|92:176,1,160,0|8,0:0|0:0,0:0:0:0:
176,92,121322,2,0,L|312:92,1,120,0|0,0:0|0:0,0:0:0:0:
364,52,122072,1,8,0:0:0:0:
440,80,122372,1,0,0:0:0:0:
476,152,122672,6,0,P|476:216|440:308,1,160,4|8,0:0|0:0,0:0:0:0:
328,344,123722,2,0,L|196:344,1,120,0|0,0:0|0:0,0:0:0:0:
136,308,124472,1,8,0:0:0:0:
104,236,124772,1,0,0:0:0:0:
124,160,125072,6,0,B|172:144|240:140|256:232|351:235|404:188|408:120|368:60|308:36|236:64|244:148,1,480,0|0,0:0|0:0,0:0:0:0:
452,80,134672,5,0,0:0:0:0:
300,32,135272,1,8,0:0:0:0:
252,184,135872,1,0,0:0:0:0:
404,232,136472,1,8,0:0:0:0:
296,112,137072,5,0,0:0:0:0:
139,145,137672,1,8,0:0:0:0:
174,301,138272,1,0,0:0:0:0:
329,267,138872,1,8,0:0:0:0:
472,340,139472,6,0,P|484:272|472:176,1,160,0|8,0:0|0:0,0:0:0:0:
332,104,140672,2,0,L|168:104,1,160,0|8,0:0|0:0,0:0:0:0:
32,24,141872,6,0,P|20:88|32:184,1,160,0|8,0:0|0:0,0:0:0:0:
136,300,143072,1,0,0:0:0:0:
276,220,143672,1,8,0:0:0:0:
172,96,144272,6,0,L|164:188,2,80,0|8|8,0:0|0:0|0:0,0:0:0:0:
312,20,145472,2,0,P|364:24|476:72,1,160,0|8,0:0|0:0,0:0:0:0:
424,132,146372,1,8,0:0:0:0:
472,196,146672,6,0,L|472:276,2,80,0|8|8,0:0|0:0|0:0,0:0:0:0:
344,292,147872,2,0,L|260:292,1,80,0|0,0:0|0:0,0:0:0:0:
196,336,148472,2,0,P|136:344|36:320,1,160,8|0,0:0|0:0,0:0:0:0:
73,248,149372,5,8,0:0:0:0:
40,176,149672,1,8,0:0:0:0:
72,104,149972,2,0,P|144:88|240:96,1,160,0|0,0:0|0:0,0:0:0:0:
304,124,150872,2,0,L|392:124,1,80,8|8,0:0|0:0,0:0:0:0:
460,104,151472,6,0,P|480:172|476:268,1,160,0|8,0:0|0:0,0:0:0:0:
448,336,152372,1,0,0:0:0:0:
372,360,152672,2,0,P|352:292|356:196,1,160,0|8,0:0|0:0,0:0:0:0:
228,104,153872,5,4,0:0:0:0:
100,200,154472,1,8,0:0:0:0:
148,352,155072,1,0,0:0:0:0:
308,352,155672,1,8,0:0:0:0:
368,204,156272,6,0,P|416:208|452:204,1,80,0|0,0:0|0:0,0:0:0:0:
472,128,156872,2,0,P|424:124|388:128,1,80,8|0,0:0|0:0,0:0:0:0:
324,88,157472,2,0,P|252:96|164:88,1,160,0|8,0:0|0:0,0:0:0:0:
24,164,158672,5,4,0:0:0:0:
168,232,159272,1,8,0:0:0:0:
88,372,159872,2,0,P|76:308|88:208,1,160,0|8,0:0|0:0,0:0:0:0:
220,124,161072,5,0,0:0:0:0:
348,220,161672,1,8,0:0:0:0:
476,124,162272,1,0,0:0:0:0:
348,28,162872,1,8,0:0:0:0:
272,56,163172,1,8,0:0:0:0:
196,28,163472,6,0,P|100:28|36:52,1,160,4|8,0:0|0:0,0:0:0:0:
80,120,164372,1,0,0:0:0:0:
44,192,164672,2,0,P|38:270|68:352,1,160,0|8,0:0|0:0,0:0:0:0:
142,366,165572,1,0,0:0:0:0:
220,348,165872,6,0,L|380:348,1,160,0|8,0:0|0:0,0:0:0:0:
452,316,166772,1,0,0:0:0:0:
496,248,167072,2,0,P|500:200|496:156,1,80,0|0,0:0|0:0,0:0:0:0:
436,116,167672,2,0,L|352:116,1,80,8|0,0:0|0:0,0:0:0:0:
280,92,168272,6,0,P|188:104|116:92,2,160,4|8|0,0:0|0:0|0:0,0:0:0:0:
352,236,170072,1,8,0:0:0:0:
244,356,170672,5,0,0:0:0:0:
88,316,171272,1,8,0:0:0:0:
48,160,171872,1,0,0:0:0:0:
156,40,172472,1,8,0:0:0:0:
308,84,173072,6,0,L|468:84,1,160,4|0,0:0|0:0,0:0:0:0:
500,320,174572,5,0,0:0:0:0:
428,352,174872,1,0,0:0:0:0:
296,264,175472,2,0,P|288:200|320:100,1,160,0|0,0:0|0:0,0:0:0:0:
84,48,176972,5,0,0:0:0:0:
44,116,177272,1,0,0:0:0:0:
164,220,177872,1,4,0:0:0:0:
424,32,179072,5,0,0:0:0:0:
244,128,180272,5,4,0:0:0:0:
328,264,180872,1,8,0:0:0:0:
400,296,181172,1,8,0:0:0:0:
472,260,181472,2,0,P|484:192|472:96,1,160,4|8,0:0|0:0,0:0:0:0:
316,136,182672,6,0,L|236:136,1,80,4|0,0:0|0:0,0:0:0:0:
156,120,183272,2,0,P|144:192|152:280,1,160,8|0,0:0|0:0,0:0:0:0:
216,328,184172,5,0,0:0:0:0:
296,340,184472,1,8,0:0:0:0:
368,308,184772,1,0,0:0:0:0:
408,240,185072,2,0,L|408:152,1,80,4|0,0:0|0:0,0:0:0:0:
440,88,185672,2,0,P|392:96|280:88,1,160,8|0,0:0|0:0,0:0:0:0:
220,36,186572,5,0,0:0:0:0:
140,28,186872,1,8,0:0:0:0:
72,72,187172,1,0,0:0:0:0:
36,144,187472,2,0,P|32:208|64:304,1,160,4|8,0:0|0:0,0:0:0:0:
140,292,188372,5,0,0:0:0:0:
196,348,188672,2,0,L|356:348,1,160,0|8,0:0|0:0,0:0:0:0:
492,268,189872,5,0,0:0:0:0:
448,200,190172,1,0,0:0:0:0:
488,132,190472,1,8,0:0:0:0:
368,28,191072,1,0,0:0:0:0:
248,132,191672,1,8,0:0:0:0:
228,288,192272,6,0,P|276:296|396:288,2,160,4|8|0,0:0|0:0|0:0,0:0:0:0:
160,244,193772,5,0,0:0:0:0:
132,168,194072,1,8,0:0:0:0:
160,92,194372,1,0,0:0:0:0:
228,48,194672,2,0,P|244:112|236:208,2,160,4|8|0,0:0|0:0|0:0,0:0:0:0:
148,64,196172,6,0,L|60:64,1,80,0|8,0:0|0:0,0:0:0:0:
4,112,196772,1,0,0:0:0:0:
68,160,197072,2,0,P|76:224|68:324,1,160,4|8,0:0|0:0,0:0:0:0:
136,364,197972,5,0,0:0:0:0:
204,324,198272,2,0,L|332:324,1,120,0|0,0:0|0:0,0:0:0:0:
396,360,199022,1,0,0:0:0:0:
492,288,199472,2,0,P|504:208|492:124,1,160,4|8,0:0|0:0,0:0:0:0:
336,96,200672,2,0,P|324:176|336:260,1,160,0|8,0:0|0:0,0:0:0:0:
308,328,201572,1,8,0:0:0:0:
228,316,201872,6,0,L|148:316,1,80,4|0,0:0|0:0,0:0:0:0:
100,252,202472,2,0,P|96:180|124:96,1,160,8|0,0:0|0:0,0:0:0:0:
188,52,203372,1,0,0:0:0:0:
268,44,203672,1,8,0:0:0:0:
344,72,203972,1,0,0:0:0:0:
392,136,204272,6,0,L|392:224,1,80,4|0,0:0|0:0,0:0:0:0:
436,284,204872,2,0,P|388:276|276:284,1,160,8|0,0:0|0:0,0:0:0:0:
224,344,205772,5,0,0:0:0:0:
144,352,206072,1,8,0:0:0:0:
76,312,206372,1,0,0:0:0:0:
40,240,206672,2,0,P|36:176|68:80,1,160,4|8,0:0|0:0,0:0:0:0:
144,96,207572,5,0,0:0:0:0:
196,36,207872,2,0,L|356:36,1,160,0|8,0:0|0:0,0:0:0:0:
492,116,209072,1,4,0:0:0:0:
448,184,209372,1,0,0:0:0:0:
488,252,209672,1,8,0:0:0:0:
368,356,210272,5,8,0:0:0:0:
248,252,210872,1,8,0:0:0:0:
108,332,211472,6,0,P|92:256|108:172,1,160,4|8,0:0|0:0,0:0:0:0:
184,84,212522,2,0,L|312:84,1,120,0|0,0:0|0:0,0:0:0:0:
384,84,213272,2,0,P|428:84|472:96,1,80,8|0,0:0|0:0,0:0:0:0:
504,160,213872,1,0,0:0:0:0:
460,312,214472,5,8,0:0:0:0:
312,372,215072,1,0,0:0:0:0:
160,324,215672,1,8,0:0:0:0:
104,172,216272,6,0,P|156:160|268:168,1,160,4|8,0:0|0:0,0:0:0:0:
368,220,217322,2,0,P|376:160|364:88,1,120,0|0,0:0|0:0,0:0:0:0:
312,44,218072,1,8,0:0:0:0:
236,72,218372,1,0,0:0:0:0:
160,44,218672,2,0,L|76:44,2,80,0|0|8,0:0|0:0|0:0,0:0:0:0:
212,152,219722,6,0,P|212:212|188:272,1,120,0|0,0:0|0:0,0:0:0:0:
128,316,220472,1,8,0:0:0:0:
60,272,220772,1,0,0:0:0:0:
36,196,221072,6,0,L|200:196,1,160,4|8,0:0|0:0,0:0:0:0:
312,224,222122,2,0,P|316:165|300:96,1,120,0|0,0:0|0:0,0:0:0:0:
244,52,222872,1,8,0:0:0:0:
168,72,223172,1,0,0:0:0:0:
92,48,223472,2,0,P|80:112|92:208,1,160,0|8,0:0|0:0,0:0:0:0:
176,292,224522,6,0,L|312:292,1,120,0|0,0:0|0:0,0:0:0:0:
364,332,225272,1,8,0:0:0:0:
440,304,225572,1,0,0:0:0:0:
476,232,225872,6,0,P|476:168|440:76,1,160,4|8,0:0|0:0,0:0:0:0:
328,40,226922,2,0,L|196:40,1,120,0|0,0:0|0:0,0:0:0:0:
136,76,227672,1,8,0:0:0:0:
104,148,227972,1,0,0:0:0:0:
124,224,228272,6,0,B|172:240|240:244|256:152|351:149|404:196|408:264|368:324|308:348|236:320|244:236,1,480,4|0,0:0|0:0,0:0:0:0:
312,92,230672,5,4,0:0:0:0:
100,284,233072,5,4,0:0:0:0:
404,248,235472,5,4,0:0:0:0:
164,104,236522,5,8,0:0:0:0:
