osu file format v14

[General]
AudioFilename: Draw the Emotional - Bad Apple!!.mp3
AudioLeadIn: 1000
PreviewTime: 43963
Countdown: 0
SampleSet: Soft
StackLeniency: 0.4
Mode: 0
LetterboxInBreaks: 0
WidescreenStoryboard: 0

[Editor]
Bookmarks: 15948,30065,44183,58301,72418,100654,143007,157124,171242,199477,213595,227713,255948
DistanceSpacing: 0.6
BeatDivisor: 4
GridSize: 32
TimelineZoom: 2.3

[Metadata]
Title:Bad Apple!!
TitleUnicode:Bad Apple!!
Artist:Meramipop
ArtistUnicode:めらみぽっぷ
Creator:Hard
Version:Appleroval
Source:東方Project
Tags:Draw the Emotional 東方幻想郷 Lotus Land Story Gensoukyou Touhou ゆよゆっぺ Yuyoyuppe ChivaCookie Reimu Fruits Rock Vocal めらみぽっぷ こすもぽりたん ZUN
BeatmapID:677878
BeatmapSetID:302411

[Difficulty]
HPDrainRate:6
CircleSize:4.5
OverallDifficulty:7.5
ApproachRate:8.3
SliderMultiplier:1.4
SliderTickRate:1

[Events]
//Background and Video events
0,0,"Hakurei.Reimu.full.1286196.jpg",0,0
//Break Periods
//Storyboard Layer 0 (Background)
//Storyboard Layer 1 (Fail)
//Storyboard Layer 2 (Pass)
//Storyboard Layer 3 (Foreground)
//Storyboard Sound Samples

[TimingPoints]
66,441.176470588235,4,2,1,40,1,0
1389,-100,4,2,1,15,0,0
2713,-142.857142857143,4,2,1,15,0,0
3154,-100,4,2,1,15,0,0
4477,-142.857142857143,4,2,1,15,0,0
4918,-100,4,2,1,15,0,0
6242,-142.857142857143,4,2,1,15,0,0
6683,-100,4,2,1,15,0,0
8007,-142.857142857143,4,2,1,15,0,0
8448,-100,4,2,1,15,0,0
12860,-100,4,2,1,10,0,0
13080,-100,4,2,1,15,0,0
13301,-142.857142857143,4,2,1,15,0,0
13742,-100,4,2,1,15,0,0
15507,-100,4,2,1,40,0,0
15948,-76.9230769230769,4,2,1,60,0,0
28301,-142.857142857143,4,2,1,60,0,0
29404,-66.6666666666667,4,2,1,60,0,0
30065,-100,4,2,1,70,0,0
30507,-66.6666666666667,4,2,1,70,0,0
30948,-100,4,2,1,70,0,0
31389,-66.6666666666667,4,2,1,70,0,0
31830,-100,4,2,1,70,0,0
32161,-66.6666666666667,4,2,1,70,0,0
33595,-100,4,2,1,70,0,0
33926,-66.6666666666667,4,2,1,70,0,0
34477,-100,4,2,1,70,0,0
34808,-66.6666666666667,4,2,1,70,0,0
35360,-100,4,2,1,70,0,0
35690,-66.6666666666667,4,2,1,70,0,0
37124,-100,4,2,1,70,0,0
37455,-66.6666666666667,4,2,1,70,0,0
38007,-100,4,2,1,70,0,0
38338,-66.6666666666667,4,2,1,70,0,0
38889,-100,4,2,1,70,0,0
39220,-66.6666666666667,4,2,1,70,0,0
40654,-100,4,2,1,70,0,0
40985,-66.6666666666667,4,2,1,70,0,0
41536,-100,4,2,1,70,0,0
41867,-66.6666666666667,4,2,1,70,0,0
42418,-100,4,2,1,70,0,0
42749,-66.6666666666667,4,2,1,70,0,0
44183,-76.9230769230769,4,2,1,60,0,0
72418,-66.6666666666667,4,2,1,80,0,1
100654,-76.9230769230769,4,2,1,80,0,0
128889,-100,4,2,1,70,0,0
129330,-66.6666666666667,4,2,1,70,0,0
129771,-100,4,2,1,70,0,0
130102,-66.6666666666667,4,2,1,70,0,0
130654,-100,4,2,1,70,0,0
130985,-66.6666666666667,4,2,1,70,0,0
132418,-100,4,2,1,70,0,0
132860,-66.6666666666667,4,2,1,70,0,0
133301,-100,4,2,1,70,0,0
133632,-66.6666666666667,4,2,1,70,0,0
134183,-100,4,2,1,70,0,0
134514,-66.6666666666667,4,2,1,70,0,0
135948,-100,4,2,1,70,0,0
136279,-66.6666666666667,4,2,1,70,0,0
136830,-100,4,2,1,70,0,0
137161,-66.6666666666667,4,2,1,70,0,0
137713,-100,4,2,1,70,0,0
138154,-66.6666666666667,4,2,1,70,0,0
139477,-100,4,2,1,70,0,0
139808,-66.6666666666667,4,2,1,70,0,0
140360,-100,4,2,1,70,0,0
140690,-66.6666666666667,4,2,1,70,0,0
141242,-100,4,2,1,70,0,0
141573,-66.6666666666667,4,2,1,70,0,0
143007,-66.6666666666667,4,2,1,60,0,0
171242,-66.6666666666667,4,2,1,60,0,1
199477,-76.9230769230769,4,2,1,60,0,0
213595,-100,4,2,1,60,0,0
226389,-66.6666666666667,4,2,1,60,0,0
226830,-50,4,2,1,60,0,0
227713,-66.6666666666667,4,2,1,60,0,1
255948,-66.6666666666667,4,2,1,60,0,0
282418,-66.6666666666667,4,2,1,80,0,1
282492,-66.6666666666667,4,2,1,60,0,1
282860,-66.6666666666667,4,2,1,80,0,1
282933,-66.6666666666667,4,2,1,60,0,1
283301,-66.6666666666667,4,2,1,80,0,1
283374,-66.6666666666667,4,2,1,60,0,1
283742,-66.6666666666667,4,2,1,80,0,1
283815,-66.6666666666667,4,2,1,60,0,1
284183,-100,4,2,1,60,0,0
287713,-100,4,2,1,25,0,0
295433,-100,4,2,1,15,0,0
296977,-100,4,2,1,25,0,0
298963,-100,4,2,1,20,0,0
300286,-100,4,2,1,15,0,0
302051,-100,4,2,1,10,0,0
303815,-100,4,2,1,5,0,0
304918,-100,4,2,1,5,0,0

[Colours]
Combo1 : 255,170,255
Combo2 : 128,255,0
Combo3 : 202,255,202
Combo4 : 255,0,0
Combo5 : 150,41,41
Combo6 : 0,255,255
Combo7 : 193,255,255
Combo8 : 255,0,255

[HitObjects]
240,192,1389,102,0,L|309:184,1,70
341,95,1830,1,2,0:0:0:0:
400,168,2051,1,0,0:0:0:0:
252,112,2271,2,0,L|171:103,1,70
96,88,2713,6,0,P|112:137|122:197,1,97.9999970092774,2|0,0:0|0:0,0:0:0:0:
128,272,3374,1,0,0:0:0:0:
139,362,3595,1,2,0:0:0:0:
215,312,3815,1,0,0:0:0:0:
285,254,4036,2,0,L|297:170,1,70
384,72,4477,102,0,P|376:116|372:184,1,97.9999970092774,2|0,0:0|0:0,0:0:0:0:
392,264,5139,1,0,0:0:0:0:
452,184,5360,2,0,L|484:116,1,70,2|0,0:0|0:0,0:0:0:0:
384,72,5801,2,0,L|377:-2,1,70
264,72,6242,6,0,P|264:128|256:176,1,97.9999970092774,2|0,0:0|0:3,0:0:0:0:
208,260,6904,1,0,0:0:0:0:
168,162,7124,2,0,L|135:84,1,70,2|0,0:0|0:0,0:0:0:0:
208,260,7565,2,0,L|235:324,1,70
100,228,8007,1,2,0:0:0:0:
308,300,8448,2,0,L|377:294,1,70,0|0,0:0|0:3,0:0:0:0:
468,283,8889,101,2,0:0:0:0:
501,119,9110,1,0,0:0:0:0:
462,208,9330,1,0,0:0:0:0:
357,174,9551,1,0,0:0:0:0:
396,31,9772,1,2,0:0:0:0:
396,31,10213,2,0,L|482:50,1,70
325,84,10654,5,2,0:0:0:0:
188,53,10874,1,0,0:0:0:0:
69,127,11095,1,0,0:0:0:0:
54,238,11316,1,0,0:0:0:0:
213,310,11536,1,2,0:0:0:0:
213,310,11977,2,0,L|205:226,1,70
296,48,12418,101,2,0:0:0:0:
284,140,12639,1,0,0:0:0:0:
372,228,12860,1,2,0:0:0:0:
384,320,13081,1,0,0:0:0:0:
452,260,13301,6,0,L|444:140,1,97.9999970092774,2|0,0:0|0:3,0:0:0:0:
436,31,13963,1,0,0:0:0:0:
364,128,14183,102,0,L|372:224,1,70,2|0,0:0|0:0,0:0:0:0:
304,276,14624,1,0,0:0:0:0:
292,184,14845,1,0,0:3:0:0:
224,240,15065,1,2,0:0:0:0:
224,240,15507,1,4,0:0:0:0:
224,240,15948,22,0,P|232:288|220:348,1,90.9999958343508,4|10,1:0|0:3,0:0:0:0:
64,284,16389,1,0,1:0:0:0:
64,284,16610,1,2,0:0:0:0:
64,284,16720,1,0,0:0:0:0:
64,284,16830,1,0,0:0:0:0:
56,164,17051,1,2,0:3:0:0:
140,81,17271,1,0,1:0:0:0:
168,216,17492,1,2,0:3:0:0:
276,104,17713,6,0,L|280:200,1,90.9999958343508,4|10,3:3|0:3,0:0:0:0:
328,304,18154,1,0,1:0:0:0:
328,304,18374,1,2,0:0:0:0:
328,304,18485,1,0,0:0:0:0:
328,304,18595,1,2,0:0:0:0:
168,216,18815,1,10,0:3:0:0:
172,336,19036,1,0,1:0:0:0:
165,97,19257,1,0,1:0:0:0:
55,56,19477,102,0,P|53:101|58:147,1,90.9999958343508,4|2,0:3|0:3,0:0:0:0:
165,97,19918,1,0,1:0:0:0:
165,97,20139,1,2,0:0:0:0:
165,97,20249,1,0,0:0:0:0:
165,97,20360,2,0,P|205:106|257:121,1,90.9999958343508,4|2,0:3|0:3,0:0:0:0:
357,195,20801,2,0,P|317:204|265:219,1,90.9999958343508,0|2,1:3|0:3,0:0:0:0:
389,305,21242,5,2,0:0:0:0:
471,220,21463,2,0,L|506:180,1,45.4999979171754,2|0,0:0|0:0,0:0:0:0:
456,87,21683,2,0,L|387:166,1,90.9999958343508,2|2,1:2|0:0,0:0:0:0:
377,175,22014,1,0,0:0:0:0:
357,195,22124,1,2,0:0:0:0:
269,274,22345,1,2,0:3:0:0:
154,250,22565,1,0,1:2:0:0:
141,225,22675,1,4,0:3:0:0:
132,199,22786,1,2,1:3:0:0:
129,172,22895,1,4,0:3:0:0:
130,145,23006,101,4,1:0:0:0:
248,33,23227,1,2,0:0:0:0:
334,113,23448,1,0,1:0:0:0:
254,199,23668,1,2,0:0:0:0:
254,199,23779,1,0,0:0:0:0:
254,199,23889,2,0,L|346:217,1,90.9999958343508,4|2,0:3|0:3,0:0:0:0:
154,250,24330,2,0,L|62:268,1,90.9999958343508,0|2,1:3|0:3,0:0:0:0:
248,308,24771,5,2,0:3:0:0:
252,83,24992,1,2,0:0:0:0:
143,15,25213,1,0,1:0:0:0:
252,83,25433,1,2,0:0:0:0:
252,83,25543,1,0,0:0:0:0:
252,83,25654,2,0,P|256:129|259:176,1,90.9999958343508,4|2,0:3|0:3,0:0:0:0:
248,308,26095,1,0,1:0:0:0:
385,317,26315,1,0,1:0:0:0:
405,121,26536,101,12,0:3:0:0:
281,180,26757,1,2,0:3:0:0:
170,47,26977,1,0,1:3:0:0:
47,172,27198,1,2,0:0:0:0:
47,172,27308,1,0,0:0:0:0:
47,172,27418,2,0,L|35:269,1,90.9999958343508,12|2,0:3|0:3,0:0:0:0:
185,164,27860,2,0,L|173:73,1,90.9999958343508,0|0,1:0|0:0,0:0:0:0:
129,212,28301,6,0,B|289:201|195:267|369:251,1,244.999992523194,0|4,0:0|0:3,0:0:0:0:
385,248,29514,5,4,0:3:0:0:
405,244,29624,2,0,L|458:236,1,52.5000020027161,0|4,1:0|0:3,0:0:0:0:
386,155,29845,2,0,L|333:147,1,52.5000020027161,0|4,1:0|0:3,0:0:0:0:
239,109,30065,6,0,P|300:101|329:55,1,105,4|2,0:3|0:0,0:0:0:0:
193,55,30507,102,0,P|174:83|173:132,1,52.5000020027161,0|4,1:0|0:3,0:0:0:0:
142,215,30727,2,0,P|127:184|85:159,1,52.5000020027161,2|0,0:3|0:0,0:0:0:0:
80,294,30948,6,0,L|200:316,1,105.000004005432,4|2,0:3|0:0,0:0:0:0:
300,251,31389,102,0,L|248:262,1,52.5000020027161,0|4,1:0|0:3,1:0:0:0:
342,319,31610,2,0,L|393:330,1,52.5000020027161,2|0,0:3|0:0,1:0:0:0:
475,165,31830,6,0,P|421:181|368:186,1,105,6|2,0:0|0:0,1:0:0:0:
286,144,32271,102,0,P|275:116|270:89,1,52.5000020027161,0|0,1:0|0:0,0:0:0:0:
394,59,32492,2,0,P|375:82|354:100,1,52.5000020027161,2|0,0:3|0:0,0:0:0:0:
266,7,32713,1,0,0:0:0:0:
126,70,32933,2,0,P|98:83|70:87,1,52.5000020027161,2|0,0:0|0:0,0:0:0:0:
188,112,33154,2,0,P|138:143|73:159,1,105.000004005432,0|0,1:0|1:0,0:0:0:0:
62,160,33485,1,0,1:0:0:0:
30,155,33595,6,0,P|96:180|122:234,1,105,4|2,0:0|0:0,0:0:0:0:
71,335,34036,102,0,L|104:278,1,52.5000020027161,0|0,1:0|0:0,0:0:0:0:
201,216,34257,2,0,L|227:261,1,52.5000020027161,2|0,0:3|0:0,0:0:0:0:
353,292,34477,6,0,P|356:244|333:189,1,105,4|2,0:0|0:0,0:0:0:0:
287,334,34918,102,0,P|315:358|340:368,1,52.5000020027161,0|0,1:0|0:0,0:0:0:0:
425,310,35139,2,0,P|431:273|427:247,1,52.5000020027161,2|0,0:3|0:0,0:0:0:0:
319,97,35360,6,0,P|384:100|431:94,1,105,4|2,1:0|0:0,0:0:0:0:
277,33,35801,102,0,P|249:29|220:29,1,52.5000020027161,0|0,1:0|0:0,0:0:0:0:
127,110,36021,2,0,P|155:110|184:106,1,52.5000020027161,2|0,0:3|0:0,0:0:0:0:
79,25,36242,1,4,1:0:0:0:
67,202,36463,1,2,0:0:0:0:
83,228,36573,1,2,0:0:0:0:
106,248,36683,1,0,1:0:0:0:
268,167,36904,1,0,1:0:0:0:
268,200,37014,1,0,1:0:0:0:
272,228,37124,6,0,P|284:124|292:100,1,105,4|2,1:0|0:0,0:0:0:0:
380,56,37565,102,0,P|372:84|360:116,1,52.5000020027161,0|4,1:0|0:3,0:0:0:0:
216,84,37786,2,0,P|207:59|200:34,1,52.5000020027161,2|0,0:3|0:0,0:0:0:0:
177,168,38007,6,0,B|131:175|131:175|73:169,1,105,4|2,1:0|0:0,0:0:0:0:
42,95,38448,102,0,L|126:104,1,52.5000020027161,0|4,1:0|0:3,0:0:0:0:
202,239,38668,2,0,L|134:250,1,52.5000020027161,2|0,0:3|0:0,0:0:0:0:
271,287,38889,6,0,P|324:294|393:281,1,105,4|2,1:0|0:0,0:0:0:0:
445,206,39330,102,0,L|453:146,1,52.5000020027161,0|4,1:0|0:3,0:0:0:0:
366,103,39551,2,0,L|318:66,1,52.5000020027161,2|0,0:3|0:3,0:0:0:0:
237,118,39771,1,4,1:0:0:0:
271,287,39992,2,0,L|293:341,1,52.5000020027161,2|2,0:0|0:0,0:0:0:0:
202,239,40213,1,0,1:0:0:0:
49,282,40433,1,0,1:0:0:0:
49,282,40543,1,0,1:0:0:0:
49,282,40654,6,0,P|54:229|47:178,1,105.000004005432,4|2,1:0|0:0,0:0:0:0:
37,75,41095,102,0,L|104:88,1,52.5000020027161,0|0,1:0|0:0,0:0:0:0:
146,158,41315,2,0,L|180:118,1,52.5000020027161,2|0,0:3|0:0,0:0:0:0:
291,53,41536,6,0,P|287:105|301:179,1,105,0|2,1:0|0:0,0:0:0:0:
384,221,41977,102,0,L|374:161,1,52.5000020027161,0|0,1:0|0:0,0:0:0:0:
396,296,42198,2,0,L|404:347,1,52.5000020027161,2|0,0:3|0:0,0:0:0:0:
305,265,42418,6,0,P|239:253|184:266,1,105.000004005432,4|2,1:0|0:0,0:0:0:0:
143,382,42860,102,0,L|160:325,1,52.5000020027161,0|0,1:0|0:0,0:0:0:0:
226,131,43080,2,0,L|210:181,1,52.5000020027161,2|0,0:3|0:0,0:0:0:0:
60,132,43301,1,2,0:1:0:0:
182,55,43521,1,0,0:0:0:0:
212,46,43632,1,0,0:0:0:0:
241,39,43742,2,0,L|355:49,1,105.000004005432,0|0,1:0|1:0,1:0:0:0:
377,50,44073,1,0,1:0:0:0:
411,54,44183,22,0,P|411:116|402:165,1,90.9999958343508,4|2,0:1|0:3,0:0:0:0:
384,261,44624,1,0,1:0:0:0:
222,232,44845,1,2,0:3:0:0:
67,293,45065,1,4,0:3:0:0:
67,293,45507,1,4,1:2:0:0:
173,104,45728,1,2,1:3:0:0:
122,194,45948,6,0,L|151:318,1,90.9999958343508,4|2,0:3|0:3,0:0:0:0:
173,104,46389,2,0,L|152:15,1,90.9999958343508,0|2,1:0|0:3,0:0:0:0:
266,46,46830,1,4,0:0:0:0:
380,32,47051,1,2,1:3:0:0:
468,177,47271,1,4,1:2:0:0:
371,247,47492,1,0,1:0:0:0:
344,251,47602,1,0,1:0:0:0:
316,255,47713,102,0,B|267:262|267:262|217:256,1,90.9999958343508,4|0,0:3|0:0,0:0:0:0:
265,356,48154,1,0,1:0:0:0:
139,255,48374,1,0,0:0:0:0:
265,167,48595,1,4,1:0:0:0:
265,167,49036,1,0,1:0:0:0:
139,255,49257,1,0,0:0:0:0:
55,119,49477,6,0,P|44:69|55:16,1,90.9999958343508,4|2,1:2|0:2,0:0:0:0:
353,157,49918,2,0,P|358:201|347:245,1,90.9999958343508,4|0,1:2|0:0,0:0:0:0:
213,68,50360,2,0,L|315:59,1,90.9999958343508,4|2,0:0|1:2,0:0:0:0:
139,255,50801,2,0,L|48:262,1,90.9999958343508,4|6,1:2|0:3,0:0:0:0:
263,164,51242,102,0,L|354:157,1,90.9999958343508,4|2,1:0|0:3,0:0:0:0:
480,147,51683,1,0,1:0:0:0:
425,262,51904,1,0,1:0:0:0:
367,46,52124,1,4,0:3:0:0:
367,46,52565,1,0,1:0:0:0:
312,161,52786,1,0,1:0:0:0:
245,258,53007,6,0,P|252:309|239:367,1,90.9999958343508,4|0,0:3|0:0,0:0:0:0:
97,288,53448,2,0,P|90:237|103:179,1,90.9999958343508,0|0,1:0|0:0,0:0:0:0:
274,40,53889,1,0,1:0:0:0:
177,123,54110,1,0,1:0:0:0:
94,26,54330,1,0,0:0:0:0:
177,123,54551,1,0,1:0:0:0:
177,123,54661,1,0,1:0:0:0:
177,123,54771,101,4,0:3:0:0:
158,244,54992,1,0,0:0:0:0:
362,354,55213,1,0,1:0:0:0:
343,233,55433,1,0,0:0:0:0:
440,21,55654,2,0,P|470:98|382:136,1,181.999991668702,4|0,0:3|1:0,0:0:0:0:
270,124,56315,1,0,0:0:0:0:
166,77,56536,6,0,L|272:97,1,90.9999958343508,4|0,0:3|0:0,0:0:0:0:
173,92,56977,2,0,L|279:112,1,90.9999958343508,0|0,1:2|0:0,0:0:0:0:
180,107,57418,2,0,L|286:127,1,90.9999958343508,0|0,1:2|0:0,0:0:0:0:
70,298,57860,5,4,1:2:0:0:
53,276,57970,1,0,1:0:0:0:
42,251,58080,1,0,1:0:0:0:
37,224,58190,1,0,1:0:0:0:
37,197,58301,86,0,L|58:106,1,90.9999958343508,4|0,1:0|0:0,0:0:0:0:
252,31,58742,1,0,1:0:0:0:
145,101,58963,1,0,1:0:0:0:
339,23,59183,1,4,0:0:0:0:
339,23,59624,1,0,1:0:0:0:
435,106,59845,1,0,0:0:0:0:
357,288,60065,6,0,B|355:247|355:247|366:225|366:225|363:200,1,90.9999958343508,4|0,0:3|0:0,0:0:0:0:
485,265,60507,2,0,B|488:290|488:290|477:312|477:312|479:353,1,90.9999958343508,0|0,1:0|0:0,0:0:0:0:
289,170,60948,1,0,1:0:0:0:
296,46,61168,1,0,1:0:0:0:
173,40,61389,1,0,1:0:0:0:
109,170,61610,1,0,1:0:0:0:
105,197,61720,1,0,1:0:0:0:
101,225,61830,101,4,1:0:0:0:
142,345,62051,1,0,1:0:0:0:
208,162,62271,1,0,1:0:0:0:
249,282,62492,1,0,1:0:0:0:
315,99,62713,1,0,1:2:0:0:
315,99,63154,2,0,P|330:173|341:188,1,90.9999958343508,0|0,1:0|0:0,0:0:0:0:
506,188,63595,5,4,1:2:0:0:
396,124,63816,1,0,0:0:0:0:
396,252,64036,1,4,1:2:0:0:
481,64,64257,1,0,0:0:0:0:
301,163,64477,1,4,1:2:0:0:
506,188,64698,1,0,1:2:0:0:
344,51,64918,1,0,1:0:0:0:
420,141,65139,1,0,1:0:0:0:
396,252,65360,101,4,1:2:0:0:
281,306,65580,1,0,0:0:0:0:
158,271,65801,2,0,P|131:231|134:179,1,90.9999958343508,0|0,1:0|0:0,0:0:0:0:
186,74,66242,1,4,1:3:0:0:
186,74,66683,1,0,1:0:0:0:
61,100,66904,1,0,1:0:0:0:
265,148,67124,6,0,P|292:108|289:56,1,90.9999958343508,4|0,0:3|0:0,0:0:0:0:
201,201,67565,2,0,L|124:263,1,90.9999958343508,0|0,1:0|0:0,0:0:0:0:
30,338,68007,1,0,1:0:0:0:
155,356,68227,1,0,0:0:0:0:
347,219,68448,1,0,1:0:0:0:
265,148,68668,1,0,1:0:0:0:
265,148,68779,1,0,1:0:0:0:
265,148,68889,102,0,P|238:188|241:240,1,90.9999958343508,4|0,0:3|0:0,0:0:0:0:
411,333,69330,1,0,1:0:0:0:
473,221,69551,1,0,0:0:0:0:
473,221,69771,2,0,B|426:121|490:130|463:36,1,181.999991668702,4|0,0:3|1:0,0:0:0:0:
342,78,70433,1,0,0:0:0:0:
215,94,70654,6,0,P|171:94|120:88,1,90.9999958343508,4|0,1:2|0:0,0:0:0:0:
217,106,71095,2,0,P|173:106|122:100,1,90.9999958343508,4|0,0:2|0:0,0:0:0:0:
80,191,71536,6,0,L|89:219,5,30.3333319447836,4|8|8|4|8|4,1:2|0:3|0:3|0:3|0:3|0:3,0:0:0:0:
87,237,71977,1,4,1:2:0:0:
361,222,72198,1,0,1:0:0:0:
361,222,72308,1,0,1:0:0:0:
361,222,72418,22,0,P|308:240|250:239,1,105.000004005432,4|2,1:1|0:0,0:0:0:0:
227,34,72860,1,0,1:0:0:0:
165,155,73080,1,0,0:0:0:0:
195,147,73190,1,0,1:0:0:0:
226,139,73300,1,0,0:0:0:0:
256,132,73410,1,4,0:3:0:0:
287,124,73521,1,4,0:3:0:0:
462,148,73742,2,0,P|455:205|444:256,1,105.000004005432,0|0,1:0|0:0,0:0:0:0:
435,281,74073,1,0,1:0:0:0:
422,310,74183,21,4,0:0:0:0:
293,262,74404,1,2,0:0:0:0:
435,63,74624,1,0,1:0:0:0:
349,170,74845,1,2,0:0:0:0:
317,175,74955,1,0,1:0:0:0:
286,176,75065,1,4,0:3:0:0:
255,173,75175,1,4,0:3:0:0:
224,166,75286,1,4,0:3:0:0:
87,70,75507,2,0,L|102:124,1,52.5000020027161,0|4,1:0|0:3,0:0:0:0:
60,187,75727,2,0,L|45:237,1,52.5000020027161,0|4,1:0|0:3,0:0:0:0:
51,334,75948,22,0,B|60:280|60:280|80:232,1,105.000004005432,4|4,1:0|0:3,0:0:0:0:
253,65,76389,2,0,B|244:119|244:119|224:167,1,105.000004005432,0|4,1:0|0:3,0:0:0:0:
159,220,76720,2,0,L|145:164,1,52.5000020027161,0|0,1:0|3:3,0:0:0:0:
320,147,76940,2,0,L|296:194,1,52.5000020027161,4|0,0:3|0:3,0:0:0:0:
222,338,77271,2,0,P|269:351|332:335,1,105.000004005432,0|0,1:0|0:0,0:0:0:0:
352,326,77602,1,0,1:0:0:0:
378,308,77713,22,0,L|460:241,1,105.000004005432
416,80,78154,1,0,1:0:0:0:
240,23,78374,1,2,0:0:0:0:
213,39,78484,1,0,1:0:0:0:
194,64,78594,1,8,0:3:0:0:
183,93,78704,1,8,0:3:0:0:
182,125,78815,1,4,0:3:0:0:
191,155,78925,1,4,0:3:0:0:
210,180,79036,1,0,1:0:0:0:
284,308,79257,1,0,1:0:0:0:
256,324,79367,1,0,1:0:0:0:
226,336,79477,22,0,P|141:343|99:337,1,105.000004005432,4|0,0:1|0:0,0:0:0:0:
8,213,79918,2,0,P|93:206|135:212,1,105.000004005432,0|0,1:0|0:0,0:0:0:0:
204,266,80249,2,0,P|138:273|104:274,1,52.5000020027161,0|2,1:0|0:0,0:0:0:0:
44,336,80470,2,0,P|110:329|144:328,1,52.5000020027161,4|4,0:3|0:3,0:0:0:0:
365,243,80801,1,0,1:0:0:0:
420,107,81021,2,0,L|439:52,1,52.5000020027161,0|0,0:0|1:0,0:0:0:0:
490,3,81242,22,0,L|450:104,1,105.000004005432,4|0,0:3|0:0,0:0:0:0:
365,243,81683,1,0,1:0:0:0:
293,98,81904,2,0,L|266:44,1,52.5000020027161,0|0,0:0|1:0,0:0:0:0:
198,129,82124,2,0,L|164:179,1,52.5000020027161,0|4,0:0|0:3,0:0:0:0:
272,194,82345,1,4,0:3:0:0:
453,193,82565,2,0,L|510:194,1,52.5000020027161,0|4,1:0|0:3,0:0:0:0:
455,294,82786,2,0,L|482:343,1,52.5000020027161,0|0,1:0|1:0,0:0:0:0:
371,345,83007,22,0,P|308:359|251:344,1,105.000004005432,4|0,1:0|0:0,0:0:0:0:
129,305,83448,1,0,1:0:0:0:
44,185,83668,2,0,L|27:260,1,52.5000020027161,0|0,0:0|1:0,0:0:0:0:
129,305,83889,2,0,L|162:352,1,52.5000020027161,0|0,0:0|0:3,0:0:0:0:
269,351,84110,1,4,0:3:0:0:
314,212,84330,2,0,L|352:91,1,105.000004005432,0|0,1:0|0:0,0:0:0:0:
358,82,84661,1,0,1:0:0:0:
368,52,84771,21,4,0:3:0:0:
229,6,84992,1,0,0:0:0:0:
165,200,85213,2,0,L|203:79,1,105.000004005432,0|0,1:0|0:0,0:0:0:0:
170,117,85543,1,0,1:0:0:0:
142,131,85653,1,4,0:3:0:0:
112,140,85763,1,4,0:3:0:0:
80,143,85873,1,8,0:3:0:0:
49,139,85984,1,8,0:3:0:0:
19,129,86095,2,0,P|13:70|31:16,1,105.000004005432,0|0,1:0|1:0,1:0:0:0:
316,27,86536,22,0,P|367:36|428:37,1,105.000004005432,4|0,1:0|0:0,0:0:0:0:
480,164,86977,1,0,1:0:0:0:
353,223,87198,2,0,P|345:190|347:156,1,52.5000020027161,0|0,0:0|1:0,0:0:0:0:
422,271,87418,2,0,P|430:304|428:338,1,52.5000020027161,0|0,0:0|1:0,0:0:0:0:
331,294,87639,2,0,L|227:283,1,105.000004005432,4|0,0:3|1:0,0:0:0:0:
146,314,88080,1,0,1:0:0:0:
146,314,88190,1,0,3:0:0:0:
146,314,88301,22,0,B|83:324|83:324|34:321,1,105.000004005432,0|0,1:0|0:0,0:0:0:0:
83,85,88742,1,0,1:0:0:0:
65,231,88963,2,0,L|73:168,1,52.5000020027161,0|0,0:0|1:0,0:0:0:0:
83,85,89183,2,0,L|91:22,1,52.5000020027161
151,143,89404,1,4,0:3:0:0:
379,217,89624,2,0,L|434:251,1,52.5000020027161,0|4,1:0|0:3,0:0:0:0:
432,145,89845,2,0,L|487:111,1,52.5000020027161,0|0,1:0|1:0,0:0:0:0:
362,107,90065,22,0,P|315:125|259:168,1,105.000004005432,4|0,1:0|0:0,0:0:0:0:
136,305,90507,2,0,P|203:325|258:313,1,105.000004005432,0|0,1:0|0:0,0:0:0:0:
268,318,90838,1,0,1:0:0:0:
299,313,90948,1,0,0:0:0:0:
330,317,91058,1,4,0:3:0:0:
359,328,91168,1,4,0:3:0:0:
494,238,91389,1,0,1:0:0:0:
363,170,91610,2,0,L|307:135,1,52.5000020027161,0|0,0:0|1:0,0:0:0:0:
447,104,91830,22,0,P|443:159|423:217,1,105.000004005432,4|0,0:3|0:0,0:0:0:0:
285,244,92271,1,0,1:0:0:0:
167,90,92492,2,0,L|151:27,1,52.5000020027161,0|0,0:0|1:0,0:0:0:0:
232,21,92713,1,8,0:3:0:0:
262,20,92823,1,8,0:3:0:0:
293,29,92933,1,4,0:3:0:0:
319,45,93043,1,4,0:3:0:0:
339,69,93154,1,0,1:0:0:0:
237,187,93374,1,0,1:0:0:0:
237,187,93485,1,0,0:0:0:0:
237,187,93595,21,4,1:0:0:0:
419,323,93815,1,0,0:0:0:0:
419,129,94036,1,0,1:0:0:0:
508,232,94257,2,0,L|456:237,1,52.5000020027161,0|0,0:0|1:0,0:0:0:0:
353,277,94477,2,0,L|260:285,1,52.5000020027161,0|4,0:0|0:3,0:0:0:0:
226,288,94698,1,4,0:3:0:0:
27,254,94918,2,0,P|62:203|66:136,1,105.000004005432,0|0,1:0|0:0,0:0:0:0:
78,83,95249,1,4,0:3:0:0:
78,83,95360,22,0,P|131:68|195:86,1,105.000004005432,0|4,0:0|0:3,0:0:0:0:
179,224,95801,1,0,1:0:0:0:
314,167,96021,2,0,P|364:167|377:165,1,52.5000020027161,0|0,0:0|1:0,0:0:0:0:
300,67,96242,2,0,P|300:17|298:4,1,52.5000020027161,0|4,0:0|0:3,0:0:0:0:
200,81,96463,1,4,0:3:0:0:
428,81,96683,2,0,P|478:81|491:83,1,52.5000020027161,0|0,1:0|1:0,0:0:0:0:
414,181,96904,2,0,P|414:231|412:244,1,52.5000020027161,0|4,1:0|0:3,0:0:0:0:
279,329,97124,21,6,1:0:0:0:
218,149,97345,1,0,0:0:0:0:
414,181,97565,1,0,1:0:0:0:
276,233,97786,1,0,0:0:0:0:
246,243,97896,1,0,1:0:0:0:
215,250,98007,1,0,0:0:0:0:
184,255,98117,1,4,0:3:0:0:
153,260,98227,1,4,0:3:0:0:
5,267,98448,1,0,1:0:0:0:
94,164,98668,2,0,L|136:122,1,52.5000020027161,0|0,0:0|1:0,0:0:0:0:
163,56,98889,22,0,L|91:132,1,105.000004005432,4|4,0:0|0:3,0:0:0:0:
295,74,99330,1,0,1:0:0:0:
278,187,99551,2,0,L|236:145,1,52.5000020027161,0|0,0:0|1:0,0:0:0:0:
190,256,99771,22,0,P|184:283|184:305,5,35.0000013351441,8|4|8|4|8|4,0:3|0:3|0:3|0:3|0:3|0:3,0:0:0:0:
200,243,100213,1,0,1:0:0:0:
445,281,100433,1,0,1:0:0:0:
445,281,100543,1,0,1:0:0:0:
445,281,100654,6,0,P|383:235|294:254,1,136.499993751526,4|4,0:3|0:3,0:0:0:0:
360,323,101095,2,0,P|386:251|378:197,1,90.9999958343508,4|4,2:0|0:3,0:0:0:0:
386,210,101426,1,4,0:3:0:0:
386,182,101536,2,0,L|413:45,1,136.499993751526,0|0,1:0|1:0,0:0:0:0:
502,73,101977,2,0,P|468:122|429:139,1,90.9999958343508,4|0,0:0|0:0,0:0:0:0:
184,220,102418,22,0,P|218:171|294:149,1,136.499993751526,4|4,0:0|0:3,0:0:0:0:
292,176,102860,1,6,0:3:0:0:
280,332,103080,1,0,0:0:0:0:
280,332,103190,1,0,0:0:0:0:
280,332,103301,1,0,1:0:0:0:
56,256,103521,1,6,0:3:0:0:
207,289,103742,1,0,1:0:0:0:
380,276,103963,1,0,0:0:0:0:
467,196,104183,22,0,P|511:140|511:72,1,136.499993751526,4|4,1:0|0:3,0:0:0:0:
424,37,104624,2,0,L|334:22,1,90.9999958343508,0|0,1:0|0:0,0:0:0:0:
306,17,104955,1,0,0:0:0:0:
279,12,105065,2,0,P|275:79|233:130,1,136.499993751526,4|4,1:0|0:3,0:0:0:0:
149,321,105507,2,0,P|152:253|192:203,1,90.9999958343508,0|4,1:0|0:3,0:0:0:0:
233,131,105948,22,0,P|179:137|115:84,1,136.499993751526,4|4,1:0|0:3,0:0:0:0:
198,47,106389,1,2,0:0:0:0:
274,219,106610,1,4,0:3:0:0:
274,219,106720,1,4,0:3:0:0:
274,219,106830,2,0,L|390:225,1,90.9999958343508,0|4,1:0|0:3,0:0:0:0:
272,116,107271,1,0,1:0:0:0:
277,89,107381,1,0,1:0:0:0:
290,65,107491,1,0,1:0:0:0:
311,48,107601,1,0,1:0:0:0:
336,37,107713,22,0,L|472:32,1,136.499993751526,4|0,1:0|0:0,0:0:0:0:
347,193,108154,2,0,L|218:198,1,90.9999958343508,4|4,1:0|0:3,0:0:0:0:
228,196,108485,1,4,0:3:0:0:
199,195,108595,2,0,P|210:272|186:333,1,136.499993751526,0|0,1:0|1:0,0:0:0:0:
100,330,109036,2,0,L|190:326,1,90.9999958343508,0|0,0:0|0:3,0:0:0:0:
325,324,109477,22,0,P|392:319|439:259,1,136.499993751526,4|0,1:0|0:3,0:0:0:0:
458,183,109918,2,0,L|457:93,1,90.9999958343508,2|0,0:3|0:0,0:0:0:0:
352,146,110249,1,0,0:0:0:0:
352,146,110360,2,0,L|352:243,1,90.9999958343508,0|0,1:0|0:0,0:0:0:0:
281,34,110801,1,0,1:0:0:0:
202,140,111021,1,0,0:0:0:0:
202,140,111242,22,0,P|140:166|60:158,1,136.499993751526,4|0,1:0|0:0,0:0:0:0:
127,94,111683,2,0,L|142:203,1,90.9999958343508,4|4,0:3|0:3,0:0:0:0:
145,211,112014,1,4,0:3:0:0:
149,237,112124,2,0,L|126:378,1,136.499993751526,0|0,1:0|1:0,0:0:0:0:
55,324,112565,2,0,L|72:225,1,90.9999958343508
308,153,113007,22,0,P|371:155|445:178,1,136.499993751526,4|0,1:0|0:0,0:0:0:0:
453,331,113448,2,0,P|390:329|327:310,1,90.9999958343508,4|0,1:0|0:0,0:0:0:0:
336,316,113779,1,0,0:0:0:0:
309,308,113889,1,0,1:0:0:0:
207,247,114110,1,0,0:0:0:0:
203,76,114330,1,0,1:0:0:0:
176,68,114440,1,0,1:0:0:0:
149,60,114551,1,0,1:0:0:0:
122,55,114661,1,0,1:0:0:0:
95,52,114771,22,0,P|247:43|268:37,1,136.499993751526,4|0,1:0|0:0,0:0:0:0:
380,37,115213,2,0,P|340:73|330:126,1,90.9999958343508,0|4,0:0|0:3,0:0:0:0:
427,239,115543,1,4,0:3:0:0:
427,239,115654,2,0,P|451:189|421:118,1,136.499993751526,0|0,1:0|1:0,0:0:0:0:
265,136,116095,2,0,L|147:153,1,90.9999958343508,2|4,0:3|0:3,0:0:0:0:
74,212,116536,22,0,B|144:221|144:221|209:264,1,136.499993751526,4|4,0:3|0:3,0:0:0:0:
269,350,116977,2,0,L|178:290,1,90.9999958343508,2|0,0:3|0:0,0:0:0:0:
169,286,117308,1,0,0:0:0:0:
144,273,117418,1,0,1:0:0:0:
286,245,117639,1,0,0:0:0:0:
428,217,117860,1,0,1:0:0:0:
428,217,118080,1,0,0:0:0:0:
434,27,118301,22,0,P|426:91|369:144,1,136.499993751526,4|4,1:0|0:3,0:0:0:0:
284,127,118742,2,0,B|225:116|237:154|170:140,1,90.9999958343508,2|4,0:3|0:3,0:0:0:0:
168,142,119073,1,4,0:3:0:0:
141,137,119183,2,0,P|102:85|129:0,1,136.499993751526,0|0,1:0|1:0,0:0:0:0:
185,61,119624,1,0,0:0:0:0:
284,127,119845,1,4,0:3:0:0:
138,306,120065,22,0,P|184:267|275:292,1,136.499993751526,4|0,1:1|0:0,0:0:0:0:
436,297,120507,2,0,P|390:336|326:329,1,90.9999958343508,0|4,1:1|0:3,0:0:0:0:
334,334,120838,1,4,0:3:0:0:
307,326,120948,1,0,1:0:0:0:
460,205,121168,1,0,0:0:0:0:
338,206,121389,1,0,1:0:0:0:
327,180,121499,1,0,1:0:0:0:
321,154,121609,1,0,1:0:0:0:
318,127,121719,1,0,1:0:0:0:
318,99,121830,22,0,P|369:73|383:-2,1,136.499993751526,4|0,1:0|0:0,0:0:0:0:
312,24,122271,2,0,L|219:51,1,90.9999958343508
197,56,122602,1,0,0:0:0:0:
171,65,122713,2,0,P|158:139|186:200,1,136.499993751526,0|0,1:0|1:0,0:0:0:0:
246,112,123154,2,0,L|153:139,1,90.9999958343508
21,296,123595,22,0,P|95:308|156:280,1,136.499993751526,4|0,1:0|0:0,0:0:0:0:
177,281,124036,1,0,0:0:0:0:
283,228,124257,1,4,0:3:0:0:
283,228,124367,1,4,0:3:0:0:
283,228,124477,1,0,1:0:0:0:
129,194,124698,1,4,0:3:0:0:
266,313,124918,1,0,1:0:0:0:
204,140,125139,1,4,0:0:0:0:
400,312,125360,21,4,1:0:0:0:
368,144,125580,1,4,0:3:0:0:
476,200,125801,1,4,0:3:0:0:
305,77,126021,1,4,0:3:0:0:
305,77,126132,1,4,0:3:0:0:
305,77,126242,2,0,P|228:83|201:77,1,90.9999958343508,0|0,1:0|0:0,0:0:0:0:
99,53,126683,1,0,1:0:0:0:
87,77,126793,1,0,1:0:0:0:
81,104,126903,1,0,1:0:0:0:
82,131,127013,1,0,1:0:0:0:
88,158,127124,69,2,0:2:0:0:
303,167,128007,5,4,1:0:0:0:
312,182,128448,5,4,1:0:0:0:
322,197,128889,86,0,P|380:184|416:136,1,105,6|2,1:0|0:0,0:0:0:0:
424,32,129330,6,0,L|413:120,1,52.5000020027161,0|0,1:0|0:0,0:0:0:0:
394,265,129551,2,0,L|383:353,1,52.5000020027161,2|0,0:1|0:0,0:0:0:0:
480,228,129771,102,0,P|508:174|502:119,1,105.000004005432,6|2,1:0|0:0,0:0:0:0:
424,32,130213,6,0,L|335:21,1,52.5000020027161,0|0,1:0|0:0,0:0:0:0:
237,89,130433,2,0,L|148:99,1,52.5000020027161,2|0,0:1|0:0,0:0:0:0:
60,113,130654,102,0,P|92:178|91:226,1,105.000004005432,4|0,1:0|0:0,0:0:0:0:
43,309,131095,6,0,P|28:331|18:355,1,52.5000020027161,0|0,1:1|0:0,0:0:0:0:
175,278,131315,2,0,P|201:280|228:278,1,52.5000020027161,2|0,1:0|0:0,0:0:0:0:
326,258,131536,101,4,1:0:0:0:
416,72,131757,1,0,0:0:0:0:
445,61,131867,1,4,0:3:0:0:
476,58,131977,1,0,1:0:0:0:
447,202,132198,1,0,1:0:0:0:
447,202,132308,1,0,1:0:0:0:
447,202,132418,6,0,L|416:307,1,105,4|0,1:0|1:0,0:0:0:0:
240,269,132860,102,0,P|214:261|189:253,1,52.5000020027161,0|0,1:0|1:0,0:0:0:0:
194,125,133080,2,0,P|200:99|209:74,1,52.5000020027161,2|0,0:1|1:0,0:0:0:0:
338,79,133301,6,0,P|364:85|440:124,1,105.000004005432,4|0,1:3|1:0,0:0:0:0:
500,316,133742,102,0,L|476:244,1,52.5000020027161,0|0,1:0|0:0,0:0:0:0:
344,202,133963,2,0,L|327:251,1,52.5000020027161,2|0,0:1|0:0,0:0:0:0:
189,253,134183,6,0,P|169:192|177:152,1,105.000004005432,4|0,1:0|0:0,0:0:0:0:
270,39,134624,102,0,P|222:58|192:97,1,52.5000020027161,0|0,1:0|0:0,0:0:0:0:
414,62,134845,2,0,P|372:30|324:23,1,52.5000020027161,2|0,1:0|0:0,0:0:0:0:
465,198,135065,5,4,1:0:0:0:
338,273,135286,2,0,L|313:345,1,52.5000020027161,2|2,0:0|0:0,0:0:0:0:
344,202,135507,1,0,1:0:0:0:
172,120,135727,1,0,1:0:0:0:
172,120,135838,1,0,1:0:0:0:
172,120,135948,102,0,B|167:159|167:159|151:184|151:184|145:235,1,105,4|2,1:0|0:0,0:0:0:0:
162,357,136389,6,0,L|169:298,1,52.5000020027161,0|0,1:0|0:0,0:0:0:0:
250,118,136610,2,0,L|243:170,1,52.5000020027161,2|0,0:1|0:0,0:0:0:0:
309,235,136830,102,0,P|367:243|425:227,1,105.000004005432,4|0,1:0|0:0,0:0:0:0:
458,156,137271,6,0,L|407:142,1,52.5000020027161,0|0,1:0|0:0,0:0:0:0:
309,235,137492,2,0,L|258:249,1,52.5000020027161,2|0,0:1|0:0,0:0:0:0:
151,224,137713,102,0,P|195:182|191:135,1,105.000004005432,4|0,1:0|0:0,0:0:0:0:
73,53,138154,6,0,P|97:63|134:60,1,52.5000020027161,0|0,1:0|0:0,0:0:0:0:
294,52,138374,2,0,P|270:42|233:45,1,52.5000020027161,2|0,0:1|0:0,0:0:0:0:
358,97,138595,101,4,1:2:0:0:
439,183,138815,1,2,0:0:0:0:
448,213,138926,1,2,0:0:0:0:
452,244,139036,1,0,1:0:0:0:
336,328,139257,2,0,P|320:293|322:263,1,52.5000020027161,0|0,1:0|1:0,0:0:0:0:
370,228,139477,6,0,P|314:240|263:224,1,105.000004005432,4|0,1:0|0:0,0:0:0:0:
68,162,139918,102,0,L|122:146,1,52.5000020027161,0|0,1:0|0:0,0:0:0:0:
66,263,140139,2,0,L|120:279,1,52.5000020027161,2|0,0:1|0:0,0:0:0:0:
269,227,140360,6,0,L|151:214,1,105,4|0,1:0|0:0,0:0:0:0:
183,295,140801,102,0,L|246:315,1,52.5000020027161,0|0,1:0|0:0,0:0:0:0:
185,130,141021,2,0,L|248:110,1,52.5000020027161,2|0,0:1|0:0,0:0:0:0:
378,177,141242,6,0,P|384:232|371:287,1,105.000004005432,4|0,1:0|0:0,0:0:0:0:
269,227,141683,102,0,L|170:215,1,52.5000020027161,0|0,1:0|0:0,0:0:0:0:
132,123,141904,2,0,L|184:129,1,52.5000020027161,0|0,1:0|1:0,0:0:0:0:
388,44,142124,86,0,P|424:84|436:112,2,70.0000026702882,4|0|0,1:0|1:0|1:0,1:0:0:0:
431,285,142565,2,0,P|413:315|388:340,2,70.0000026702882,4|0|0,1:0|1:0|1:0,1:0:0:0:
240,304,143007,70,0,P|172:308|76:276,1,157.500006008148,4|0,0:3|0:0,0:0:0:0:
87,282,143448,1,0,1:0:0:0:
78,146,143668,1,0,0:0:0:0:
228,47,143889,2,0,P|192:111|180:127,2,52.5000020027161,4|4|4,1:2|0:3|0:3,0:0:0:0:
316,88,144330,2,0,P|368:80|428:112,1,105.000004005432,0|0,1:0|0:0,0:0:0:0:
462,364,144771,102,0,L|434:201,1,157.500006008148,0|4,0:0|0:3,0:0:0:0:
435,208,145213,2,0,P|387:227|255:158,1,210.000008010865,0|4,1:0|0:0,0:0:0:0:
242,132,145764,1,4,0:3:0:0:
230,102,145874,1,4,0:3:0:0:
363,111,146095,1,0,1:0:0:0:
275,284,146315,1,4,0:3:0:0:
164,204,146536,6,0,L|140:97,1,105.000004005432,4|0,1:0|0:0,0:0:0:0:
118,78,146867,1,0,0:0:0:0:
91,60,146977,2,0,L|113:162,1,105.000004005432,0|0,1:0|0:0,0:0:0:0:
154,345,147418,1,0,1:1:0:0:
172,319,147529,1,4,3:0:0:0:
188,293,147639,1,4,3:0:0:0:
283,120,147860,2,0,P|283:176|251:216,1,105.000004005432,0|0,1:0|0:0,0:0:0:0:
318,45,148301,102,0,B|376:53|376:53|426:81,1,105.000004005432,4|0,0:0|0:0,0:0:0:0:
432,102,148632,1,4,0:3:0:0:
448,129,148742,2,0,P|433:243|433:245,1,105.000004005432,4|0,1:2|0:0,0:0:0:0:
194,339,149183,2,0,B|136:331|136:331|101:311,2,52.5000020027161,4|0|0,0:0|0:0|1:0,0:0:0:0:
30,225,149624,1,4,1:2:0:0:
276,181,149845,1,4,1:2:0:0:
179,252,150065,6,0,P|156:185|194:91,1,157.500006008148,4|0,1:0|0:0,0:0:0:0:
276,181,150507,1,0,1:0:0:0:
268,316,150727,1,0,0:0:0:0:
268,46,150948,1,4,0:0:0:0:
296,59,151058,1,4,0:3:0:0:
324,72,151168,1,4,0:3:0:0:
430,158,151389,1,0,1:0:0:0:
276,181,151610,1,0,1:0:0:0:
181,105,151830,102,0,P|129:68|7:112,1,157.500006008148,4|4,0:3|0:3,0:0:0:0:
15,100,152271,1,0,1:0:0:0:
163,263,152713,2,0,L|146:325,1,52.5000020027161,4|4,0:0|0:3,0:0:0:0:
162,342,152933,2,0,L|198:232,1,105.000004005432,4|0,0:3|1:0,0:0:0:0:
59,264,153374,1,4,0:3:0:0:
271,234,153595,6,0,B|349:189|351:251|449:198,1,157.500006008148
452,197,154036,1,0,1:0:0:0:
338,334,154257,1,0,0:0:0:0:
311,122,154477,1,4,0:0:0:0:
309,90,154587,1,4,0:3:0:0:
317,60,154697,1,4,0:3:0:0:
468,31,154918,1,0,1:0:0:0:
468,31,155139,1,0,0:0:0:0:
468,31,155360,102,0,P|393:62|283:48,1,157.500006008148,4|0,0:3|0:0,0:0:0:0:
262,15,155801,2,0,P|183:13|111:43,1,157.500006008148,0|0,1:3|1:0,0:0:0:0:
86,62,156242,1,0,3:3:0:0:
65,85,156353,1,8,0:3:0:0:
48,112,156463,1,12,0:3:0:0:
36,141,156573,1,4,0:3:0:0:
28,171,156683,1,0,1:0:0:0:
25,203,156794,1,4,0:3:0:0:
28,234,156904,1,0,1:0:0:0:
35,265,157014,1,0,1:0:0:0:
48,293,157124,54,0,L|160:272,1,105.000004005432,4|0,1:0|0:0,0:0:0:0:
256,188,157565,1,0,1:0:0:0:
464,83,157786,1,0,0:0:0:0:
464,83,158007,2,0,L|352:104,1,105.000004005432,4|0,0:0|0:0,0:0:0:0:
256,188,158448,1,0,1:0:0:0:
256,324,158668,1,0,0:0:0:0:
457,260,158889,6,0,P|470:201|452:150,1,105.000004005432,2|0,0:0|0:0,0:0:0:0:
256,87,159330,2,0,P|243:146|261:197,1,105.000004005432,2|0,1:2|0:0,0:0:0:0:
395,136,159771,1,2,0:3:0:0:
257,19,159991,1,2,0:3:0:0:
117,136,160213,1,0,1:3:0:0:
144,268,160433,1,0,1:0:0:0:
144,268,160543,1,0,1:0:0:0:
144,268,160654,102,0,L|13:272,1,105.000004005432,4|0,0:0|0:0,0:0:0:0:
225,207,161095,2,0,L|356:211,1,105.000004005432,0|0,1:0|0:0,0:0:0:0:
402,313,161536,2,0,P|329:213|395:120,1,210.000008010865,0|0,0:0|1:0,0:0:0:0:
483,89,162198,1,0,0:0:0:0:
434,215,162418,5,0,0:0:0:0:
409,80,162639,1,0,0:0:0:0:
249,183,162860,1,0,1:0:0:0:
325,70,163080,1,0,0:0:0:0:
197,308,163301,2,0,L|196:368,2,52.5000020027161,0|0|0,1:0|1:0|1:0,0:0:0:0:
68,70,163742,2,0,L|69:10,2,52.5000020027161,0|0|0,1:0|1:0|1:0,0:0:0:0:
50,228,164183,102,0,P|52:300|9:334,1,105.000004005432,4|0,1:0|0:0,0:0:0:0:
10,154,164624,2,0,L|119:146,1,105.000004005432,0|0,1:0|0:0,0:0:0:0:
397,146,165065,2,0,L|502:154,1,105.000004005432
381,307,165507,1,0,1:0:0:0:
324,182,165727,1,0,0:0:0:0:
361,50,165948,6,0,P|395:125|397:154,1,105.000004005432
381,307,166389,1,0,1:0:0:0:
381,307,166830,1,0,1:0:0:0:
121,263,167051,1,0,0:0:0:0:
231,92,167271,2,0,L|116:50,1,105.000004005432,0|0,1:0|1:0,0:0:0:0:
103,43,167602,1,0,1:0:0:0:
72,32,167713,102,0,P|77:110|67:158,1,105.000004005432,4|0,1:0|0:0,0:0:0:0:
173,173,168154,2,0,P|138:243|105:279,1,105.000004005432,4|0,1:0|0:0,0:0:0:0:
231,92,168595,1,4,0:3:0:0:
127,268,169036,2,0,P|157:225|178:177,1,105.000004005432,4|0,1:0|0:0,0:0:0:0:
313,156,169477,5,4,0:0:0:0:
313,156,169918,1,4,0:0:0:0:
127,268,170139,2,0,L|161:315,1,52.5000020027161,4|4,0:3|0:3,0:0:0:0:
275,281,170360,2,0,L|258:327,5,35.0000013351441,8|4|8|4|8|4,0:3|0:3|0:3|0:3|0:3|0:3,0:0:0:0:
265,334,170801,1,4,0:3:0:0:
392,280,171242,6,0,P|403:228|392:174,1,105.000004005432,4|0,1:0|0:0,0:0:0:0:
229,128,171683,2,0,P|304:129|355:74,1,105.000004005432,4|0,1:0|0:0,0:0:0:0:
141,101,172014,2,0,P|135:132|141:155,1,52.5000020027161,0|0,1:0|0:0,0:0:0:0:
213,266,172235,2,0,P|219:235|213:212,1,52.5000020027161,4|4,0:3|0:3,0:0:0:0:
20,121,172565,2,0,L|43:268,1,105.000004005432,0|0,1:0|0:0,0:0:0:0:
42,255,172896,1,0,1:0:0:0:
48,285,173007,22,0,P|100:306|160:285,1,105.000004005432,4|0,0:3|0:0,0:0:0:0:
340,263,173448,2,0,P|288:242|228:263,1,105.000004005432,4|0,1:3|0:0,0:0:0:0:
213,266,173779,1,0,1:0:0:0:
219,236,173889,1,0,0:0:0:0:
219,204,173999,1,4,0:3:0:0:
212,173,174109,1,4,0:3:0:0:
293,31,174330,1,0,1:0:0:0:
287,61,174440,1,4,0:3:0:0:
287,93,174550,1,0,1:3:0:0:
294,124,174660,1,0,1:3:0:0:
309,151,174771,22,0,L|407:201,1,105.000004005432,4|0,1:0|0:0,0:0:0:0:
212,173,175213,2,0,L|114:223,1,105.000004005432,0|0,1:0|0:0,0:0:0:0:
90,235,175543,1,0,1:0:0:0:
62,249,175653,1,0,0:0:0:0:
30,251,175763,1,4,0:3:0:0:
1,242,175873,1,4,0:3:0:0:
59,41,176095,2,0,P|60:99|44:156,1,105.000004005432,0|0,1:0|0:0,0:0:0:0:
75,126,176426,1,0,1:0:0:0:
104,116,176536,22,0,P|165:102|213:118,1,105.000004005432,4|4,0:3|0:3,0:0:0:0:
372,304,176977,2,0,P|311:318|263:302,1,105.000004005432,0|4,1:3|0:3,0:0:0:0:
241,315,177308,1,0,1:0:0:0:
209,311,177418,1,0,1:0:0:0:
183,292,177528,1,8,0:3:0:0:
162,268,177638,1,8,0:3:0:0:
150,238,177748,1,4,0:3:0:0:
142,206,177860,2,0,L|132:144,1,52.5000020027161,0|0,1:0|1:0,1:0:0:0:
225,57,178080,2,0,L|225:109,1,52.5000020027161,0|0,1:0|1:0,0:0:0:0:
347,152,178301,21,4,1:0:0:0:
248,246,178521,1,4,0:3:0:0:
372,304,178742,1,0,1:0:0:0:
449,192,178963,1,4,0:3:0:0:
455,161,179073,1,0,1:0:0:0:
462,130,179183,1,0,0:0:0:0:
469,99,179293,1,4,0:3:0:0:
476,68,179404,1,4,0:3:0:0:
337,106,179624,2,0,P|273:120|219:107,1,105.000004005432,0|0,1:0|0:0,0:0:0:0:
205,102,179955,1,0,1:0:0:0:
174,92,180065,22,0,P|156:156|169:201,1,105.000004005432,4|0,0:3|0:0,0:0:0:0:
205,329,180507,1,0,1:0:0:0:
67,296,180727,2,0,L|53:239,1,52.5000020027161,0|0,0:0|1:0,0:0:0:0:
72,119,180948,2,0,L|84:169,2,52.5000020027161,0|4|4,0:0|0:3|0:3,0:0:0:0:
182,36,181389,2,0,L|241:51,1,52.5000020027161,0|0,1:0|0:0,0:0:0:0:
337,106,181610,2,0,L|278:121,1,52.5000020027161,0|0,1:0|1:0,0:0:0:0:
193,141,181830,22,0,P|179:196|194:257,1,105.000004005432,4|0,1:0|0:0,0:0:0:0:
279,344,182271,1,0,1:0:0:0:
322,211,182492,2,0,L|263:227,1,52.5000020027161,0|0,0:0|1:0,0:0:0:0:
126,263,182713,2,0,L|76:277,2,52.5000020027161,0|4|4,0:0|0:3|0:3,0:0:0:0:
322,211,183154,2,0,L|430:183,1,105.000004005432,0|0,1:0|0:0,0:0:0:0:
450,201,183485,1,0,1:0:0:0:
477,215,183595,22,0,P|490:146|474:98,1,105.000004005432,4|0,0:3|0:0,0:0:0:0:
364,43,184036,2,0,P|312:51|262:38,1,105.000004005432,0|0,1:3|0:0,0:0:0:0:
200,114,184477,2,0,L|186:156,5,35.0000013351441,8|8|8|4|4|4,0:3|0:3|0:3|0:3|0:3|0:3,0:0:0:0:
195,167,184918,1,0,1:0:0:0:
73,302,185139,1,4,1:0:0:0:
73,302,185249,1,4,1:0:0:0:
73,302,185360,22,0,L|67:183,1,105.000004005432,4|0,1:0|0:0,0:0:0:0:
187,352,185801,1,0,1:0:0:0:
218,206,186021,1,0,0:0:0:0:
235,180,186131,1,0,1:0:0:0:
258,159,186241,1,0,0:0:0:0:
286,145,186351,1,4,0:3:0:0:
318,140,186462,1,4,0:3:0:0:
312,236,186683,2,0,P|315:283|353:332,1,105.000004005432,0|0,1:0|0:0,0:0:0:0:
400,255,187014,1,0,1:0:0:0:
410,225,187124,22,0,L|442:123,1,105.000004005432,0|0,1:0|0:0,0:0:0:0:
313,56,187565,2,0,P|262:47|183:66,1,105.000004005432,0|0,1:0|0:0,0:0:0:0:
181,69,187896,1,0,1:0:0:0:
156,89,188007,2,0,L|97:83,2,52.5000020027161,0|4|4,0:0|0:3|0:3,0:0:0:0:
366,159,188448,2,0,L|419:165,1,52.5000020027161,0|4,1:0|0:3,0:0:0:0:
349,237,188668,2,0,L|401:242,1,52.5000020027161,0|4,1:0|0:3,0:0:0:0:
331,314,188889,22,0,B|383:319|383:319|443:312,1,105.000004005432,4|0,1:0|0:0,0:0:0:0:
366,159,189330,2,0,L|254:148,1,105.000004005432,0|4,1:0|0:3,0:0:0:0:
251,178,189661,1,0,1:0:0:0:
231,203,189771,1,0,0:0:0:0:
205,220,189881,1,4,0:3:0:0:
175,227,189992,1,4,0:3:0:0:
40,205,190213,2,0,P|29:143|49:90,1,105.000004005432,0|0,1:0|0:0,0:0:0:0:
59,78,190543,1,0,1:0:0:0:
82,56,190654,22,0,P|136:65|199:56,1,105.000004005432,4|0,0:3|0:0,0:0:0:0:
318,26,191095,1,0,1:0:0:0:
216,253,191315,2,0,L|234:190,1,52.5000020027161,0|0,0:0|1:0,0:0:0:0:
236,341,191536,1,0,1:0:0:0:
205,348,191646,1,8,0:3:0:0:
174,346,191756,1,4,0:3:0:0:
145,334,191866,1,12,0:3:0:0:
122,313,191977,2,0,L|109:261,1,52.5000020027161,0|0,1:0|0:0,0:0:0:0:
153,180,192198,2,0,L|141:129,1,52.5000020027161,0|0,1:0|1:0,0:0:0:0:
125,46,192418,22,0,P|185:32|247:46,1,105.000004005432,4|0,1:0|0:0,0:0:0:0:
359,76,192860,2,0,L|333:186,1,105.000004005432,0|0,1:0|0:0,0:0:0:0:
432,273,193190,2,0,P|433:241|423:208,1,52.5000020027161,0|0,1:0|0:0,0:0:0:0:
307,285,193411,2,0,P|306:317|316:350,1,52.5000020027161,4|4,0:3|0:3,0:0:0:0:
334,178,193742,2,0,B|262:156|294:197|215:180,1,105.000004005432,0|0,1:0|0:0,0:0:0:0:
201,177,194073,1,0,1:0:0:0:
172,163,194183,22,0,P|144:108|155:65,1,105.000004005432,4|4,0:3|0:3,0:0:0:0:
286,35,194624,2,0,P|344:43|406:30,1,105.000004005432,0|0,1:0|0:0,0:0:0:0:
420,29,194955,1,0,1:0:0:0:
417,60,195065,1,0,0:0:0:0:
414,91,195175,1,4,0:3:0:0:
411,123,195285,1,4,0:3:0:0:
395,259,195507,2,0,P|392:312|384:330,1,52.5000020027161,0|0,1:0|0:0,0:0:0:0:
308,202,195727,2,0,P|355:178|374:176,1,52.5000020027161,0|0,1:0|0:0,0:0:0:0:
226,344,195948,21,4,1:0:0:0:
149,175,196168,1,0,0:0:0:0:
308,202,196389,1,4,1:0:0:0:
225,26,196610,1,0,0:0:0:0:
195,32,196720,1,0,1:0:0:0:
163,35,196830,1,0,0:0:0:0:
132,39,196940,1,4,0:3:0:0:
101,43,197050,1,4,0:3:0:0:
49,198,197271,1,0,1:0:0:0:
101,341,197492,1,0,0:3:0:0:
132,345,197602,1,0,1:3:0:0:
163,349,197713,22,0,L|278:361,1,105.000004005432,4|4,0:3|0:3,0:0:0:0:
404,364,198154,1,0,1:0:0:0:
425,229,198374,2,0,L|435:169,1,52.5000020027161,0|0,0:0|1:0,0:0:0:0:
291,208,198595,2,0,P|284:252|284:259,5,35.0000013351441,4|8|4|8|4|8,0:3|0:3|0:3|0:3|0:3|0:3,0:0:0:0:
290,262,199036,1,0,1:0:0:0:
353,108,199257,1,0,1:0:0:0:
353,108,199367,1,0,1:0:0:0:
353,108,199477,6,0,P|303:81|222:94,1,136.499993751526,4|0,1:0|0:0,0:0:0:0:
217,117,199918,2,0,L|184:202,1,90.9999958343508,0|0,1:0|0:0,0:0:0:0:
173,227,200249,1,0,0:0:0:0:
163,252,200360,1,0,1:0:0:0:
330,309,200690,1,0,1:0:0:0:
330,309,200801,2,0,P|347:259|329:208,1,90.9999958343508
368,46,201242,22,0,P|351:96|390:170,1,136.499993751526,4|0,0:3|0:0,0:0:0:0:
434,98,201683,1,2,0:0:0:0:
280,41,201904,1,4,0:3:0:0:
280,41,202014,1,4,0:3:0:0:
280,41,202124,1,0,1:0:0:0:
223,195,202345,1,4,0:3:0:0:
377,252,202565,1,0,1:0:0:0:
377,252,203007,22,0,P|322:263|253:205,1,136.499993751526,4|0,1:0|0:0,0:0:0:0:
415,180,203448,2,0,P|451:228|455:263,1,90.9999958343508
333,185,203779,2,0,P|340:141|348:126,1,45.4999979171754,4|0,0:3|1:0,0:0:0:0:
479,30,204220,1,0,1:0:0:0:
479,30,204330,2,0,P|423:40|385:40,1,90.9999958343508,2|4,0:0|0:3,0:0:0:0:
270,34,204771,22,0,P|206:24|121:37,1,136.499993751526,4|0,0:3|0:0,0:0:0:0:
40,104,205213,2,0,L|147:104,1,90.9999958343508,2|0,0:0|0:0,0:0:0:0:
150,123,205543,1,4,0:3:0:0:
168,143,205654,2,0,P|180:190|169:247,1,90.9999958343508,0|4,1:0|0:3,0:0:0:0:
58,341,206095,1,0,1:0:0:0:
49,315,206205,1,0,1:0:0:0:
45,288,206315,1,0,1:0:0:0:
47,260,206425,1,0,1:0:0:0:
53,234,206536,22,0,P|81:174|81:93,1,136.499993751526,4|0,1:0|0:0,0:0:0:0:
71,27,206977,2,0,P|119:23|165:42,1,90.9999958343508,2|4,0:0|0:3,0:0:0:0:
182,51,207308,1,0,0:0:0:0:
206,63,207418,2,0,P|248:78|338:56,1,136.499993751526,0|0,1:0|1:0,0:0:0:0:
409,10,207860,2,0,P|420:75|408:107,1,90.9999958343508,0|0,1:0|0:0,0:0:0:0:
311,200,208301,22,0,P|382:176|460:210,1,136.499993751526,4|4,0:3|0:3,0:0:0:0:
440,302,208742,2,0,P|374:318|321:299,1,90.9999958343508,0|4,1:3|0:3,0:0:0:0:
326,306,209073,1,4,0:3:0:0:
300,295,209183,1,0,1:0:0:0:
192,245,209404,1,0,0:0:0:0:
176,362,209624,1,0,1:0:0:0:
59,346,209845,1,0,0:0:0:0:
75,229,210065,22,0,P|106:164|67:95,1,136.499993751526,4|0,1:0|0:0,0:0:0:0:
29,166,210507,2,0,P|80:174|127:164,1,90.9999958343508,2|4,0:0|0:3,0:0:0:0:
144,159,210838,1,4,0:3:0:0:
169,150,210948,1,0,1:0:0:0:
280,110,211168,1,4,0:3:0:0:
392,71,211389,1,0,1:0:0:0:
404,95,211499,1,0,1:0:0:0:
410,121,211609,1,0,1:0:0:0:
411,149,211719,1,0,1:0:0:0:
406,175,211830,85,0,0:0:0:0:
256,64,213154,5,0,0:0:0:0:
415,104,213595,38,0,B|351:136|351:136|319:72|288:200|159:40|255:-24|351:40|223:200|191:72|159:136|159:136|95:104,1,420,4|0,1:0|0:0,0:0:0:0:
92,219,215139,1,4,0:3:0:0:
92,219,215360,102,0,P|254:261|428:214,1,350,4|4,1:0|0:3,0:0:0:0:
445,205,216573,1,4,0:3:0:0:
462,194,216683,1,0,1:0:0:0:
450,284,216904,1,0,0:0:0:0:
352,288,217124,6,0,B|320:224|320:160|320:160|288:192|256:224|224:192|192:160|192:160|192:224|160:288,1,420,4|0,1:0|0:0,0:0:0:0:
69,284,218668,1,0,0:0:0:0:
89,195,218889,102,0,P|96:123|53:67,1,140,4|0,1:0|0:0,0:0:0:0:
7,149,219551,1,4,0:3:0:0:
176,178,219771,1,0,1:0:0:0:
334,153,219992,1,4,0:3:0:0:
503,182,220213,1,0,1:0:0:0:
421,228,220654,6,0,P|413:157|460:99,1,140,4|0,1:0|0:0,0:0:0:0:
320,256,221315,2,0,P|256:288|185:256,1,140
175,177,221977,2,0,L|160:98,1,70,0|4,0:0|0:3,0:0:0:0:
350,108,222418,102,0,L|318:265,1,140,4|0,1:0|0:3,0:0:0:0:
256,182,223080,1,0,0:0:0:0:
256,182,223301,1,0,0:0:0:0:
79,225,223742,1,0,1:0:0:0:
433,225,224183,5,4,1:0:0:0:
256,70,224624,1,0,1:0:0:0:
319,135,224845,1,4,0:3:0:0:
383,70,225065,1,4,0:1:0:0:
161,68,225507,1,0,1:0:0:0:
140,67,225617,1,0,1:0:0:0:
119,68,225727,1,0,1:0:0:0:
98,73,225837,1,0,1:0:0:0:
78,80,225948,102,0,P|50:109|44:145,1,70,2|0,1:1|0:0,0:0:0:0:
43,137,226389,6,0,P|35:191|67:225,1,105.000004005432,2|0,1:0|0:0,0:0:0:0:
66,225,226830,102,0,P|96:281|121:170,1,280,2|6,1:0|1:0,0:0:0:0:
129,170,227492,1,4,0:0:0:0:
199,287,227713,21,4,1:0:0:0:
325,56,227933,1,0,1:0:0:0:
188,57,228154,1,0,1:0:0:0:
258,175,228374,1,0,0:0:0:0:
268,204,228484,1,0,1:0:0:0:
284,231,228594,1,0,0:0:0:0:
307,253,228704,1,4,0:3:0:0:
334,269,228815,1,4,0:3:0:0:
466,303,229036,2,0,L|479:193,1,105.000004005432,0|0,1:0|1:0,1:0:0:0:
483,167,229367,1,0,1:0:0:0:
487,135,229477,22,0,P|442:98|385:97,1,105.000004005432,4|0,0:3|0:0,0:0:0:0:
260,100,229918,1,0,1:0:0:0:
124,85,230139,2,0,P|77:52|57:50,1,52.5000020027161,0|0,0:0|1:0,0:0:0:0:
141,177,230360,2,0,P|193:152|204:136,1,52.5000020027161,0|4,0:0|0:3,0:0:0:0:
52,145,230580,1,4,0:3:0:0:
96,340,230801,2,0,P|100:289|86:251,1,52.5000020027161,0|0,1:0|0:0,0:0:0:0:
52,145,231021,2,0,P|48:196|62:234,1,52.5000020027161,0|0,1:0|0:0,0:0:0:0:
175,247,231242,22,0,L|291:288,1,105.000004005432,4|0,1:0|0:0,0:0:0:0:
405,318,231683,2,0,P|422:257|415:207,1,105.000004005432,0|0,1:0|0:0,0:0:0:0:
377,83,232014,2,0,L|388:142,1,52.5000020027161,0|0,1:0|0:0,0:0:0:0:
495,183,232235,2,0,L|504:131,1,52.5000020027161,4|4,0:3|0:3,0:0:0:0:
310,41,232565,2,0,P|246:25|193:37,1,105.000004005432,0|0,1:0|0:0,0:0:0:0:
178,42,232896,1,0,1:0:0:0:
150,58,233007,21,2,0:0:0:0:
118,179,233227,1,4,0:3:0:0:
2,4,233448,2,0,L|22:125,1,105.000004005432,0|0,1:0|0:0,0:0:0:0:
25,138,233779,1,0,1:0:0:0:
28,169,233889,2,0,L|29:235,1,52.5000020027161,0|4,0:0|0:3,0:0:0:0:
120,285,234110,2,0,P|118:310|104:338,2,35.0000013351441,8|4|8,0:3|0:3|0:3,0:0:0:0:
131,267,234330,1,0,1:0:0:0:
258,261,234551,1,0,1:0:0:0:
258,261,234661,1,0,1:0:0:0:
258,261,234771,22,0,P|260:193|255:139,1,105.000004005432,4|0,1:0|0:0,0:0:0:0:
390,43,235213,2,0,P|386:95|389:147,1,105.000004005432,0|0,1:0|0:0,0:0:0:0:
391,179,235543,2,0,L|397:235,1,52.5000020027161,0|0,1:0|0:3,0:0:0:0:
331,331,235764,2,0,L|336:278,1,52.5000020027161,4|4,0:3|0:3,0:0:0:0:
487,146,236095,1,0,1:0:0:0:
390,43,236315,1,0,0:0:0:0:
358,38,236426,1,0,1:0:0:0:
326,34,236536,22,0,P|263:34|221:40,1,105.000004005432,4|4,0:3|0:3,0:0:0:0:
93,86,236977,1,0,1:0:0:0:
96,222,237198,1,0,0:0:0:0:
127,218,237308,1,0,1:0:0:0:
158,215,237418,1,4,0:3:0:0:
190,216,237528,1,4,0:3:0:0:
221,221,237639,1,4,0:3:0:0:
417,290,237860,1,0,1:0:0:0:
386,295,237970,1,0,0:0:0:0:
355,297,238080,1,0,1:3:0:0:
323,297,238190,1,0,0:3:0:0:
291,290,238301,22,0,P|244:264|221:221,1,105.000004005432,4|0,1:0|0:0,0:0:0:0:
404,80,238742,2,0,P|365:136|319:154,1,105.000004005432,0|0,1:0|0:0,0:0:0:0:
301,154,239073,1,0,1:0:0:0:
269,149,239183,1,0,0:0:0:0:
245,130,239293,1,4,0:3:0:0:
215,122,239403,1,4,0:3:0:0:
78,120,239624,2,0,P|24:160|20:212,1,105.000004005432,0|0,1:0|0:0,0:0:0:0:
22,225,239955,1,0,1:0:0:0:
37,252,240065,22,0,L|15:370,1,105.000004005432
78,120,240507,2,0,L|97:16,1,105.000004005432,0|0,1:0|0:0,0:0:0:0:
120,38,240838,1,0,1:0:0:0:
145,55,240948,2,0,P|187:64|201:64,5,35.0000013351441,8|4|8|4|8|4,0:3|0:3|0:3|0:3|0:3|0:3,0:0:0:0:
200,63,241389,1,0,1:0:0:0:
291,165,241610,2,0,P|338:158|355:152,1,52.5000020027161,0|0,1:0|1:0,0:0:0:0:
401,122,241830,22,0,P|376:191|376:242,1,105.000004005432,4|0,1:0|0:0,0:0:0:0:
456,331,242271,1,0,1:0:0:0:
489,198,242492,1,0,0:0:0:0:
500,168,242602,1,0,1:0:0:0:
507,138,242712,1,0,0:0:0:0:
507,106,242822,1,4,0:3:0:0:
501,75,242933,1,4,0:3:0:0:
366,53,243154,2,0,L|241:33,1,105.000004005432,0|0,1:0|0:0,0:0:0:0:
230,31,243485,1,0,1:0:0:0:
198,26,243595,22,0,P|203:101|182:141,1,105.000004005432,4|4,0:3|0:3,0:0:0:0:
117,276,244036,2,0,P|112:201|133:161,1,105.000004005432,0|4,1:3|0:3,0:0:0:0:
80,72,244367,2,0,L|133:72,1,52.5000020027161,0|0,1:0|0:0,0:0:0:0:
150,97,244588,2,0,L|98:97,1,52.5000020027161,4|4,0:3|0:3,0:0:0:0:
379,72,244918,2,0,L|431:72,1,52.5000020027161,0|0,1:0|0:0,0:0:0:0:
266,228,245139,2,0,L|319:228,1,52.5000020027161,0|0,1:3|0:3,0:0:0:0:
381,154,245360,22,0,P|475:158|488:168,1,105.000004005432,4|0,1:0|0:0,0:0:0:0:
422,285,245801,1,0,1:0:0:0:
298,342,246021,1,0,0:0:0:0:
267,349,246131,1,0,1:0:0:0:
236,353,246241,1,0,0:0:0:0:
204,353,246351,1,4,0:3:0:0:
173,348,246462,1,4,0:3:0:0:
65,264,246683,1,0,1:0:0:0:
31,131,246904,1,0,0:0:0:0:
31,131,247014,1,0,1:0:0:0:
31,131,247124,22,0,B|58:74|58:74|96:41,1,105.000004005432,4|4,0:3|0:3,0:0:0:0:
223,19,247565,1,0,1:0:0:0:
185,200,247786,1,0,0:0:0:0:
185,200,247896,1,0,1:0:0:0:
185,200,248007,2,0,L|231:156,1,52.5000020027161,8|4,0:3|0:3,0:0:0:0:
333,82,248227,2,0,L|348:143,1,52.5000020027161,4|12,0:3|0:3,0:0:0:0:
361,269,248448,1,0,1:0:0:0:
226,286,248668,1,0,0:0:0:0:
226,286,248779,1,0,0:0:0:0:
226,286,248889,22,0,P|162:287|111:265,1,105.000004005432,4|0,1:0|0:0,0:0:0:0:
361,269,249330,2,0,L|484:279,1,105.000004005432,0|0,1:0|0:0,0:0:0:0:
388,346,249661,2,0,P|358:351|335:346,1,52.5000020027161,0|0,1:0|0:0,0:0:0:0:
331,193,249882,2,0,P|357:188|383:194,1,52.5000020027161,4|4,0:3|0:3,0:0:0:0:
488,281,250213,1,0,1:0:0:0:
495,145,250433,1,0,0:0:0:0:
483,115,250543,1,0,1:0:0:0:
469,86,250654,22,0,P|402:73|360:83,1,105.000004005432
239,131,251095,1,0,1:0:0:0:
123,210,251315,1,0,0:0:0:0:
112,180,251425,1,0,1:0:0:0:
106,149,251535,1,0,0:0:0:0:
106,118,251645,1,4,0:3:0:0:
111,86,251756,1,4,0:3:0:0:
239,131,251977,2,0,L|293:160,1,52.5000020027161,0|0,1:0|0:0,0:0:0:0:
329,72,252198,2,0,L|361:124,1,52.5000020027161,0|0,1:0|0:0,0:0:0:0:
436,65,252418,21,0,1:0:0:0:
255,250,252639,1,0,0:0:0:0:
371,178,252860,1,0,1:0:0:0:
443,294,253080,2,0,L|513:294,1,52.5000020027161,0|0,0:0|1:0,0:0:0:0:
327,366,253301,2,0,L|272:365,1,52.5000020027161,0|4,0:0|0:3,0:0:0:0:
364,296,253521,1,4,0:3:0:0:
481,206,253742,1,0,1:0:0:0:
436,65,253963,1,0,0:0:0:0:
407,50,254073,1,0,1:0:0:0:
377,39,254183,22,0,P|320:26|267:34,1,105.000004005432
142,67,254624,1,0,1:0:0:0:
177,199,254845,1,0,0:0:0:0:
206,187,254955,1,0,1:0:0:0:
236,181,255065,2,0,P|257:198|290:214,5,35.0000013351441
284,206,255507,1,0,1:0:0:0:
413,163,255727,1,0,1:0:0:0:
413,163,255838,1,0,1:0:0:0:
413,163,255948,6,0,P|415:252|364:310,1,157.500006008148,4|0,0:3|0:0,0:0:0:0:
310,279,256389,2,0,P|254:301|194:282,1,105.000004005432,2|4,0:0|0:3,0:0:0:0:
146,270,256720,2,0,P|138:323|133:336,1,52.5000020027161,4|0,0:3|1:0,0:0:0:0:
37,152,257161,1,0,1:0:0:0:
37,152,257271,2,0,L|164:164,1,105.000004005432,0|4,0:0|0:3,0:0:0:0:
37,152,257713,22,0,P|35:241|86:299,1,157.500006008148,4|0,0:3|0:0,0:0:0:0:
146,270,258154,2,0,P|202:292|262:273,1,105.000004005432,2|4,0:0|0:3,0:0:0:0:
310,261,258485,2,0,P|318:314|323:327,1,52.5000020027161,4|0,0:3|1:0,0:0:0:0:
307,176,258815,1,4,0:3:0:0:
385,63,259036,1,0,1:0:0:0:
385,63,259257,1,0,0:0:0:0:
385,63,259477,22,0,P|387:148|444:178,1,157.500006008148,4|4,1:0|0:3,0:0:0:0:
446,104,259918,2,0,P|382:132|324:113,1,105.000004005432,0|0,3:3|0:0,0:0:0:0:
319,116,260249,1,0,0:0:0:0:
294,95,260360,1,0,1:0:0:0:
127,63,260690,1,0,1:0:0:0:
127,63,260801,22,0,P|125:155|88:181,1,105.000004005432,0|4,0:0|0:3,0:0:0:0:
37,307,261242,2,0,P|101:335|159:316,1,105.000004005432,4|0,1:2|0:0,0:0:0:0:
164,319,261573,1,4,0:3:0:0:
189,298,261684,1,0,1:0:0:0:
125,129,261904,1,0,0:0:0:0:
249,186,262124,1,0,1:0:0:0:
234,50,262345,1,4,0:3:0:0:
125,129,262565,1,0,1:0:0:0:
96,142,262675,1,0,1:0:0:0:
65,143,262785,1,0,1:0:0:0:
36,133,262895,1,0,1:0:0:0:
13,112,263007,21,4,1:0:0:0:
48,243,263227,2,0,L|63:297,1,52.5000020027161,0|4,0:0|0:3,0:0:0:0:
82,359,263448,2,0,P|111:294|167:287,1,105.000004005432
168,273,263779,1,0,0:0:0:0:
194,256,263889,1,0,1:0:0:0:
499,112,264220,1,0,0:0:0:0:
499,112,264330,1,4,1:0:0:0:
464,243,264551,1,0,0:0:0:0:
393,359,264771,22,0,P|380:309|336:284,1,105.000004005432
307,273,265102,1,0,0:0:0:0:
281,256,265212,1,0,1:0:0:0:
248,92,265433,2,0,L|250:27,1,52.5000020027161,4|4,0:3|0:3,0:0:0:0:
248,176,265654,1,0,1:0:0:0:
339,75,265874,1,4,0:3:0:0:
410,220,266095,1,0,1:0:0:0:
410,220,266315,1,0,0:0:0:0:
410,220,266536,22,0,P|329:234|272:299,1,157.500006008148,4|4,1:0|0:3,0:0:0:0:
278,354,266977,2,0,P|222:299|160:288,1,105.000004005432,4|0,0:3|0:0,0:0:0:0:
166,290,267308,1,4,0:3:0:0:
134,290,267418,1,0,1:0:0:0:
88,90,267749,1,0,1:0:0:0:
88,90,267860,2,0,L|109:196,1,105.000004005432,2|0,0:0|0:0,0:0:0:0:
203,11,268301,22,0,L|233:172,1,157.500006008148,4|4,1:0|0:3,0:0:0:0:
247,232,268742,2,0,P|302:210|335:165,1,105.000004005432,0|4,0:0|0:3,0:0:0:0:
341,145,269073,1,4,0:3:0:0:
339,113,269183,1,0,1:0:0:0:
299,292,269404,1,4,0:3:0:0:
461,228,269624,1,0,1:0:0:0:
474,199,269734,1,0,1:0:0:0:
481,168,269844,1,0,1:0:0:0:
480,137,269954,1,0,1:0:0:0:
473,106,270065,22,0,P|429:63|333:78,1,157.500006008148,4|0,1:0|0:0,0:0:0:0:
280,35,270507,2,0,P|223:61|177:49,1,105.000004005432,2|0,0:0|0:0,0:0:0:0:
118,29,270838,2,0,P|117:75|123:87,1,52.5000020027161,0|0,0:0|1:0,0:0:0:0:
83,281,271279,1,0,1:0:0:0:
83,281,271389,2,0,P|113:209|107:172,1,105.000004005432,0|4,0:0|0:3,0:0:0:0:
13,336,271830,22,0,P|73:363|130:351,1,105.000004005432,4|2,1:0|0:0,0:0:0:0:
162,314,272161,2,0,P|190:350|207:361,1,52.5000020027161,4|4,0:3|0:3,0:0:0:0:
316,353,272492,2,0,P|336:336|350:314,1,52.5000020027161,4|4,0:3|0:3,0:0:0:0:
401,359,272713,2,0,P|453:360|499:336,1,105.000004005432,4|2,1:0|0:0,0:0:0:0:
256,281,273154,1,0,1:0:0:0:
150,194,273374,1,0,0:0:0:0:
362,194,273595,22,0,P|409:172|438:127,1,105.000004005432,4|0,1:0|0:0,0:0:0:0:
358,110,273926,2,0,P|311:88|289:48,1,52.5000020027161
185,11,274257,1,0,0:0:0:0:
182,42,274367,1,0,0:0:0:0:
183,73,274477,1,0,1:0:0:0:
256,281,274808,1,0,1:0:0:0:
256,281,274918,1,0,0:0:0:0:
205,153,275139,1,4,0:3:0:0:
77,308,275360,21,4,1:0:0:0:
304,188,275580,1,0,0:0:0:0:
304,188,275690,1,4,0:3:0:0:
304,188,275801,1,0,0:0:0:0:
86,51,276021,1,2,0:0:0:0:
175,154,276242,1,0,1:0:0:0:
264,51,276463,1,4,0:3:0:0:
264,257,276683,1,0,1:0:0:0:
269,287,276793,1,0,1:0:0:0:
283,315,276903,1,0,1:0:0:0:
306,337,277013,1,0,1:0:0:0:
334,350,277124,21,4,1:0:0:0:
413,213,277345,2,0,L|438:156,1,52.5000020027161,2|4,0:0|0:3,0:0:0:0:
462,103,277565,2,0,P|402:85|342:106,1,105.000004005432
334,110,277896,1,4,0:3:0:0:
308,129,278007,1,0,1:0:0:0:
105,97,278338,1,0,1:0:0:0:
105,97,278448,2,0,B|109:154|109:154|89:223,1,105.000004005432
124,333,278889,22,0,L|162:232,1,105.000004005432,4|0,1:0|0:0,0:0:0:0:
174,206,279220,1,4,3:0:0:0:
185,176,279330,1,4,0:3:0:0:
329,176,279551,1,4,0:3:0:0:
340,206,279661,1,4,3:0:0:0:
353,234,279772,2,0,L|389:332,1,105.000004005432,4|0,1:0|0:0,0:0:0:0:
256,58,280213,1,0,1:0:0:0:
256,194,280433,1,0,0:0:0:0:
456,50,280654,21,4,1:0:0:0:
326,131,280874,1,0,1:0:0:0:
500,300,281095,1,0,1:0:0:0:
444,175,281315,1,4,1:2:0:0:
365,286,281536,2,0,P|286:325|220:283,1,157.500006008148,0|4,1:3|0:3,0:3:0:0:
209,271,281977,1,0,1:0:0:0:
256,131,282198,1,0,1:0:0:0:
324,28,282418,38,0,P|334:65|339:75,5,35.0000013351441,8|4|8|4|8|4,1:3|0:3|0:3|0:3|0:3|0:3,0:0:0:0:
338,82,282860,2,0,P|328:119|323:129,5,35.0000013351441,4|8|4|8|4|8,0:3|0:3|0:3|0:3|0:3|0:3,0:0:0:0:
322,135,283301,2,0,P|332:172|337:182,5,35.0000013351441,8|4|8|4|8|4,1:3|0:3|0:3|0:3|0:3|0:3,0:0:0:0:
336,189,283743,2,0,P|326:226|321:236,5,35.0000013351441,4|8|4|8|4|8,1:3|0:3|0:3|1:3|0:3|0:3,0:0:0:0:
256,192,284183,12,0,287271,0:0:0:0:
279,265,287713,5,0,0:0:0:0:
333,192,287933,1,2,0:0:0:0:
279,118,288154,1,0,0:0:0:0:
193,146,288374,1,2,0:0:0:0:
193,237,288595,2,0,L|198:317,1,70,2|0,0:0|0:0,0:0:0:0:
333,192,289036,2,0,L|402:187,1,70,2|0,0:0|0:0,0:0:0:0:
193,146,289477,6,0,L|123:150,1,70,2|0,0:0|0:0,0:0:0:0:
279,265,289918,1,0,0:0:0:0:
279,118,290139,1,0,0:0:0:0:
152,45,290360,2,0,L|70:41,1,70,2|0,0:0|0:0,0:0:0:0:
279,118,290801,1,0,0:0:0:0:
362,81,291021,1,2,0:0:0:0:
279,118,291242,5,0,0:0:0:0:
363,82,291462,1,2,0:0:0:0:
424,151,291683,1,0,0:0:0:0:
289,209,291903,1,2,0:0:0:0:
378,231,292124,1,0,0:0:0:0:
317,299,292345,1,0,0:0:0:0:
228,281,292565,1,2,0:0:0:0:
196,195,292786,1,0,0:0:0:0:
131,45,293007,5,2,0:0:0:0:
99,131,293228,1,0,0:0:0:0:
269,71,293448,2,0,L|358:58,1,70
99,131,293889,2,0,L|10:118,1,70,2|0,0:0|0:0,0:0:0:0:
131,217,294330,1,2,0:0:0:0:
190,148,294551,1,0,0:0:0:0:
41,205,294771,5,0,0:0:0:0:
80,287,294992,1,2,0:0:0:0:
247,276,295213,2,0,L|159:305,1,70
245,361,295654,2,0,L|311:339,1,70
349,256,296095,2,0,L|415:277,1,70
480,215,296536,6,0,L|413:193,1,70
332,150,296977,1,2,0:0:0:0:
241,142,297198,1,0,0:0:0:0:
88,246,297418,1,2,0:0:0:0:
171,209,297639,1,0,0:0:0:0:
137,124,297860,1,2,0:0:0:0:
52,158,298080,1,2,0:0:0:0:
241,142,298301,5,2,0:0:0:0:
272,227,298521,1,0,0:0:0:0:
356,260,298742,1,0,0:0:0:0:
380,105,298963,1,2,0:0:0:0:
464,138,299184,1,2,0:0:0:0:
495,223,299404,1,0,0:0:0:0:
464,308,299624,1,2,0:0:0:0:
380,341,299845,1,2,0:0:0:0:
103,296,300065,5,2,0:0:0:0:
194,294,300286,1,0,0:0:0:0:
189,202,300507,1,0,0:0:0:0:
265,30,300727,1,2,0:0:0:0:
267,121,300948,1,0,0:0:0:0:
359,116,301169,1,0,0:0:0:0:
486,208,301389,1,2,0:0:0:0:
395,210,301610,1,2,0:0:0:0:
98,200,301830,37,2,0:0:0:0:
189,202,302051,1,2,0:0:0:0:
140,278,302271,2,0,L|85:329,1,70,0|2,0:0|0:0,0:0:0:0:
98,200,302713,2,0,L|47:145,1,70,2|0,0:0|0:0,0:0:0:0:
189,202,303154,2,0,L|244:151,1,70,0|2,0:0|0:0,0:0:0:0:
353,59,303595,85,2,0:0:0:0:
329,139,303815,1,0,0:0:0:0:
338,222,304036,1,0,0:0:0:0:
174,365,304257,1,2,0:0:0:0:
198,285,304477,1,0,0:0:0:0:
189,202,304698,1,2,0:0:0:0:
198,119,304918,1,2,0:0:0:0:
174,39,305139,1,2,0:0:0:0:
110,103,305360,5,2,0:0:0:0:
256,192,305470,12,2,309330,0:0:0:0:
