osu file format v14

[General]
AudioFilename: RD-Sounds - A Secret Adventure.mp3
AudioLeadIn: 2000
PreviewTime: 78604
Countdown: 0
SampleSet: Soft
StackLeniency: 0.7
Mode: 0
LetterboxInBreaks: 0
WidescreenStoryboard: 0

[Editor]
Bookmarks: 13665,170007
DistanceSpacing: 1.4
BeatDivisor: 4
GridSize: 4
TimelineZoom: 2.699999

[Metadata]
Title:A Secret Adventure
TitleUnicode:A Secret Adventure
Artist:Meramipop / Shizuki Nano
ArtistUnicode:めらみぽっぷ/紫月菜乃
Creator:-Tochi
Version:Hard
Source:東方Project
Tags:Momiji RD-Sounds Shiro Odaril Saut Diao ye zong withered leaf ZUN nano.czkey meguri Bouyu Toukaidou, Rendai no Yakou MMD
BeatmapID:712832
BeatmapSetID:259067

[Difficulty]
HPDrainRate:6
CircleSize:4
OverallDifficulty:7
ApproachRate:8
SliderMultiplier:1.5
SliderTickRate:2

[Events]
//Background and Video events
0,0,"Inubashiri.Momiji.jpg",0,0
//Break Periods
//Storyboard Layer 0 (Background)
//Storyboard Layer 1 (Fail)
//Storyboard Layer 2 (Pass)
//Storyboard Layer 3 (Foreground)
//Storyboard Sound Samples

[TimingPoints]
110,444.444444444444,4,2,1,50,1,0
110,-200,4,2,1,50,0,0
23221,461.538461538462,4,2,1,50,1,0
23221,-200,4,2,1,50,0,0
23682,500,4,2,1,50,1,0
23682,-200,4,2,1,50,0,0
24182,545.454545454546,4,2,1,50,1,0
24182,-200,4,2,1,50,0,0
24727,645.161290322581,4,2,1,50,1,0
24727,-200,4,2,1,50,0,0
25372,-100,4,2,1,25,0,0
27307,666.666666666667,4,2,1,25,1,0
27973,-100,4,2,1,25,0,0
29306,337.078651685393,4,2,1,35,1,0
29306,-117.647058823529,4,2,1,35,0,0
30655,337.078651685393,4,2,1,50,1,0
30655,-111.111111111111,4,2,1,50,0,0
36385,-111.111111111111,4,2,1,30,0,0
36722,-111.111111111111,4,2,1,35,0,0
37059,-111.111111111111,4,2,1,40,0,0
37396,-111.111111111111,4,2,1,45,0,0
38744,-111.111111111111,4,2,1,50,0,0
40683,-111.111111111111,4,2,1,5,0,0
40767,-111.111111111111,4,2,1,50,0,0
40935,-111.111111111111,4,3,0,35,0,0
41441,-100,4,2,1,60,0,1
52228,-100,4,2,1,55,0,1
53744,-100,4,2,1,35,0,1
53913,-100,4,2,1,45,0,1
54250,-100,4,2,1,35,0,1
54924,-100,4,2,1,55,0,1
56778,-100,4,2,1,55,0,1
57621,-100,4,2,1,50,0,0
78520,-100,4,2,1,35,0,0
79194,-100,4,2,1,55,0,0
88463,-100,4,2,1,50,0,0
88969,-100,4,2,1,55,0,0
98070,-100,4,2,1,50,0,0
100093,-100,4,2,1,30,0,0
100261,-100,4,2,1,50,0,0
100767,-117.647058823529,4,2,1,45,0,0
108351,-117.647058823529,4,2,1,30,0,0
108520,-117.647058823529,4,2,1,45,0,0
108857,-117.647058823529,4,2,1,55,0,0
111216,-117.647058823529,4,2,1,45,0,0
111553,-100,4,2,1,65,0,1
111722,-100,4,2,1,65,0,0
119643,-100,4,2,1,60,0,0
121834,-100,4,2,1,40,0,0
122340,-100,4,2,1,65,0,1
132452,-100,4,2,1,65,0,0
132789,-100,4,2,1,55,0,0
133126,-100,4,2,1,65,0,1
141722,-100,4,2,1,55,0,0
143913,-100,4,2,1,65,0,1
148632,-100,4,2,1,40,0,1
148969,-100,4,2,1,65,0,1
149053,-100,4,2,1,40,0,1
149306,-100,4,2,1,65,0,1
154194,-100,4,2,1,30,0,1
154362,-100,4,2,1,35,0,1
154531,-100,4,2,1,40,0,1
154699,-100,4,2,1,55,0,1
155008,337.078651685393,4,2,1,50,1,0
156019,337.078651685393,4,2,1,50,1,0
165457,-117.647058823529,4,2,1,50,0,0
165458,-117.647058823529,4,2,1,55,0,0
167480,-117.647058823529,4,2,1,35,0,0
168153,-117.647058823529,4,2,1,50,0,0
169587,-117.647058823529,4,2,1,5,0,0
169671,-117.647058823529,4,2,1,50,0,0
169924,-117.647058823529,4,2,1,5,0,0
170008,-117.647058823529,4,2,1,50,0,0

[Colours]
Combo1 : 232,232,232
Combo2 : 187,0,4
Combo3 : 247,87,34
Combo4 : 128,64,64
Combo5 : 181,181,181
Combo6 : 247,232,187

[HitObjects]
196,312,110,6,0,B|184:268|184:268|200:228|192:164,1,150,0|0,0:0|0:0,0:0:0:0:
396,116,1887,2,0,B|404:180|388:220|388:220|400:264,1,150,0|0,0:0|0:0,0:0:0:0:
404,280,3665,2,0,P|365:289|321:281,2,75,0|0|0,0:0|0:0|0:0,0:0:0:0:
477,205,4998,2,0,L|477:129,1,75,0|0,0:0|0:0,0:0:0:0:
164,116,6776,2,0,L|172:160,1,37.5,0|0,0:0|0:0,0:0:0:0:
208,188,7221,6,0,B|244:180|244:180|288:196|364:192,1,150,0|0,0:0|0:0,0:0:0:0:
216,36,8998,2,0,L|136:44,1,75,0|0,0:0|0:0,0:0:0:0:
148,148,9887,2,0,L|228:156,1,75,0|0,0:0|0:0,0:0:0:0:
304,220,10776,6,0,B|312:248|320:268|320:268|316:296,1,75,0|0,0:0|0:0,0:0:0:0:
212,292,11665,2,0,B|208:267|208:267|216:247|224:219,1,75,0|0,0:0|0:0,0:0:0:0:
300,144,12554,2,0,P|365:169|375:249,1,150,0|0,0:0|0:0,0:0:0:0:
364,252,14332,6,0,B|332:272|332:272|276:276|212:256,1,150,0|0,0:0|0:0,0:0:0:0:
300,64,16109,2,0,B|330:81|343:141|343:141|373:145|403:115,1,150,0|0,0:0|0:0,0:0:0:0:
212,20,17887,6,0,L|136:28,1,75,0|0,0:0|0:0,0:0:0:0:
116,132,18776,2,0,L|192:140,1,75,0|0,0:0|0:0,0:0:0:0:
264,216,19665,1,0,0:0:0:0:
264,216,20998,2,0,L|256:260,1,37.5,0|0,0:0|0:0,0:0:0:0:
228,296,21443,6,0,P|152:300|96:252,1,150,0|0,0:0|0:0,0:0:0:0:
188,76,23221,6,0,B|216:68|216:68|252:76|272:76,1,75,0|0,0:0|0:0,0:0:0:0:
260,172,24182,6,0,B|232:180|232:180|196:172|176:172,1,75,0|0,0:0|0:0,0:0:0:0:
256,192,25372,12,0,27973,0:0:0:0:
320,292,29306,6,0,L|328:224,1,63.7500012159348,8|0,0:0|0:0,0:0:0:0:
244,264,29643,2,0,P|184:272|120:248,1,127.50000243187,8|8,0:0|0:0,0:0:0:0:
80,172,30148,1,0,0:0:0:0:
140,108,30317,2,0,L|208:108,1,63.7500012159348,8|0,0:0|0:0,0:0:0:0:
296,160,30655,5,4,0:0:0:0:
256,344,30992,1,0,0:0:0:0:
216,160,31329,1,0,0:0:0:0:
364,276,31666,1,0,0:0:0:0:
148,276,32003,5,8,0:3:0:0:
204,200,32171,2,0,L|272:192,1,67.4999979400635,10|0,0:0|0:0,0:0:0:0:
280,96,32508,2,0,L|212:88,1,67.4999979400635,10|0,0:0|0:0,0:0:0:0:
124,120,32846,2,0,P|96:180|108:248,1,134.999995880127,10|10,0:3|0:3,0:0:0:0:
180,308,33351,1,0,0:0:0:0:
276,304,33520,2,0,B|332:304|372:324|372:324|380:300|380:288,1,134.999995880127,2|8,0:0|0:0,0:0:0:0:
376,196,34025,2,0,L|360:128,1,67.4999979400635,2|8,0:0|0:0,0:0:0:0:
284,76,34362,1,8,0:3:0:0:
248,164,34531,5,10,0:0:0:0:
232,176,35037,1,8,0:3:0:0:
232,176,35374,2,0,P|160:192|92:160,1,134.999995880127,8|2,0:0|0:0,0:0:0:0:
96,76,35879,1,2,0:0:0:0:
176,24,36048,6,0,L|248:24,1,67.4999979400635,6|0,0:0|0:0,0:0:0:0:
328,64,36385,1,8,0:0:0:0:
336,156,36553,1,8,0:0:0:0:
412,100,36722,2,0,L|408:32,1,67.4999979400635,10|8,0:0|0:0,0:0:0:0:
492,76,37059,2,0,L|488:144,1,67.4999979400635,10|8,0:0|0:0,0:0:0:0:
432,220,37396,6,0,P|368:244|296:228,1,134.999995880127,10|10,0:0|0:0,0:0:0:0:
228,172,37902,1,8,0:0:0:0:
280,92,38070,1,10,0:0:0:0:
172,248,38407,1,10,0:0:0:0:
388,248,38744,5,14,0:0:0:0:
388,248,39419,1,8,0:0:0:0:
388,248,40093,2,0,P|344:264|288:264,1,101.249996910095,10|0,0:3|0:0,0:0:0:0:
244,248,40430,2,0,L|232:180,1,67.4999979400635,2|8,0:0|0:3,0:0:0:0:
160,120,40767,2,0,P|113:116|59:132,1,101.249996910095,2|8,0:0|0:3,0:0:0:0:
21,159,41104,2,0,L|28:227,1,67.4999979400635,10|8,0:3|0:3,0:0:0:0:
76,320,41441,6,0,B|120:336|120:336|168:328|228:332,1,150,6|10,0:0|0:0,0:0:0:0:
312,276,41947,1,0,0:0:0:0:
240,200,42115,2,0,P|160:188|88:200,1,150,2|8,0:0|0:0,0:0:0:0:
196,52,42789,2,0,L|276:52,1,75,10|8,0:3|0:3,0:0:0:0:
320,144,43126,2,0,L|400:148,1,75,10|0,0:0|0:0,0:0:0:0:
444,236,43463,1,2,0:0:0:0:
444,236,43632,1,8,0:3:0:0:
356,296,43801,2,0,P|304:308|248:296,1,112.5,8|0,0:0|0:0,0:0:0:0:
204,264,44138,6,0,L|196:184,1,75,6|0,0:0|0:0,0:0:0:0:
248,96,44475,1,10,0:0:0:0:
320,172,44643,1,8,0:3:0:0:
392,96,44812,6,0,L|400:56,3,25,2|2|2|2,0:0|0:0|0:0|0:0,0:0:0:0:
432,172,45149,1,10,0:0:0:0:
388,268,45317,1,10,0:3:0:0:
284,280,45486,2,0,L|124:276,1,150,2|10,0:0|0:0,0:0:0:0:
60,200,45992,1,0,0:0:0:0:
144,136,46160,2,0,L|304:132,1,150,2|10,0:0|0:0,0:0:0:0:
396,160,46666,1,2,0:0:0:0:
388,268,46834,6,0,B|376:284|376:284|352:292|328:324,1,75,6|0,0:0|0:0,0:0:0:0:
244,260,47171,2,0,B|232:276|232:276|208:284|184:316,1,75,10|8,0:0|0:3,0:0:0:0:
100,252,47508,2,0,P|76:200|108:112,1,150,2|8,0:0|0:0,0:0:0:0:
244,260,48183,6,0,L|264:332,1,75,10|8,0:3|0:3,0:0:0:0:
368,328,48520,2,0,B|376:288|376:288|348:248|344:168,1,150,10|2,0:0|0:0,0:0:0:0:
388,88,49025,1,8,0:3:0:0:
472,152,49194,2,0,L|472:232,1,75,8|0,0:0|0:0,0:0:0:0:
384,285,49531,6,0,P|310:291|244:260,1,150,10|10,0:3|0:0,0:0:0:0:
243,260,50037,1,8,0:0:0:0:
44,324,50374,2,0,P|28:288|24:244,1,75,10|2,0:0|0:0,0:0:0:0:
64,156,50711,1,10,0:0:0:0:
164,128,50879,6,0,P|220:144|312:132,1,150,6|10,0:0|0:3,0:0:0:0:
408,176,51385,2,0,B|420:212|420:212|420:256,1,75,2|0,0:0|0:0,0:0:0:0:
344,324,51722,1,2,0:0:0:0:
240,312,51890,2,0,B|228:276|228:276|228:232,1,75,10|2,0:3|0:0,0:0:0:0:
156,164,52228,5,4,0:0:0:0:
96,220,52396,1,2,0:0:0:0:
76,140,52565,1,2,0:0:0:0:
136,84,52733,1,10,0:0:0:0:
216,108,52902,1,2,0:0:0:0:
236,188,53070,1,10,0:0:0:0:
176,244,53239,1,2,0:0:0:0:
176,244,53407,6,0,P|104:252|24:224,1,150,10|10,0:3|0:0,0:0:0:0:
4,308,53913,1,8,0:0:0:0:
64,364,54081,2,0,B|108:376|108:376|152:364|220:368,1,150,8|8,0:0|0:3,0:0:0:0:
280,320,54587,2,0,L|288:240,1,75,8|8,0:3|0:3,0:0:0:0:
260,144,54924,5,6,0:0:0:0:
468,160,55261,1,0,0:0:0:0:
456,264,55430,2,0,P|420:272|376:268,1,75,10|0,0:0|0:0,0:0:0:0:
284,228,55767,1,10,0:0:0:0:
284,228,56104,1,10,0:0:0:0:
284,228,56778,6,0,B|296:180|296:180|268:144|284:76,1,150,14|0,0:0|0:0,0:0:0:0:
379,123,57284,1,0,0:0:0:0:
379,123,57452,1,0,0:0:0:0:
396,228,57621,6,0,P|320:252|248:240,1,150,4|8,0:0|0:0,0:0:0:0:
188,160,58126,2,0,L|184:80,1,75,8|0,0:3|0:0,0:0:0:0:
96,144,58463,2,0,L|92:218,1,75,8|8,0:3|0:0,0:0:0:0:
144,312,58801,1,8,0:3:0:0:
240,348,58969,2,0,P|312:352|392:328,1,150,8|8,0:3|0:0,0:0:0:0:
436,240,59475,1,0,0:0:0:0:
372,156,59643,2,0,P|336:144|288:148,2,75,8|8|8,0:3|0:3|0:0,0:0:0:0:
368,188,60317,6,0,B|372:212|360:240|360:240|348:276|348:312|348:312|324:336,1,150,4|8,0:0|0:0,0:0:0:0:
228,356,60823,2,0,L|148:352,1,75,8|0,0:3|0:0,0:0:0:0:
144,248,61160,2,0,L|224:244,1,75,8|8,0:3|0:0,0:0:0:0:
280,160,61497,1,8,0:3:0:0:
224,68,61666,6,0,P|148:56|76:84,1,150,8|8,0:3|0:0,0:0:0:0:
48,180,62171,1,0,0:0:0:0:
104,268,62340,2,0,L|256:272,1,150,8|8,0:3|0:0,0:0:0:0:
352,232,62846,1,8,0:3:0:0:
384,132,63014,6,0,L|368:52,1,75,4|0,0:0|0:0,0:0:0:0:
292,128,63351,2,0,P|224:152|136:128,1,150,8|0,0:0|0:0,0:0:0:0:
112,40,63857,1,8,0:3:0:0:
216,56,64025,1,8,0:0:0:0:
228,264,64362,1,8,0:3:0:0:
20,256,64699,1,8,0:0:0:0:
28,48,65037,2,0,L|108:40,1,75,8|8,0:3|0:3,0:0:0:0:
156,132,65374,2,0,L|240:128,1,75,8|8,0:0|0:3,0:0:0:0:
260,228,65711,6,0,P|336:232|392:288,1,150,4|8,0:0|0:0,0:0:0:0:
296,328,66216,1,12,0:0:0:0:
196,296,66385,2,0,P|174:266|165:217,1,75,0|12,0:0|0:0,0:0:0:0:
192,128,66722,1,0,0:0:0:0:
296,108,66890,6,0,P|368:124|444:104,1,150,8|0,0:0|0:0,0:0:0:0:
384,16,67396,1,8,0:0:0:0:
280,4,67565,1,8,0:0:0:0:
212,84,67733,2,0,L|216:164,1,75,8|8,0:0|0:0,0:0:0:0:
312,200,68070,2,0,L|308:280,1,75,8|8,0:0|0:0,0:0:0:0:
232,348,68407,6,0,P|152:360|80:336,1,150,4|8,0:0|0:0,0:0:0:0:
24,256,68913,2,0,L|16:176,1,75,8|0,0:3|0:0,0:0:0:0:
104,124,69250,2,0,L|132:200,1,75,8|8,0:3|0:0,0:0:0:0:
216,256,69587,1,8,0:3:0:0:
320,240,69756,2,0,P|360:172|340:104,1,150,8|8,0:3|0:0,0:0:0:0:
132,104,70430,5,8,0:3:0:0:
236,124,70598,1,8,0:3:0:0:
132,132,70767,1,8,0:0:0:0:
176,36,70935,1,8,0:3:0:0:
280,52,71104,6,0,P|319:126|286:192,1,150,4|8,0:0|0:0,0:0:0:0:
216,256,71610,1,8,0:3:0:0:
264,348,71778,2,0,P|344:356|408:328,1,150,0|8,0:0|0:0,0:0:0:0:
452,232,72284,1,8,0:3:0:0:
428,128,72452,2,0,P|356:96|280:104,2,150,8|8|8,0:3|0:0|0:3,0:0:0:0:
264,260,73463,2,0,L|180:248,1,75,8|0,0:0|0:0,0:0:0:0:
100,192,73801,6,0,B|84:160|84:160|96:132|100:76,1,112.5,4|0,0:0|0:0,0:0:0:0:
128,40,74138,1,8,0:0:0:0:
228,72,74306,2,0,P|268:76|304:72,1,75,8|0,0:3|0:0,0:0:0:0:
380,144,74643,2,0,P|417:140|454:144,1,75,8|8,0:3|0:0,0:0:0:0:
416,244,74980,6,0,P|360:276|280:260,1,150,8|0,0:3|0:0,0:0:0:0:
204,184,75486,2,0,L|196:96,2,75,8|0|8,0:0|0:0|0:3,0:0:0:0:
140,268,75992,1,8,0:3:0:0:
40,232,76160,1,8,0:0:0:0:
40,232,76497,6,0,P|24:168|56:80,1,150,12|8,0:0|0:0,0:0:0:0:
148,52,77003,2,0,L|228:60,1,75,12|0,0:0|0:0,0:0:0:0:
268,156,77340,2,0,L|342:148,1,75,12|0,0:0|0:0,0:0:0:0:
424,216,77677,2,0,P|448:268|416:352,1,150,8|0,0:0|0:0,0:0:0:0:
316,372,78183,1,8,0:3:0:0:
216,340,78351,1,8,0:3:0:0:
112,364,78520,1,10,0:3:0:0:
40,288,78688,2,0,P|56:212|56:132,1,150,0|10,0:0|0:3,0:0:0:0:
136,212,79194,6,0,P|176:224|224:216,1,75,6|0,0:0|0:0,0:0:0:0:
256,128,79531,2,0,P|218:125|183:137,2,75,8|8|0,0:0|0:3|0:0,0:0:0:0:
360,152,80037,1,8,0:3:0:0:
364,256,80205,2,0,P|360:296|352:332,1,75,8|8,0:0|0:3,0:0:0:0:
248,352,80542,2,0,P|232:272|236:196,1,150,8|8,0:3|0:0,0:0:0:0:
176,116,81048,1,0,0:0:0:0:
100,188,81216,2,0,L|96:264,1,75,8|8,0:3|0:3,0:0:0:0:
96,262,81553,1,8,0:0:0:0:
284,356,81890,6,0,P|356:340|404:276,1,150,4|8,0:0|0:0,0:0:0:0:
412,176,82396,2,0,L|404:100,1,75,8|0,0:3|0:0,0:0:0:0:
312,152,82733,2,0,L|304:226,1,75,8|8,0:3|0:0,0:0:0:0:
212,176,83070,1,8,0:3:0:0:
252,80,83239,2,0,P|322:64|387:102,1,150,8|8,0:3|0:0,0:0:0:0:
408,204,83744,1,0,0:0:0:0:
368,300,83913,2,0,L|288:312,1,75,8|8,0:3|0:3,0:0:0:0:
208,252,84250,2,0,L|120:252,1,75,8|0,0:0|0:0,0:0:0:0:
96,212,84503,1,0,0:0:0:0:
96,212,84587,6,0,B|84:176|84:176|100:128|104:64,1,150,4|8,0:0|0:0,0:0:0:0:
188,132,85093,1,8,0:3:0:0:
272,66,85261,2,0,L|352:76,1,75,0|8,0:0|0:3,0:0:0:0:
356,180,85598,2,0,L|276:190,1,75,8|8,0:0|0:3,0:0:0:0:
260,292,85935,6,0,P|308:348|388:344,1,150,0|8,0:3|0:0,0:0:0:0:
464,288,86441,1,0,0:0:0:0:
468,184,86610,2,0,L|444:100,1,75,8|8,0:3|0:3,0:0:0:0:
356,56,86947,1,8,0:0:0:0:
256,84,87115,1,8,0:3:0:0:
332,156,87284,5,12,0:0:0:0:
332,156,87621,1,8,0:0:0:0:
232,188,87789,1,12,0:0:0:0:
440,224,88126,1,12,0:0:0:0:
440,224,88463,6,0,L|448:308,1,75,14|2,0:0|0:0,0:0:0:0:
352,344,88801,1,2,0:0:0:0:
252,308,88969,2,0,P|184:300|104:316,1,150,10|8,0:0|0:0,0:0:0:0:
16,244,89475,1,8,0:0:0:0:
12,212,89559,1,8,0:0:0:0:
8,180,89643,2,0,L|84:168,1,75,8|8,0:0|0:0,0:0:0:0:
168,228,89980,6,0,P|248:232|320:204,1,150,12|8,0:0|0:0,0:0:0:0:
352,112,90486,1,8,0:3:0:0:
268,48,90654,2,0,L|184:56,1,75,0|8,0:0|0:3,0:0:0:0:
152,152,90992,2,0,L|68:160,1,75,8|8,0:0|0:3,0:0:0:0:
84,264,91329,6,0,P|136:288|240:272,1,150,8|8,0:3|0:0,0:0:0:0:
324,320,91834,1,0,0:0:0:0:
428,304,92003,2,0,L|452:228,1,75,8|8,0:3|0:3,0:0:0:0:
368,168,92340,2,0,L|372:88,1,75,8|8,0:0|0:3,0:0:0:0:
272,128,92677,6,0,P|204:148|124:124,1,150,4|8,0:0|0:0,0:0:0:0:
180,36,93183,1,8,0:3:0:0:
284,48,93351,2,0,P|343:89|343:166,1,150,0|8,0:0|0:0,0:0:0:0:
280,244,93857,1,8,0:3:0:0:
180,268,94025,2,0,L|92:256,2,75,8|8|8,0:3|0:3|0:0,0:0:0:0:
248,348,94531,2,0,P|308:332|404:348,1,150,0|8,0:0|0:3,0:0:0:0:
468,272,95037,1,8,0:0:0:0:
436,172,95205,1,8,0:3:0:0:
340,220,95374,6,0,P|264:232|188:212,1,150,4|8,0:0|0:0,0:0:0:0:
128,136,95879,2,0,L|132:56,1,75,8|0,0:3|0:0,0:0:0:0:
224,8,96216,1,8,0:3:0:0:
328,8,96385,1,8,0:0:0:0:
404,80,96553,6,0,B|416:120|416:120|404:164|412:232,1,150,8|8,0:3|0:3,0:0:0:0:
340,304,97059,2,0,L|256:308,1,75,8|0,0:0|0:0,0:0:0:0:
216,216,97396,2,0,L|300:220,1,75,8|8,0:3|0:3,0:0:0:0:
324,120,97733,1,8,0:0:0:0:
232,68,97902,1,8,0:3:0:0:
148,128,98070,6,0,P|132:200|140:288,1,150,12|8,0:0|0:0,0:0:0:0:
208,352,98576,1,12,0:0:0:0:
208,352,98913,1,12,0:0:0:0:
324,212,99250,2,0,L|324:128,2,75,8|12|0,0:0|0:0|0:0,0:0:0:0:
400,264,99756,1,8,0:3:0:0:
504,120,100093,2,0,L|488:44,1,75,2|0,0:0|0:0,0:0:0:0:
408,8,100430,1,0,0:0:0:0:
384,24,100767,6,0,P|320:36|256:28,1,127.50000243187,12|0,0:0|0:0,0:0:0:0:
172,52,101272,1,8,0:3:0:0:
116,124,101441,2,0,P|104:184|132:256,1,127.50000243187,8|0,0:0|0:0,0:0:0:0:
204,288,101947,2,0,L|280:276,1,63.7500012159348,8|0,0:3|0:0,0:0:0:0:
324,348,102284,2,0,L|400:336,1,63.7500012159348,8|0,0:3|0:0,0:0:0:0:
444,272,102621,1,8,0:3:0:0:
416,188,102789,2,0,P|364:168|288:180,1,127.50000243187,8|8,0:0|0:3,0:0:0:0:
264,184,103463,6,0,B|245:146|225:134|225:134|206:108|205:63,1,127.50000243187,0|0,0:0|0:0,0:0:0:0:
296,72,103969,1,8,0:3:0:0:
376,32,104138,1,8,0:0:0:0:
452,192,104475,2,0,L|444:264,1,63.7500012159348,0|0,0:0|0:3,0:0:0:0:
368,300,104812,2,0,P|312:288|236:312,1,127.50000243187,0|0,0:0|0:0,0:0:0:0:
156,296,105317,1,8,0:3:0:0:
108,220,105486,2,0,L|116:152,1,63.7500012159348,0|8,0:0|0:0,0:0:0:0:
196,120,105823,2,0,L|203:183,1,63.7500012159348,8|0,0:3|0:0,0:0:0:0:
268,244,106160,6,0,P|328:252|392:228,1,127.50000243187,12|0,0:0|0:0,0:0:0:0:
436,152,106666,1,8,0:3:0:0:
392,72,106834,2,0,L|324:64,1,63.7500012159348,8|8,0:0|0:3,0:0:0:0:
259,127,107171,1,0,0:0:0:0:
259,127,107340,2,0,L|191:119,1,63.7500012159348,8|0,0:3|0:0,0:0:0:0:
112,152,107677,1,8,0:3:0:0:
84,236,107846,1,0,0:0:0:0:
128,312,108014,2,0,P|184:332|260:324,1,127.50000243187,8|8,0:3|0:0,0:0:0:0:
332,288,108520,1,8,0:0:0:0:
332,288,108688,1,8,0:0:0:0:
272,204,108857,6,0,P|260:140|284:76,1,127.50000243187,12|12,0:0|0:0,0:0:0:0:
368,72,109362,2,0,L|396:136,1,63.7500012159348,12|0,0:0|0:0,0:0:0:0:
472,172,109699,2,0,L|464:244,1,63.7500012159348,12|0,0:0|0:0,0:0:0:0:
408,304,110037,2,0,P|340:320|280:308,1,127.50000243187,12|8,0:0|0:0,0:0:0:0:
212,260,110542,1,8,0:0:0:0:
200,172,110711,2,0,P|208:112|264:64,1,127.50000243187,8|8,0:0|0:0,0:0:0:0:
288,152,111216,1,10,0:0:0:0:
360,204,111385,2,0,L|404:200,1,31.8750006079674,10|2,0:0|0:0,0:0:0:0:
436,172,111553,6,0,L|444:88,1,75,4|0,0:0|0:0,0:0:0:0:
372,20,111890,1,8,0:0:0:0:
280,72,112059,1,8,0:3:0:0:
176,88,112228,2,0,P|92:80|36:40,1,150,0|8,0:0|0:0,0:0:0:0:
28,148,112733,1,8,0:3:0:0:
96,232,112902,6,0,L|180:224,1,75,8|8,0:3|0:3,0:0:0:0:
212,324,113239,2,0,L|128:316,1,75,8|0,0:0|0:0,0:0:0:0:
36,288,113576,1,8,0:3:0:0:
36,288,113744,1,8,0:3:0:0:
20,184,113913,1,8,0:0:0:0:
40,172,114250,6,0,P|104:192|200:176,1,150,4|8,0:0|0:0,0:0:0:0:
276,128,114756,1,8,0:3:0:0:
368,180,114924,2,0,B|384:224|384:224|376:336,1,150,0|8,0:0|0:0,0:0:0:0:
280,364,115430,1,8,0:3:0:0:
184,328,115598,2,0,P|180:248|192:172,1,150,8|8,0:3|0:0,0:0:0:0:
276,128,116104,2,0,L|360:136,1,75,0|8,0:0|0:3,0:0:0:0:
420,56,116441,1,8,0:3:0:0:
328,4,116610,2,0,L|244:4,1,75,8|8,0:0|0:3,0:0:0:0:
168,64,116947,6,0,P|144:136|160:220,1,150,4|8,0:0|0:0,0:0:0:0:
228,280,117452,2,0,L|304:276,1,75,8|0,0:3|0:0,0:0:0:0:
356,368,117789,2,0,L|280:364,1,75,8|8,0:3|0:0,0:0:0:0:
176,360,118126,1,8,0:3:0:0:
84,308,118295,2,0,L|80:224,1,75,8|8,0:3|0:3,0:0:0:0:
164,172,118632,2,0,P|240:184|320:168,1,150,8|8,0:0|0:3,0:0:0:0:
344,72,119138,1,8,0:3:0:0:
244,44,119306,1,8,0:0:0:0:
244,44,119475,1,8,0:3:0:0:
168,136,119643,6,0,P|168:216|192:292,1,150,4|8,0:0|0:0,0:0:0:0:
292,292,120149,1,4,0:0:0:0:
344,120,120486,1,12,0:0:0:0:
412,288,120823,1,8,0:0:0:0:
348,352,120992,2,0,P|272:364|200:332,1,150,12|8,0:0|0:0,0:0:0:0:
152,264,121497,1,12,0:0:0:0:
300,160,121834,2,0,L|292:104,4,37.5,8|8|8|8|8,0:3|0:3|0:3|0:3|0:3,0:0:0:0:
384,192,122340,6,0,L|460:188,1,75,4|8,0:0|0:3,0:0:0:0:
428,288,122677,2,0,L|352:284,1,75,8|0,0:0|0:0,0:0:0:0:
256,324,123014,2,0,P|184:332|112:292,1,150,0|8,0:0|0:0,0:0:0:0:
76,200,123520,1,8,0:3:0:0:
156,132,123688,6,0,L|244:136,1,75,8|8,0:3|0:3,0:0:0:0:
284,44,124025,2,0,L|196:48,1,75,8|0,0:0|0:0,0:0:0:0:
108,76,124362,2,0,P|84:146|128:200,1,150,8|8,0:3|0:0,0:0:0:0:
232,212,124868,1,8,0:3:0:0:
232,212,124952,1,0,0:0:0:0:
232,212,125037,6,0,P|308:204|380:240,1,150,4|8,0:0|0:0,0:0:0:0:
440,316,125542,1,8,0:3:0:0:
348,364,125711,2,0,L|196:368,1,150,0|8,0:0|0:0,0:0:0:0:
104,320,126216,1,8,0:3:0:0:
64,224,126385,2,0,L|76:140,1,75,8|8,0:3|0:3,0:0:0:0:
160,88,126722,2,0,L|170:162,1,75,8|0,0:0|0:0,0:0:0:0:
240,240,127059,2,0,P|316:252|396:212,1,150,8|8,0:3|0:0,0:0:0:0:
424,128,127565,1,8,0:3:0:0:
368,40,127733,6,0,P|292:32|212:52,2,150,4|8|0,0:0|0:0|0:0,0:0:0:0:
424,128,128576,1,8,0:3:0:0:
340,188,128744,1,8,0:0:0:0:
244,148,128913,1,8,0:3:0:0:
172,224,129081,2,0,L|176:308,1,75,8|8,0:3|0:3,0:0:0:0:
320,304,129419,2,0,L|323:229,1,75,8|0,0:0|0:0,0:0:0:0:
276,120,129756,1,8,0:3:0:0:
156,116,129924,1,8,0:3:0:0:
76,204,130093,1,8,0:0:0:0:
88,232,130430,6,0,L|248:240,1,150,4|8,0:0|0:0,0:0:0:0:
356,188,130935,1,4,0:0:0:0:
256,4,131272,1,8,0:0:0:0:
156,188,131610,6,0,P|148:264|164:344,1,150,8|8,0:0|0:3,0:0:0:0:
280,352,132115,2,0,L|284:268,1,75,8|8,0:0|0:3,0:0:0:0:
376,224,132452,1,8,0:0:0:0:
376,224,132621,1,8,0:0:0:0:
472,264,132789,1,8,0:3:0:0:
460,160,132958,1,8,0:3:0:0:
460,160,133042,1,0,0:0:0:0:
460,160,133126,6,0,P|384:132|308:144,1,150,4|8,0:0|0:0,0:0:0:0:
228,196,133632,1,8,0:3:0:0:
124,220,133801,2,0,P|72:216|12:192,1,112.5,0|0,0:0|0:0,0:0:0:0:
16,194,134138,2,0,L|24:116,1,75,8|8,0:0|0:3,0:0:0:0:
116,72,134475,1,8,0:3:0:0:
220,76,134643,1,8,0:3:0:0:
312,124,134812,2,0,L|324:200,1,75,8|0,0:0|0:0,0:0:0:0:
268,288,135149,2,0,P|200:284|152:316,1,112.5,8|0,0:3|0:0,0:0:0:0:
162,304,135486,2,0,L|84:288,1,75,8|8,0:0|0:3,0:0:0:0:
76,168,135823,6,0,P|152:148|224:180,1,150,4|8,0:0|0:0,0:0:0:0:
316,212,136329,1,8,0:3:0:0:
416,184,136497,2,0,P|432:120|416:32,1,150,0|8,0:0|0:0,0:0:0:0:
292,36,137003,2,0,L|284:120,1,75,8|0,0:3|0:0,0:0:0:0:
316,212,137340,1,8,0:3:0:0:
404,272,137508,1,8,0:0:0:0:
316,328,137677,2,0,P|240:340|152:312,1,150,0|8,0:0|0:3,0:0:0:0:
108,236,138183,2,0,L|100:140,1,75,8|8,0:0|0:3,0:0:0:0:
132,120,138435,1,0,0:0:0:0:
132,120,138520,6,0,B|184:132|184:132|248:128,1,112.5,4|0,0:0|0:0,0:0:0:0:
291,141,138857,2,0,L|315:211,1,75,8|8,0:0|0:3,0:0:0:0:
420,220,139194,2,0,P|424:184|420:140,1,75,0|8,0:0|0:3,0:0:0:0:
360,60,139531,1,8,0:0:0:0:
256,52,139699,1,8,0:3:0:0:
180,128,139868,2,0,P|177:165|181:202,1,75,8|8,0:3|0:3,0:0:0:0:
292,215,140205,2,0,P|295:178|291:141,1,75,8|0,0:0|0:0,0:0:0:0:
291,141,140542,1,8,0:3:0:0:
216,336,140879,1,8,0:0:0:0:
320,360,141048,6,0,P|388:348|444:284,1,150,4|0,0:0|0:0,0:0:0:0:
456,188,141553,1,12,0:0:0:0:
332,132,141722,1,12,0:0:0:0:
464,168,142059,1,12,0:0:0:0:
340,112,142396,6,0,B|284:144|296:200|296:200|352:196,1,150,12|10,0:0|0:3,0:0:0:0:
428,160,142902,1,10,0:0:0:0:
416,64,143070,2,0,P|348:24|272:52,1,150,8|0,0:3|0:0,0:0:0:0:
200,92,143576,2,0,L|120:92,1,75,8|0,0:0|0:0,0:0:0:0:
24,156,143913,6,0,P|8:232|56:296,1,150,4|8,0:0|0:0,0:0:0:0:
128,340,144419,1,8,0:3:0:0:
224,344,144587,2,0,P|292:332|388:336,1,150,0|8,0:0|0:0,0:0:0:0:
416,236,145093,1,8,0:3:0:0:
360,148,145261,2,0,P|280:132|204:148,1,150,8|8,0:3|0:0,0:0:0:0:
116,184,145767,1,0,0:0:0:0:
32,120,145935,2,0,L|36:32,1,75,8|8,0:3|0:3,0:0:0:0:
136,20,146272,2,0,L|139:94,1,75,8|8,0:0|0:3,0:0:0:0:
219,165,146610,6,0,P|295:177|363:145,1,150,4|8,0:0|0:0,0:0:0:0:
444,208,147115,1,0,0:0:0:0:
432,312,147284,2,0,L|352:324,1,75,0|8,0:0|0:3,0:0:0:0:
264,276,147621,2,0,L|184:288,1,75,8|8,0:0|0:3,0:0:0:0:
96,240,147958,2,0,P|76:168|112:104,1,150,8|8,0:3|0:0,0:0:0:0:
208,64,148463,2,0,L|292:72,1,75,0|10,0:0|0:3,0:0:0:0:
348,156,148801,2,0,L|432:156,1,75,10|8,0:3|0:0,0:0:0:0:
460,192,149053,1,10,0:3:0:0:
460,192,149138,1,10,0:3:0:0:
412,304,149306,6,0,P|344:328|276:296,1,150,4|8,0:0|0:0,0:0:0:0:
244,196,149812,1,8,0:3:0:0:
144,164,149980,2,0,L|60:180,1,75,0|8,0:0|0:3,0:0:0:0:
12,264,150317,1,8,0:0:0:0:
96,328,150486,2,0,P|168:340|244:328,1,150,8|8,0:3|0:3,0:0:0:0:
320,256,150992,2,0,L|324:176,1,75,8|0,0:0|0:0,0:0:0:0:
288,80,151329,1,8,0:3:0:0:
188,52,151497,1,8,0:3:0:0:
100,112,151666,2,0,L|88:192,1,75,8|8,0:0|0:3,0:0:0:0:
148,272,152003,6,0,B|184:284|184:284|224:268|300:264,1,150,12|8,0:0|0:0,0:0:0:0:
360,184,152508,1,8,0:0:0:0:
284,112,152677,2,0,L|208:108,1,75,0|8,0:0|0:0,0:0:0:0:
132,180,153014,1,0,0:0:0:0:
260,200,153183,1,8,0:0:0:0:
260,200,153520,1,8,0:0:0:0:
64,272,153857,1,8,0:0:0:0:
28,176,154025,2,0,L|24:128,3,37.5,8|0|10|10,0:0|0:0|0:3|0:3,0:0:0:0:
60,100,154362,2,0,L|76:56,3,37.5,10|10|10|10,0:3|0:3|0:3|0:3,0:0:0:0:
124,52,154699,6,0,P|164:56|208:48,1,75,6|0,0:0|0:0,0:0:0:0:
224,148,155008,2,0,P|184:144|140:152,1,75,10|8,0:0|0:3,0:0:0:0:
84,232,155345,2,0,P|76:284|96:352,1,112.5,2|0,0:0|0:0,0:0:0:0:
136,368,155682,2,0,L|216:360,1,75,8|8,0:0|0:3,0:0:0:0:
292,292,156019,1,10,0:3:0:0:
312,188,156187,1,8,0:3:0:0:
212,228,156356,1,10,0:0:0:0:
220,248,156693,6,0,P|288:264|376:256,1,150,10|8,0:3|0:0,0:0:0:0:
444,184,157198,1,8,0:3:0:0:
376,104,157367,2,0,P|336:104|284:100,1,75,6|0,0:0|0:0,0:0:0:0:
212,48,157704,2,0,P|172:48|120:52,1,75,10|8,0:0|0:3,0:0:0:0:
48,108,158041,2,0,L|40:136,3,25,2|2|2|2,0:0|0:0|0:0|0:0,0:0:0:0:
80,228,158378,1,10,0:0:0:0:
80,228,158547,1,10,0:3:0:0:
180,192,158715,6,0,P|256:188|328:216,1,150,10|10,0:3|0:0,0:0:0:0:
360,312,159221,1,0,0:0:0:0:
268,364,159389,2,0,L|184:368,1,75,10|8,0:3|0:3,0:0:0:0:
96,328,159726,1,10,0:0:0:0:
88,314,159811,1,2,0:0:0:0:
80,300,159895,1,10,0:3:0:0:
72,286,159979,1,2,0:0:0:0:
64,272,160063,6,0,L|63:188,1,75,6|0,0:0|0:0,0:0:0:0:
164,160,160401,2,0,L|169:83,1,75,10|8,0:0|0:3,0:0:0:0:
272,100,160738,2,0,B|300:88|300:88|332:116|428:96,1,150,2|8,0:0|0:0,0:0:0:0:
468,188,161243,1,8,0:3:0:0:
416,280,161412,2,0,P|344:296|264:260,1,150,10|10,0:3|0:0,0:0:0:0:
240,172,161917,1,0,0:0:0:0:
136,176,162086,2,0,B|120:208|120:208|128:328,1,150,10|8,0:3|0:0,0:0:0:0:
224,364,162592,1,8,0:3:0:0:
328,364,162760,6,0,B|384:344|420:348|420:348|440:332|448:300,1,150,6|10,0:0|0:0,0:0:0:0:
452,196,163266,2,0,L|440:116,1,75,12|2,0:0|0:0,0:0:0:0:
340,92,163603,2,0,L|328:166,1,75,10|2,0:0|0:0,0:0:0:0:
256,240,163940,1,10,0:0:0:0:
152,264,164108,2,0,L|-4:248,1,150,6|10,0:0|0:3,0:0:0:0:
36,148,164614,2,0,P|108:156|188:148,1,150,10|2,0:3|0:0,0:0:0:0:
284,116,165120,1,2,0:0:0:0:
368,180,165288,1,0,0:0:0:0:
312,252,165457,6,0,P|244:248|176:264,1,127.50000243187,4|2,0:0|0:0,0:0:0:0:
220,344,165962,2,0,P|288:340|356:356,1,127.50000243187,10|10,0:0|0:0,0:0:0:0:
428,320,166468,1,2,0:0:0:0:
472,244,166636,2,0,P|472:172|460:112,1,127.50000243187,10|10,0:3|0:0,0:0:0:0:
424,92,167058,1,0,0:0:0:0:
424,92,167142,1,8,0:0:0:0:
340,128,167311,2,0,P|272:132|208:124,1,127.50000243187,8|8,0:0|0:3,0:0:0:0:
128,144,167816,1,8,0:3:0:0:
128,168,168153,6,0,B|112:232|112:232|124:292,1,127.50000243187,6|0,0:0|0:0,0:0:0:0:
196,344,168659,2,0,L|272:332,1,63.7500012159348,10|0,0:0|0:0,0:0:0:0:
332,284,168996,2,0,L|396:288,2,63.7500012159348,10|0|10,0:0|0:0|0:0,0:0:0:0:
268,120,169670,1,10,0:3:0:0:
348,160,169839,1,0,0:0:0:0:
436,76,170007,1,14,0:0:0:0:
