osu file format v14

[General]
AudioFilename: RD-Sounds - A Secret Adventure.mp3
AudioLeadIn: 2000
PreviewTime: 78604
Countdown: 0
SampleSet: Soft
StackLeniency: 0.7
Mode: 0
LetterboxInBreaks: 0
WidescreenStoryboard: 0

[Editor]
Bookmarks: 65711,100767,170007
DistanceSpacing: 0.8
BeatDivisor: 4
GridSize: 4
TimelineZoom: 2.299999

[Metadata]
Title:A Secret Adventure
TitleUnicode:A Secret Adventure
Artist:Meramipop / Shizuki Nano
ArtistUnicode:めらみぽっぷ/紫月菜乃
Creator:-Tochi
Version:Easy
Source:東方Project
Tags:Momiji RD-Sounds Shiro Odaril Saut Diao ye zong withered leaf ZUN nano.czkey meguri Bouyu Toukaidou, Rendai no Yakou MMD
BeatmapID:714230
BeatmapSetID:259067

[Difficulty]
HPDrainRate:2
CircleSize:2
OverallDifficulty:1.5
ApproachRate:2
SliderMultiplier:1
SliderTickRate:2

[Events]
//Background and Video events
0,0,"Inubashiri.Momiji.jpg",0,0
//Break Periods
//Storyboard Layer 0 (Background)
//Storyboard Layer 1 (Fail)
//Storyboard Layer 2 (Pass)
//Storyboard Layer 3 (Foreground)
//Storyboard Sound Samples

[TimingPoints]
110,444.444444444444,4,2,0,50,1,0
110,-142.857142857143,4,2,0,50,0,0
23221,461.538461538462,4,2,0,50,1,0
23682,500,4,2,0,50,1,0
24182,545.454545454546,4,2,0,50,1,0
24727,645.161290322581,4,2,0,50,1,0
27307,666.666666666667,4,2,0,50,1,0
29306,337.078651685393,4,2,1,50,1,0
30655,337.078651685393,4,2,1,50,1,0
41441,-100,4,2,1,50,0,1
57621,-100,4,2,1,50,0,0
111553,-100,4,2,1,50,0,1
111722,-100,4,2,1,50,0,0
122340,-100,4,2,1,50,0,1
132452,-100,4,2,1,50,0,0
133126,-100,4,2,1,50,0,1
141722,-100,4,2,1,50,0,0
143913,-100,4,2,1,50,0,1
155008,337.078651685393,4,2,1,50,1,0
156019,337.078651685393,4,2,1,50,1,0

[Colours]
Combo1 : 232,232,232
Combo2 : 187,0,4
Combo3 : 247,87,34
Combo4 : 128,64,64
Combo5 : 181,181,181
Combo6 : 247,232,187

[HitObjects]
170,106,110,6,0,P|151:171|177:241,1,139.999995727539,2|0,0:0|0:0,0:0:0:0:
286,259,1887,2,0,P|308:193|291:126,1,139.999995727539,2|0,0:0|0:0,0:0:0:0:
187,81,3665,6,0,B|151:76|151:76|108:102|41:87,2,139.999995727539,2|2|2,0:0|0:0|0:0,0:0:0:0:
139,241,6776,1,0,0:0:0:0:
180,280,7221,6,0,L|326:277,1,139.999995727539,2|0,0:0|0:0,0:0:0:0:
337,167,8998,2,0,L|191:164,2,139.999995727539,2|2|0,0:0|0:0|0:0,0:0:0:0:
312,277,11665,2,0,B|286:296|253:296|253:296|220:277|169:281,1,139.999995727539,2|0,0:0|0:0,0:0:0:0:
271,95,14332,6,0,B|290:135|290:135|282:237,1,139.999995727539,2|0,0:0|0:0,0:0:0:0:
173,248,16109,2,0,P|144:185|159:116,1,139.999995727539,2|0,0:0|0:0,0:0:0:0:
254,61,17887,6,0,B|304:64|327:87|327:87|355:76|388:83,2,139.999995727539,2|2|2,0:0|0:0|0:0,0:0:0:0:
257,229,20998,1,0,0:0:0:0:
312,229,21443,6,0,B|359:233|388:263|388:263|413:266|443:248,2,139.999995727539,2|2|2,0:0|0:0|0:0,0:0:0:0:
173,262,24182,2,0,L|192:372,1,100,2|0,0:0|0:0,0:0:0:0:
256,192,25372,12,0,27973,0:0:0:0:
316,138,29306,6,0,P|268:128|206:134,1,100,8|8,0:0|0:0,0:0:0:0:
206,212,29980,2,0,B|234:233|234:233|264:226|307:233,1,100,8|8,0:0|0:0,0:0:0:0:
377,218,30655,5,4,0:0:0:0:
377,218,32003,2,0,B|374:182|340:156|340:156|304:164|245:149,1,150,8|10,0:3|0:0,0:0:0:0:
198,196,32846,2,0,P|187:251|213:346,2,150,10|0|8,0:3|0:0|0:0,0:0:0:0:
257,142,34194,1,8,0:0:0:0:
335,142,34531,1,10,0:0:0:0:
136,120,35374,2,0,B|143:157|143:157|132:186|136:230,1,100,8|2,0:0|0:0,0:0:0:0:
165,295,36048,6,0,P|267:309|358:276,1,200,6|10,0:0|0:0,0:0:0:0:
377,200,37059,2,0,L|377:97,1,100,10|10,0:0|0:0,0:0:0:0:
296,94,37733,2,0,P|244:108|186:104,1,100,10|10,0:0|0:0,0:0:0:0:
121,78,38407,1,10,0:0:0:0:
88,152,38744,6,0,P|88:254|165:319,2,200,14|8|10,0:0|0:0|0:3,0:0:0:0:
164,177,40430,2,0,P|240:181|280:176,1,100,2|0,0:0|0:0,0:0:0:0:
342,186,41104,1,0,0:0:0:0:
415,216,41441,6,0,P|421:267|410:321,1,100,6|10,0:0|0:0,0:0:0:0:
342,348,42115,1,2,0:0:0:0:
183,342,42789,2,0,P|172:290|183:239,1,100,10|10,0:3|0:0,0:0:0:0:
188,164,43463,1,2,0:0:0:0:
71,55,44138,5,6,0:0:0:0:
188,164,44812,2,0,B|220:182|261:185|261:185|319:171|385:182,1,200,2|2,0:0|0:0,0:0:0:0:
388,260,45823,1,10,0:0:0:0:
323,307,46160,2,0,P|275:314|223:307,1,100,2|10,0:0|0:0,0:0:0:0:
155,267,46834,6,0,L|150:161,2,100,6|10|2,0:0|0:0|0:0,0:0:0:0:
300,204,48183,2,0,B|356:193|356:193|421:202,2,100,10|10|2,0:3|0:0|0:0,0:0:0:0:
225,62,49531,2,0,P|265:36|326:47,2,100,10|10|2,0:3|0:0|0:0,0:0:0:0:
188,133,50542,1,2,0:0:0:0:
203,212,50879,6,0,B|249:230|249:230|308:215|403:215,1,200,6|0,0:0|0:0,0:0:0:0:
473,183,51890,1,10,0:3:0:0:
415,127,52228,6,0,P|376:115|268:128,1,150,4|10,0:0|0:0,0:0:0:0:
191,150,53070,2,0,P|139:150|88:134,2,100,10|10|10,0:0|0:3|0:0,0:0:0:0:
225,222,54081,2,0,P|271:240|371:226,1,150,8|8,0:0|0:3,0:0:0:0:
326,157,54924,5,6,0:0:0:0:
225,222,55430,2,0,B|214:273|214:273|217:327,2,100,10|10|10,0:0|0:0|0:0,0:0:0:0:
374,289,56778,1,14,0:0:0:0:
374,289,57621,6,0,P|392:215|355:98,1,200,4|0,0:0|0:0,0:0:0:0:
286,55,58632,1,8,0:0:0:0:
228,110,58969,2,0,P|209:183|246:299,1,200,8|8,0:3|0:3,0:0:0:0:
326,311,59980,1,8,0:0:0:0:
360,239,60317,6,0,L|344:128,2,100,4|8|0,0:0|0:0|0:0,0:0:0:0:
432,274,61329,1,8,0:0:0:0:
469,205,61666,2,0,P|461:131|377:37,1,200,8|8,0:3|0:3,0:0:0:0:
220,30,63014,6,0,B|204:58|161:84|161:84|142:131|182:196,1,200,4|0,0:0|0:0,0:0:0:0:
176,276,64025,1,8,0:0:0:0:
108,236,64362,2,0,P|76:168|88:32,1,200,8|8,0:3|0:3,0:0:0:0:
152,4,65374,1,8,0:0:0:0:
212,56,65711,6,0,B|229:92|249:104|249:104|237:154|251:183|266:213|310:219,1,200,4|8,0:0|0:0,0:0:0:0:
329,142,66722,1,8,0:0:0:0:
383,202,67059,2,0,P|356:280|243:281,1,200,4|8,0:0|0:0,0:0:0:0:
185,246,68070,1,8,0:0:0:0:
113,213,68407,6,0,B|57:213|57:213|6:219,2,100,4|8|0,0:0|0:0|0:0,0:0:0:0:
176,164,69419,1,8,0:0:0:0:
251,141,69756,2,0,B|287:129|319:144|319:144|316:209|374:261,1,200,8|8,0:3|0:3,0:0:0:0:
449,266,70767,1,8,0:0:0:0:
460,186,71104,6,0,B|455:119|444:79|444:79|396:72|352:60,1,200,4|0,0:0|0:0,0:0:0:0:
276,44,72115,1,8,0:0:0:0:
199,62,72452,2,0,B|140:68|88:65|88:65|67:101|74:160,1,200,8|8,0:3|0:3,0:0:0:0:
80,231,73463,1,8,0:0:0:0:
137,287,73801,6,0,P|184:308|242:287,2,100,4|8|0,0:0|0:0|0:0,0:0:0:0:
188,226,74812,1,8,0:0:0:0:
266,220,75149,2,0,P|304:256|312:312,2,100,0|8|8,0:0|0:0|0:3,0:0:0:0:
230,159,76160,1,8,0:0:0:0:
310,150,76497,6,0,B|342:153|364:142|364:142|378:86|433:75,1,150,12|12,0:0|0:0,0:0:0:0:
448,159,77340,1,12,0:0:0:0:
400,224,77677,2,0,B|320:248|276:240|276:240|244:252,2,150,4|8|0,0:0|0:3|0:0,0:0:0:0:
371,340,79194,6,0,P|319:335|264:340,1,100,6|8,0:0|0:0,0:0:0:0:
190,344,79868,2,0,P|142:339|98:306,1,100,0|8,0:0|0:0,0:0:0:0:
76,234,80542,2,0,B|79:182|130:159|130:159|137:97|112:58,1,200,8|8,0:3|0:3,0:0:0:0:
36,45,81553,1,8,0:0:0:0:
36,125,81890,6,0,B|75:157|134:157|134:157|170:120|229:125,1,200,4|0,0:0|0:0,0:0:0:0:
299,136,82902,1,8,0:0:0:0:
343,202,83239,2,0,P|343:256|305:300,2,100,8|8|8,0:3|0:0|0:3,0:0:0:0:
266,231,84250,1,8,0:0:0:0:
219,296,84587,6,0,P|160:296|116:284,1,100,4|8,0:0|0:0,0:0:0:0:
84,217,85261,2,0,P|84:158|93:114,1,100,0|8,0:0|0:0,0:0:0:0:
165,82,85935,2,0,P|222:82|266:91,1,100,0|8,0:3|0:0,0:0:0:0:
299,162,86610,2,0,P|342:191|392:212,2,100,8|8|12,0:3|0:0|0:0,0:0:0:0:
226,198,87621,6,0,P|210:248|218:303,1,100,8|0,0:0|0:0,0:0:0:0:
274,351,88295,1,0,0:0:0:0:
347,323,88632,2,0,P|368:275|379:209,1,100,2|10,0:0|0:0,0:0:0:0:
380,147,89306,2,0,P|368:97|347:51,1,100,8|8,0:0|0:0,0:0:0:0:
266,56,89980,6,0,B|207:65|148:44|148:44|112:65|112:124,1,200,12|0,0:0|0:0,0:0:0:0:
102,194,90992,1,8,0:0:0:0:
124,271,91329,2,0,P|178:280|225:277,1,100,8|8,0:3|0:0,0:0:0:0:
255,205,92003,2,0,B|247:167|247:167|221:153|199:109,2,100,8|8|4,0:3|0:0|0:0,0:0:0:0:
322,253,93014,5,8,0:0:0:0:
387,205,93351,2,0,P|396:160|390:102,1,100,0|8,0:0|0:0,0:0:0:0:
322,71,94025,2,0,B|266:80|266:80|222:59|160:59,2,150,8|0|8,0:3|0:0|0:0,0:0:0:0:
328,150,95374,6,0,B|320:196|298:218|298:218|294:255|316:302,1,150,4|8,0:0|0:3,0:0:0:0:
394,296,96216,1,8,0:3:0:0:
431,223,96553,2,0,P|437:142|415:69,1,150,8|8,0:3|0:0,0:0:0:0:
347,41,97396,2,0,P|295:36|240:44,1,100,8|8,0:3|0:0,0:0:0:0:
176,82,98070,6,0,B|131:88|131:88|84:66|25:85,1,150,12|12,0:0|0:0,0:0:0:0:
7,162,98913,1,12,0:0:0:0:
39,234,99250,2,0,P|112:240|192:224,1,150,4|8,0:0|0:3,0:0:0:0:
268,220,100093,2,0,P|325:220|378:241,1,100,2|0,0:0|0:0,0:0:0:0:
380,315,100767,6,0,B|316:347|255:343|255:343|221:321|174:321,1,200,12|8,0:0|0:0,0:0:0:0:
113,293,101778,1,0,0:0:0:0:
70,223,102115,2,0,P|65:131|142:43,1,200,0|8,0:0|0:0,0:0:0:0:
212,37,103126,1,8,0:3:0:0:
288,63,103463,6,0,B|338:80|418:66|418:66|448:91|454:139,1,200,0|8,0:0|0:0,0:0:0:0:
445,205,104475,1,0,0:0:0:0:
387,260,104812,2,0,B|287:277|287:277|185:255,1,200,0|8,0:0|0:0,0:0:0:0:
117,228,105823,1,0,0:3:0:0:
80,154,106160,6,0,P|75:102|86:54,2,100,12|0|8,0:0|0:0|0:0,0:0:0:0:
36,220,107171,2,0,P|45:266|90:302,1,100,0|0,0:0|0:0,0:0:0:0:
149,348,107846,2,0,P|195:336|231:292,1,100,0|8,0:0|0:0,0:0:0:0:
268,228,108520,1,0,0:0:0:0:
320,288,108857,2,0,P|380:304|472:272,1,150,4|12,0:0|0:0,0:0:0:0:
460,200,109699,1,12,0:0:0:0:
383,173,110037,1,12,0:0:0:0:
223,166,110711,2,0,P|164:175|69:143,1,150,8|10,0:0|0:0,0:0:0:0:
65,71,111553,6,0,B|90:52|90:52|122:59|163:48,1,100,4|8,0:0|0:0,0:0:0:0:
237,71,112228,2,0,P|287:74|346:66,1,100,0|8,0:0|0:0,0:0:0:0:
408,108,112902,2,0,P|425:162|417:209,1,100,8|8,0:3|0:0,0:0:0:0:
376,268,113576,2,0,L|269:274,1,100,8|8,0:3|0:0,0:0:0:0:
196,265,114250,6,0,B|137:257|107:231|107:231|45:231|16:286,1,200,4|0,0:0|0:0,0:0:0:0:
50,354,115261,1,8,0:0:0:0:
131,359,115598,2,0,L|283:354,1,150,8|0,0:3|0:0,0:0:0:0:
383,290,116610,2,0,P|389:245|386:183,1,100,8|4,0:0|0:0,0:0:0:0:
361,114,117284,6,0,P|286:84|166:114,1,200,8|8,0:0|0:0,0:0:0:0:
128,180,118295,2,0,P|131:230|171:273,2,100,8|8|8,0:3|0:0|0:3,0:0:0:0:
204,202,119306,1,8,0:0:0:0:
285,194,119643,6,0,B|342:194|342:194|386:211|434:208,1,150,4|4,0:0|0:0,0:0:0:0:
464,136,120486,1,12,0:0:0:0:
369,63,120992,2,0,P|284:55|218:77,1,150,12|12,0:0|0:0,0:0:0:0:
165,129,121834,2,0,B|135:154|106:168|106:168|98:208|113:256,1,150,8|4,0:3|0:0,0:0:0:0:
156,315,122677,5,8,0:0:0:0:
230,348,123014,2,0,P|276:351|339:340,1,100,0|8,0:0|0:0,0:0:0:0:
401,304,123688,2,0,P|401:252|363:206,2,100,8|8|8,0:3|0:0|0:3,0:0:0:0:
325,279,124699,1,8,0:0:0:0:
266,223,125037,6,0,P|254:148|348:75,1,200,4|0,0:0|0:0,0:0:0:0:
428,88,126048,1,8,0:0:0:0:
459,162,126385,2,0,B|468:198|462:234|462:234|436:263|395:282|403:358,2,200,8|8|4,0:3|0:3|0:0,0:0:0:0:
428,88,128070,1,8,0:0:0:0:
350,67,128407,2,0,P|298:62|243:70,1,100,0|8,0:0|0:0,0:0:0:0:
176,99,129081,6,0,P|120:108|69:105,2,100,8|8|8,0:3|0:0|0:3,0:0:0:0:
241,147,130093,1,8,0:0:0:0:
280,216,130430,2,0,P|357:233|437:221,2,150,4|4|4,0:0|0:0|0:0,0:0:0:0:
220,268,131778,1,0,0:0:0:0:
160,320,132115,1,8,0:0:0:0:
84,354,132452,2,0,B|65:324|65:324|72:290|68:251,1,100,8|8,0:0|0:3,0:0:0:0:
91,183,133126,6,0,P|130:171|196:178,1,100,4|8,0:0|0:0,0:0:0:0:
266,202,133801,2,0,P|327:202|371:190,1,100,0|8,0:0|0:0,0:0:0:0:
376,114,134475,2,0,P|335:102|269:109,1,100,8|8,0:3|0:0,0:0:0:0:
196,118,135150,2,0,B|155:118|155:118|85:102,1,100,8|0,0:3|0:0,0:0:0:0:
28,147,135823,6,0,B|9:204|9:204|30:274|115:285,1,200,4|0,0:0|0:0,0:0:0:0:
193,286,136834,1,8,0:0:0:0:
274,282,137171,2,0,L|375:270,2,100,0|8|0,0:0|0:0|0:0,0:0:0:0:
230,213,138183,1,8,0:0:0:0:
263,139,138520,6,0,P|353:112|429:175,1,200,4|0,0:0|0:0,0:0:0:0:
438,256,139531,1,8,0:0:0:0:
391,323,139868,2,0,P|339:332|288:329,1,100,8|8,0:3|0:0,0:0:0:0:
216,312,140542,2,0,P|170:286|135:252,1,100,8|8,0:3|0:0,0:0:0:0:
94,183,141216,6,0,B|82:135|82:135|115:94|126:43,1,150,4|12,0:0|0:0,0:0:0:0:
207,56,142059,2,0,P|253:65|308:62,1,100,12|12,0:0|0:0,0:0:0:0:
373,166,142902,2,0,P|382:220|387:267,1,100,10|0,0:0|0:0,0:0:0:0:
307,260,143576,2,0,P|277:299|229:314,1,100,8|4,0:0|0:0,0:0:0:0:
149,312,144250,5,8,0:0:0:0:
98,249,144587,2,0,B|79:211|93:171|93:171|137:135|134:62,2,200,0|8|8,0:0|0:3|0:3,0:0:0:0:
149,312,146272,1,8,0:0:0:0:
230,319,146610,6,0,B|280:322|312:307|312:307|312:241|364:194,1,200,4|0,0:0|0:0,0:0:0:0:
333,125,147621,1,8,0:0:0:0:
251,133,147958,2,0,P|166:139|97:114,1,150,8|0,0:3|0:0,0:0:0:0:
33,147,148801,2,0,B|17:201|17:201|17:240|50:296,1,150,10|4,0:3|0:0,0:0:0:0:
109,340,149643,5,8,0:0:0:0:
190,340,149980,2,0,L|291:328,1,100,0|8,0:0|0:0,0:0:0:0:
325,256,150654,2,0,L|426:244,2,100,0|8|8,0:0|0:0|0:3,0:0:0:0:
251,223,151666,1,8,0:0:0:0:
230,147,152003,6,0,P|230:99|251:47,2,100,12|8|0,0:0|0:0|0:0,0:0:0:0:
176,205,153014,2,0,P|185:266|266:298,1,150,0|8,0:0|0:0,0:0:0:0:
339,282,153857,2,0,B|353:248|353:248|331:197|339:123,1,150,8|10,0:0|0:3,0:0:0:0:
274,88,154699,1,6,0:0:0:0:
196,122,155008,6,0,P|144:131|85:128,1,100,10|2,0:0|0:0,0:0:0:0:
28,173,155682,1,8,0:0:0:0:
25,253,156019,2,0,P|28:289|53:346,1,100,10|10,0:3|0:0,0:0:0:0:
134,359,156693,2,0,L|243:351,1,100,10|8,0:3|0:0,0:0:0:0:
310,330,157367,2,0,B|327:303|327:303|316:266|327:227,1,100,6|10,0:0|0:0,0:0:0:0:
405,234,158041,6,0,P|417:297|424:348,2,100,2|10|10,0:0|0:0|0:3,0:0:0:0:
365,166,159052,1,10,0:0:0:0:
285,166,159389,2,0,B|221:172|189:212|189:212|131:220|90:169,1,200,10|6,0:3|0:0,0:0:0:0:
87,108,160401,1,10,0:0:0:0:
153,63,160738,2,0,L|258:58,1,100,2|8,0:0|0:0,0:0:0:0:
333,77,161412,2,0,P|350:120|354:178,2,100,10|10|10,0:3|0:0|0:3,0:0:0:0:
216,187,162760,6,0,B|216:219|216:219|233:248|237:285,2,100,6|10|2,0:0|0:0|0:0,0:0:0:0:
139,169,163771,1,2,0:0:0:0:
102,242,164108,2,0,L|108:347,1,100,6|10,0:0|0:3,0:0:0:0:
190,351,164783,2,0,P|236:343|299:354,1,100,0|2,0:0|0:0,0:0:0:0:
361,315,165457,6,0,P|370:237|349:156,1,150,4|10,0:0|0:0,0:0:0:0:
299,111,166299,1,10,0:0:0:0:
219,118,166636,2,0,P|171:121|112:113,1,100,10|10,0:3|0:0,0:0:0:0:
47,154,167311,2,0,P|31:233|47:311,1,150,8|8,0:0|0:3,0:0:0:0:
117,334,168153,5,6,0:0:0:0:
207,256,168659,2,0,P|216:208|210:153,2,100,10|10|10,0:0|0:0|0:0,0:0:0:0:
237,334,169670,2,0,B|273:343|273:343|346:334,1,100,10|14,0:3|0:0,0:0:0:0:
