osu file format v7

[General]
AudioFilename: Sakura Iro.mp3
AudioLeadIn: 0
PreviewTime: 68740
Countdown: 1
SampleSet: Normal
StackLeniency: 0.2
Mode: 0
LetterboxInBreaks: 1

[Editor]
Bookmarks: 52618,68944,108128,137516,176699,206087
DistanceSpacing: 2
BeatDivisor: 4
GridSize: 8

[Metadata]
Title:Sakura Iro
Artist:Merami Pop
Creator:saymun
Version:Hard
Source:Touhou
Tags:Dichromatic Butterfly Ancients Hakurei Reimu

[Difficulty]
HPDrainRate:5
CircleSize:4
OverallDifficulty:5
SliderMultiplier:1.6
SliderTickRate:1

[Events]
//Background and Video events
0,0,"bg.jpg"
//Break Periods
2,13022,25295
2,96899,106928
//Storyboard Layer 0 (Background)
//Storyboard Layer 1 (Fail)
//Storyboard Layer 2 (Pass)
//Storyboard Layer 3 (Foreground)
//Storyboard Sound Samples
//Background Colour Transformations
3,100,0,0,0

[TimingPoints]
6904,408.163265306122,4,1,0,60,1,0
54250,-200,4,1,0,60,0,0
62210,-100,4,1,0,60,0,0
68944,-100,4,1,0,60,0,1
81955,-100,4,1,0,60,0,0
82006,-100,4,1,0,60,0,1
95067,-100,4,1,0,60,0,0
121087,-200,4,1,0,60,0,0
130883,-100,4,1,0,60,0,0
137516,-100,4,1,0,60,0,1
150526,-100,4,1,0,60,0,0
150577,-100,4,1,0,60,0,1
163638,-100,4,1,0,60,0,0
206087,-100,4,1,0,60,0,1
219097,-100,4,1,0,60,0,0
219148,-100,4,1,0,60,0,1
232210,-100,4,1,0,60,0,0

[Colours]
Combo1 : 255,113,184
Combo2 : 255,174,215
Combo3 : 255,255,255

[HitObjects]
216,120,6903,1,0
136,120,7108,1,0
96,192,7312,1,0
136,264,7516,1,0
216,264,7720,1,0
256,192,7924,1,0
360,72,8332,6,0,B|424:136|416:224,1,160
384,288,8944,1,0
312,328,9148,2,0,B|280:352|224:344,2,80
256,176,9965,6,0,B|216:104|128:80,1,160
56,104,10577,1,0
24,176,10781,2,0,B|16:232|40:272,2,80
144,280,11597,6,0,B|216:320|304:288,1,160
304,208,12210,2,0,B|232:168|144:200,1,160
149,198,12822,1,0
88,104,26495,6,0,B|200:48|344:96,1,240
392,136,27312,1,0
432,200,27516,2,0,B|416:272|368:288,2,80
352,200,28128,2,0,B|240:256|96:208,1,240
232,328,29148,5,0
296,280,29352,1,0
360,328,29557,1,0
424,280,29761,2,0,B|496:216|480:104,1,160
408,160,30373,2,0,B|360:200|248:184,1,160
184,152,30985,1,0
200,72,31189,1,0
120,96,31393,6,0,B|64:160|64:264,1,160
136,280,32006,2,0,B|200:232|304:240,1,160
360,272,32618,1,0
424,128,33026,6,0,B|312:72|184:112,1,240
128,160,33842,1,0
88,232,34046,2,0,B|80:288|112:328,2,80
168,232,34659,2,0,B|240:272|360:248,1,160
320,176,35271,6,0,B|224:152|208:56,1,160
288,56,35883,1,0
368,72,36087,1,0
448,56,36291,2,0,B|472:144|432:232,1,160
392,280,36903,2,0,B|328:336|224:336,1,160
184,288,37516,1,0
120,336,37720,1,0
56,288,37924,6,0,B|80:200|160:144,1,160
208,200,38536,2,0,B|304:192|352:104,1,160
360,48,39148,1,0
200,48,39557,6,0,B|104:80|80:184,1,160
152,200,40169,2,0,B|216:152|320:152,1,160
368,192,40781,1,0
424,248,40985,1,0
368,304,41189,2,0,B|280:336|184:304,1,160
136,280,41801,2,0,B|88:264|64:216,1,80
48,160,42210,5,0
96,96,42414,1,0
144,160,42618,1,0
192,96,42822,2,0,B|272:64|360:88,1,160
368,160,43434,2,0,B|320:168|280:208,1,80
256,264,43842,1,0
216,336,44046,1,0
296,336,44250,1,0
336,264,44455,6,0,B|368:232|432:232,2,80
296,192,45067,2,0,B|208:176|136:232,1,160
96,288,45679,1,0
96,128,46087,6,0,B|168:64|280:80,1,160
288,144,46699,2,0,B|224:200|224:288,1,160
280,344,47312,1,0
360,344,47516,1,0
320,272,47720,2,0,B|352:232|400:224,2,80
256,224,48332,6,0,B|224:264|176:272,1,80
168,344,48740,1,0
88,344,48944,1,0
64,272,49148,1,0
128,224,49352,2,0,B|152:136|248:96,1,160
304,80,49965,2,0,B|360:64|416:72,1,80
440,128,50373,1,0
392,192,50577,1,0
440,256,50781,1,0
392,320,50985,6,0,B|312:344|224:320,1,160
264,248,51597,2,0,B|168:224|120:136,1,160
152,80,52210,2,0,B|208:136|304:128,1,160
256,208,52720,12,0,54659
56,152,55067,5,0
112,96,55271,1,0
184,64,55475,2,0,B|224:48|272:64,2,80
184,144,56495,2,0,B|216:192|288:200,1,120
448,192,57516,1,0
408,344,57924,5,0
256,296,58332,1,0
104,344,58740,1,0
56,192,59148,2,0,B|80:152|120:136,1,80
192,160,59761,2,0,B|224:184|280:168,1,80
336,128,60373,1,0
312,288,60781,6,0,B|256:296|224:264,1,80
280,208,61393,2,0,B|328:216|368:192,1,80
416,144,62006,1,0
40,120,62414,6,0,B|16:208|40:288,1,160
472,264,63230,2,0,B|496:176|472:96,1,160
40,120,64046,2,0,B|16:208|40:288,1,160
472,264,64862,2,0,B|496:176|472:96,1,160
176,80,65679,5,0
256,64,65883,1,0
336,80,66087,1,0
352,160,66291,5,0
256,160,66495,1,0
160,160,66699,1,0
208,240,66903,5,0
256,344,67108,1,0
304,240,67312,2,0,B|352:240|400:304,2,80,0|0|0
256,136,67924,5,0
152,64,68128,1,0
48,136,68332,1,0
88,256,68536,1,0
216,256,68740,1,0
416,96,68944,6,0,B|440:56|488:32,2,80
376,168,69557,1,0
456,168,69761,2,0,B|456:224|416:248,1,80
360,280,70169,1,0
280,264,70373,2,0,B|200:224|192:112,1,160
128,184,70985,2,0,B|128:280|48:336,1,160
440,192,71801,5,0
64,56,72210,5,0
88,136,72414,2,0,B|120:192|168:192,2,80
144,80,73026,1,0
224,104,73230,1,0
304,80,73434,1,0
384,104,73638,2,0,B|360:176|264:232,1,160
256,296,74250,2,0,B|344:312|440:264,1,160
80,56,75067,5,0
456,192,75475,5,0
400,248,75679,1,0
328,208,75883,1,0
272,264,76087,1,0
200,224,76291,2,0,B|160:240|136:272,2,80
392,72,76903,5,0
328,120,77108,1,0
256,88,77312,1,0
192,136,77516,1,0
120,104,77720,1,0
56,152,77924,2,0,B|24:192|32:256,2,80
256,288,78536,5,0
320,240,78740,1,0
296,160,78944,1,0
216,160,79148,1,0
192,240,79352,1,0
128,288,79557,2,0,B|80:304|32:272,2,80
368,312,80169,6,0,B|432:240|416:128,1,160
344,152,80781,2,0,B|288:240|176:232,1,160
155,288,81393,1,0
98,231,81597,1,0
154,174,81801,1,0
368,64,82006,6,0,B|424:80|448:120,2,80
288,88,82618,1,0
208,64,82822,2,0,B|152:80|128:120,1,80
96,168,83230,1,0
104,248,83434,2,0,B|168:304|272:304,1,160
328,288,84046,2,0,B|416:240|432:144,1,160
56,320,84863,5,0
384,88,85271,5,0
312,120,85475,1,0
312,40,85679,2,0,B|216:56|168:112,1,160
128,176,86291,1,0
208,176,86495,1,0
168,248,86699,2,0,B|240:312|336:320,1,160
384,296,87312,2,0,B|448:232|456:144,1,160
64,56,88128,5,0
464,80,88536,6,0,B|376:88|312:144,1,160
272,200,89148,1,0
232,272,89352,1,0
312,272,89557,2,0,B|376:264|408:232,1,80
168,144,89965,6,0,B|96:208|80:296,1,160
136,336,90577,1,0
208,304,90781,1,0
280,336,90985,1,0
352,304,91189,2,0,B|424:304|456:352,1,80
440,88,91597,6,0,B|392:176|312:200,1,160
248,176,92210,1,0
184,136,92414,1,0
208,64,92618,1,0
288,64,92822,2,0,B|328:88|312:144,1,80
112,264,93230,6,0,B|184:296|296:288,1,160
344,264,93842,1,0
408,216,94046,1,0
344,168,94250,1,0
280,216,94455,1,0
216,168,94659,1,0
240,96,94863,1,0
320,96,95067,1,0
256,208,95169,12,0,96699
80,160,108128,6,0,B|144:88|256:88,1,160
264,160,108740,2,0,B|328:224|440:200,1,160
472,152,109352,1,0
424,88,109557,1,0
352,120,109761,2,0,B|288:184|288:280,1,160
288,262,110373,1,0
288,262,110781,5,0
224,312,110985,1,0
160,264,111189,1,0
224,216,111393,2,0,B|296:160|400:176,1,160
424,104,112006,2,0,B|344:80|248:96,1,160
192,56,112618,1,0
128,104,112822,1,0
192,144,113026,5,0
264,176,113230,1,0
336,144,113434,1,0
408,176,113638,2,0,B|392:256|304:312,1,160
317,303,114250,1,0
160,296,114659,6,0,B|104:240|96:136,1,160
176,136,115271,2,0,B|232:176|272:168,2,80
120,80,115883,1,0
192,48,116087,1,0
272,64,116291,2,0,B|336:112|448:112,1,160
456,184,116903,2,0,B|424:256|312:304,1,160
280,240,117516,1,0
216,288,117720,1,0
152,240,117924,6,0,B|64:240,2,80
216,192,118536,2,0,B|272:128|360:104,1,160
312,40,119148,1,0
232,32,119352,1,0
152,40,119557,2,0,B|88:104|72:192,1,160
152,200,120169,2,0,B|200:272|304:288,1,160
336,224,120781,2,0,B|432:224,1,80
448,152,121189,6,0,B|280:40|56:88,1,400
64,248,123638,5,0
136,288,123842,1,0
136,208,124046,1,0
288,248,124455,2,0,B|336:240|376:272,1,80
432,224,125067,2,0,B|384:120|264:104,1,200
128,56,126495,5,0
48,192,126903,1,0
128,328,127312,1,0
208,192,127720,6,0,B|240:152|288:136,1,80
304,216,128332,2,0,B|336:264|384:264,1,80
400,192,128944,1,0
104,64,129352,6,0,B|72:104|72:144,1,80
144,168,129964,2,0,B|136:224|112:248,1,80
64,296,130577,1,0
209,340,130985,6,0,B|264:280|256:192,1,160
404,238,131801,2,0,B|344:184|256:192,1,160
302,43,132618,2,0,B|248:104|256:192,1,160
107,145,133434,2,0,B|168:200|256:192,1,160
400,264,134250,5,0
440,192,134455,1,0
400,120,134659,1,0
328,96,134863,5,0
336,192,135067,1,0
328,288,135271,1,0
256,320,135475,5,0
192,232,135679,1,0
128,320,135883,2,0,B|32:320,2,80
56,232,136495,5,0
56,104,136699,1,0
176,72,136903,1,0
256,168,137108,1,0
176,264,137312,1,0
440,80,137516,5,0
