osu file format v14

[General]
AudioFilename: Sky of the Ocean.MP3
AudioLeadIn: 0
PreviewTime: 59015
Countdown: 0
SampleSet: Soft
StackLeniency: 0.7
Mode: 3
LetterboxInBreaks: 0
SpecialStyle: 0
WidescreenStoryboard: 0

[Editor]
DistanceSpacing: 1
BeatDivisor: 4
GridSize: 4
TimelineZoom: 1.5

[Metadata]
Title:Sky of the Ocean
TitleUnicode:Sky of the Ocean
Artist:Memme feat. M2U
ArtistUnicode:Memme feat. M2U
Creator:AnatOWJIya
Version:4K Ocean [HD]
Source:O2Jam
Tags:parkmemme DUBthnic Analog & U [shi-ra]
BeatmapID:1038344
BeatmapSetID:486991

[Difficulty]
HPDrainRate:7.5
CircleSize:4
OverallDifficulty:7.5
ApproachRate:5
SliderMultiplier:1.4
SliderTickRate:1

[Events]
//Background and Video events
0,0,"bg.jpg",0,0
//Break Periods
//Storyboard Layer 0 (Background)
//Storyboard Layer 1 (Fail)
//Storyboard Layer 2 (Pass)
//Storyboard Layer 3 (Foreground)
//Storyboard Sound Samples

[TimingPoints]
1102,521.739130434783,3,2,2,60,1,0
59015,-100,3,2,2,70,0,1
71275,-100,3,2,2,70,0,0
71536,-100,3,2,2,70,0,1
83536,-100,3,2,2,70,0,0
91884,-100,3,2,2,50,0,0
123188,-100,3,2,2,40,0,0
126319,-100,3,2,2,60,0,0
129449,-100,3,2,2,70,0,1
141710,-100,3,2,2,70,0,0
141971,-100,3,2,2,60,0,1
142102,-100,3,2,2,60,0,0
149797,-100,3,2,2,30,0,0
151362,-100,3,2,2,20,0,0
152145,-100,3,2,2,15,0,0
152928,-100,3,2,2,5,0,0

[HitObjects]
64,192,1102,5,0,0:0:0:0:
192,192,1232,1,0,0:0:0:0:
320,192,1362,1,0,0:0:0:0:
448,192,1493,1,0,0:0:0:0:
64,192,1623,1,0,0:0:0:0:
320,192,1754,1,0,0:0:0:0:
192,192,1884,1,0,0:0:0:0:
448,192,2015,1,0,0:0:0:0:
320,192,2145,1,0,0:0:0:0:
192,192,2275,1,0,0:0:0:0:
64,192,2406,1,0,0:0:0:0:
448,192,2536,1,0,0:0:0:0:
320,192,2667,1,0,0:0:0:0:
192,192,2797,1,0,0:0:0:0:
64,192,2928,1,0,0:0:0:0:
448,192,3058,1,0,0:0:0:0:
320,192,3188,1,0,0:0:0:0:
64,192,3449,1,0,0:0:0:0:
192,192,3449,1,0,0:0:0:0:
320,192,3645,1,0,0:0:0:0:
448,192,3710,1,0,0:0:0:0:
320,192,3841,1,0,0:0:0:0:
192,192,3971,1,0,0:0:0:0:
64,192,4102,1,0,0:0:0:0:
320,192,4232,1,0,0:0:0:0:
448,192,4232,128,0,4493:0:0:0:0:
192,192,4232,1,0,0:0:0:0:
64,192,4493,128,0,4754:0:0:0:0:
192,192,4493,1,0,0:0:0:0:
320,192,4623,1,0,0:0:0:0:
320,192,4754,128,0,5015:0:0:0:0:
448,192,4754,1,0,0:0:0:0:
64,192,5015,1,0,0:0:0:0:
192,192,5015,128,0,5275:0:0:0:0:
448,192,5015,1,0,0:0:0:0:
448,192,5275,128,0,5667:0:0:0:0:
64,192,5275,1,0,0:0:0:0:
320,192,5536,1,0,0:0:0:0:
192,192,5667,1,0,0:0:0:0:
320,192,5797,128,0,6188:0:0:0:0:
64,192,5797,1,0,0:0:0:0:
192,192,5797,1,0,0:0:0:0:
448,192,6058,1,0,0:0:0:0:
192,192,6188,1,0,0:0:0:0:
64,192,6319,1,0,0:0:0:0:
448,192,6449,1,0,0:0:0:0:
192,192,6580,128,0,6841:0:0:0:0:
320,192,6580,1,0,0:0:0:0:
448,192,6580,1,0,0:0:0:0:
64,192,6710,1,0,0:0:0:0:
448,192,6841,128,0,7232:0:0:0:0:
320,192,6841,1,0,0:0:0:0:
64,192,7102,1,0,0:0:0:0:
192,192,7362,1,0,0:0:0:0:
320,192,7362,128,0,7884:0:0:0:0:
64,192,7362,1,0,0:0:0:0:
64,192,7493,1,0,0:0:0:0:
448,192,7623,1,0,0:0:0:0:
192,192,7754,1,0,0:0:0:0:
64,192,7884,1,0,0:0:0:0:
192,192,8015,1,0,0:0:0:0:
448,192,8145,128,0,8536:0:0:0:0:
320,192,8145,1,0,0:0:0:0:
192,192,8145,1,0,0:0:0:0:
64,192,8275,1,0,0:0:0:0:
192,192,8406,1,0,0:0:0:0:
64,192,8536,1,0,0:0:0:0:
192,192,8667,1,0,0:0:0:0:
320,192,8797,1,0,0:0:0:0:
448,192,8928,1,0,0:0:0:0:
64,192,8928,128,0,9710:0:0:0:0:
192,192,8928,1,0,0:0:0:0:
448,192,9188,1,0,0:0:0:0:
320,192,9319,1,0,0:0:0:0:
192,192,9319,1,0,0:0:0:0:
448,192,9449,1,0,0:0:0:0:
448,192,9710,1,0,0:0:0:0:
320,192,9710,1,0,0:0:0:0:
192,192,9841,1,0,0:0:0:0:
320,192,9971,1,0,0:0:0:0:
64,192,9971,1,0,0:0:0:0:
192,192,10102,1,0,0:0:0:0:
448,192,10232,1,0,0:0:0:0:
320,192,10493,1,0,0:0:0:0:
192,192,10623,1,0,0:0:0:0:
64,192,10754,1,0,0:0:0:0:
192,192,10884,1,0,0:0:0:0:
320,192,11015,1,0,0:0:0:0:
448,192,11145,1,0,0:0:0:0:
64,192,11275,1,0,0:0:0:0:
320,192,11406,1,0,0:0:0:0:
192,192,11471,1,0,0:0:0:0:
448,192,11536,1,0,0:0:0:0:
64,192,11667,1,0,0:0:0:0:
448,192,11797,1,0,0:0:0:0:
320,192,11971,1,0,0:0:0:0:
192,192,12015,1,0,0:0:0:0:
64,192,12058,1,0,0:0:0:0:
448,192,12058,1,0,0:0:0:0:
448,192,12319,1,0,0:0:0:0:
192,192,12319,1,0,0:0:0:0:
320,192,12580,1,0,0:0:0:0:
64,192,12580,1,0,0:0:0:0:
64,192,12841,1,0,0:0:0:0:
448,192,12841,1,0,0:0:0:0:
320,192,12971,1,0,0:0:0:0:
192,192,13102,1,0,0:0:0:0:
320,192,13232,1,0,0:0:0:0:
448,192,13297,1,0,0:0:0:0:
192,192,13362,1,0,0:0:0:0:
64,192,13623,1,0,0:0:0:0:
192,192,13623,1,0,0:0:0:0:
320,192,13884,1,0,0:0:0:0:
448,192,13884,1,0,0:0:0:0:
64,192,14145,1,0,0:0:0:0:
192,192,14145,1,0,0:0:0:0:
320,192,14406,1,0,0:0:0:0:
448,192,14406,1,0,0:0:0:0:
64,192,14667,1,0,0:0:0:0:
320,192,14928,1,0,0:0:0:0:
448,192,15123,1,0,0:0:0:0:
320,192,15188,1,0,0:0:0:0:
64,192,15188,1,0,0:0:0:0:
192,192,15449,1,0,0:0:0:0:
448,192,15449,1,0,0:0:0:0:
64,192,15710,1,0,0:0:0:0:
320,192,15710,1,0,0:0:0:0:
192,192,15971,1,0,0:0:0:0:
448,192,15971,1,0,0:0:0:0:
320,192,16232,1,0,0:0:0:0:
64,192,16493,1,0,0:0:0:0:
192,192,16754,1,0,0:0:0:0:
320,192,16754,1,0,0:0:0:0:
448,192,17015,1,0,0:0:0:0:
320,192,17015,1,0,0:0:0:0:
64,192,17275,1,0,0:0:0:0:
192,192,17275,1,0,0:0:0:0:
320,192,17471,1,0,0:0:0:0:
448,192,17536,1,0,0:0:0:0:
192,192,17536,1,0,0:0:0:0:
320,192,17797,1,0,0:0:0:0:
64,192,18058,1,0,0:0:0:0:
192,192,18188,1,0,0:0:0:0:
320,192,18319,1,0,0:0:0:0:
448,192,18580,1,0,0:0:0:0:
64,192,18841,1,0,0:0:0:0:
320,192,19036,1,0,0:0:0:0:
448,192,19102,1,0,0:0:0:0:
192,192,19102,1,0,0:0:0:0:
64,192,19362,1,0,0:0:0:0:
448,192,19623,1,0,0:0:0:0:
192,192,19884,1,0,0:0:0:0:
320,192,19884,1,0,0:0:0:0:
64,192,20145,1,0,0:0:0:0:
192,192,20145,1,0,0:0:0:0:
448,192,20406,1,0,0:0:0:0:
320,192,20406,1,0,0:0:0:0:
64,192,20667,1,0,0:0:0:0:
192,192,20667,1,0,0:0:0:0:
320,192,20667,1,0,0:0:0:0:
448,192,20928,1,0,0:0:0:0:
320,192,20928,1,0,0:0:0:0:
64,192,21188,1,0,0:0:0:0:
192,192,21188,1,0,0:0:0:0:
320,192,21449,1,0,0:0:0:0:
448,192,21449,1,0,0:0:0:0:
64,192,21710,1,0,0:0:0:0:
192,192,21841,1,0,0:0:0:0:
320,192,21971,1,0,0:0:0:0:
448,192,21971,1,0,0:0:0:0:
64,192,22167,1,0,0:0:0:0:
192,192,22232,1,0,0:0:0:0:
320,192,22232,1,0,0:0:0:0:
448,192,22493,1,0,0:0:0:0:
64,192,22493,1,0,0:0:0:0:
192,192,22754,1,0,0:0:0:0:
320,192,22754,1,0,0:0:0:0:
448,192,22884,1,0,0:0:0:0:
64,192,23015,1,0,0:0:0:0:
192,192,23015,1,0,0:0:0:0:
320,192,23145,1,0,0:0:0:0:
448,192,23275,1,0,0:0:0:0:
192,192,23275,1,0,0:0:0:0:
64,192,23406,1,0,0:0:0:0:
192,192,23536,1,0,0:0:0:0:
320,192,23536,1,0,0:0:0:0:
448,192,23667,1,0,0:0:0:0:
64,192,23797,1,0,0:0:0:0:
320,192,23797,1,0,0:0:0:0:
192,192,24058,1,0,0:0:0:0:
448,192,24058,1,0,0:0:0:0:
64,192,24449,1,0,0:0:0:0:
192,192,24515,1,0,0:0:0:0:
320,192,24580,1,0,0:0:0:0:
448,192,24580,1,0,0:0:0:0:
64,192,24841,1,0,0:0:0:0:
192,192,24841,1,0,0:0:0:0:
320,192,24971,1,0,0:0:0:0:
448,192,25102,1,0,0:0:0:0:
192,192,25102,1,0,0:0:0:0:
64,192,25362,1,0,0:0:0:0:
192,192,25362,1,0,0:0:0:0:
448,192,25623,1,0,0:0:0:0:
320,192,25623,1,0,0:0:0:0:
64,192,25884,1,0,0:0:0:0:
192,192,26145,1,0,0:0:0:0:
320,192,26145,1,0,0:0:0:0:
448,192,26406,1,0,0:0:0:0:
320,192,26406,1,0,0:0:0:0:
192,192,26536,1,0,0:0:0:0:
64,192,26667,1,0,0:0:0:0:
320,192,26667,1,0,0:0:0:0:
320,192,26928,1,0,0:0:0:0:
448,192,26928,1,0,0:0:0:0:
64,192,27188,1,0,0:0:0:0:
192,192,27449,1,0,0:0:0:0:
448,192,27645,1,0,0:0:0:0:
320,192,27710,1,0,0:0:0:0:
192,192,27710,1,0,0:0:0:0:
64,192,27971,1,0,0:0:0:0:
320,192,27971,1,0,0:0:0:0:
192,192,28102,1,0,0:0:0:0:
448,192,28232,1,0,0:0:0:0:
320,192,28232,1,0,0:0:0:0:
64,192,28493,1,0,0:0:0:0:
320,192,28493,1,0,0:0:0:0:
192,192,28754,1,0,0:0:0:0:
448,192,28754,1,0,0:0:0:0:
320,192,29015,1,0,0:0:0:0:
64,192,29015,1,0,0:0:0:0:
448,192,29275,1,0,0:0:0:0:
192,192,29275,1,0,0:0:0:0:
320,192,29406,1,0,0:0:0:0:
64,192,29536,1,0,0:0:0:0:
192,192,29536,1,0,0:0:0:0:
320,192,29667,1,0,0:0:0:0:
448,192,29797,1,0,0:0:0:0:
192,192,29797,1,0,0:0:0:0:
64,192,29928,1,0,0:0:0:0:
448,192,29993,1,0,0:0:0:0:
192,192,30058,1,0,0:0:0:0:
320,192,30058,1,0,0:0:0:0:
64,192,30319,1,0,0:0:0:0:
448,192,30580,1,0,0:0:0:0:
192,192,30841,1,0,0:0:0:0:
320,192,30841,1,0,0:0:0:0:
64,192,30971,1,0,0:0:0:0:
192,192,31102,1,0,0:0:0:0:
320,192,31232,1,0,0:0:0:0:
448,192,31362,1,0,0:0:0:0:
320,192,31623,1,0,0:0:0:0:
192,192,31623,1,0,0:0:0:0:
64,192,31884,1,0,0:0:0:0:
448,192,31884,1,0,0:0:0:0:
192,192,32145,1,0,0:0:0:0:
320,192,32145,1,0,0:0:0:0:
448,192,32275,1,0,0:0:0:0:
64,192,32406,1,0,0:0:0:0:
192,192,32406,1,0,0:0:0:0:
320,192,32536,1,0,0:0:0:0:
448,192,32667,1,0,0:0:0:0:
64,192,32928,1,0,0:0:0:0:
192,192,33188,1,0,0:0:0:0:
320,192,33188,1,0,0:0:0:0:
448,192,33449,1,0,0:0:0:0:
64,192,33449,1,0,0:0:0:0:
192,192,33710,1,0,0:0:0:0:
448,192,33873,1,0,0:0:0:0:
320,192,33906,1,0,0:0:0:0:
192,192,33938,1,0,0:0:0:0:
64,192,33971,1,0,0:0:0:0:
320,192,34232,1,0,0:0:0:0:
448,192,34362,1,0,0:0:0:0:
192,192,34493,1,0,0:0:0:0:
64,192,34493,1,0,0:0:0:0:
448,192,34754,1,0,0:0:0:0:
320,192,34754,1,0,0:0:0:0:
192,192,34884,1,0,0:0:0:0:
64,192,35015,1,0,0:0:0:0:
320,192,35015,1,0,0:0:0:0:
448,192,35145,1,0,0:0:0:0:
320,192,35275,1,0,0:0:0:0:
192,192,35275,1,0,0:0:0:0:
64,192,35406,1,0,0:0:0:0:
448,192,35536,1,0,0:0:0:0:
192,192,35536,1,0,0:0:0:0:
320,192,35667,1,0,0:0:0:0:
448,192,35928,1,0,0:0:0:0:
64,192,36319,1,0,0:0:0:0:
192,192,36319,1,0,0:0:0:0:
320,192,36319,128,0,37102:0:0:0:0:
448,192,36580,128,0,37102:0:0:0:0:
64,192,37102,1,0,0:0:0:0:
192,192,37102,1,0,0:0:0:0:
448,192,37362,1,0,0:0:0:0:
64,192,37493,1,0,0:0:0:0:
192,192,37623,1,0,0:0:0:0:
448,192,37884,1,0,0:0:0:0:
320,192,37884,1,0,0:0:0:0:
192,192,38015,1,0,0:0:0:0:
64,192,38145,1,0,0:0:0:0:
320,192,38275,1,0,0:0:0:0:
448,192,38406,1,0,0:0:0:0:
192,192,38406,1,0,0:0:0:0:
64,192,38536,1,0,0:0:0:0:
320,192,38667,1,0,0:0:0:0:
448,192,38667,1,0,0:0:0:0:
64,192,38928,1,0,0:0:0:0:
192,192,38928,1,0,0:0:0:0:
448,192,39058,1,0,0:0:0:0:
320,192,39188,1,0,0:0:0:0:
192,192,39188,1,0,0:0:0:0:
64,192,39319,1,0,0:0:0:0:
320,192,39449,1,0,0:0:0:0:
448,192,39449,1,0,0:0:0:0:
192,192,39580,1,0,0:0:0:0:
64,192,39710,1,0,0:0:0:0:
448,192,39971,1,0,0:0:0:0:
320,192,39971,1,0,0:0:0:0:
192,192,40102,1,0,0:0:0:0:
64,192,40232,1,0,0:0:0:0:
320,192,40232,1,0,0:0:0:0:
448,192,40362,1,0,0:0:0:0:
192,192,40493,1,0,0:0:0:0:
64,192,40623,1,0,0:0:0:0:
320,192,40754,1,0,0:0:0:0:
448,192,41015,1,0,0:0:0:0:
192,192,41015,1,0,0:0:0:0:
64,192,41145,1,0,0:0:0:0:
320,192,41275,1,0,0:0:0:0:
192,192,41275,1,0,0:0:0:0:
448,192,41406,1,0,0:0:0:0:
64,192,41536,1,0,0:0:0:0:
192,192,41569,1,0,0:0:0:0:
320,192,41797,1,0,0:0:0:0:
448,192,41797,1,0,0:0:0:0:
192,192,42058,1,0,0:0:0:0:
64,192,42188,1,0,0:0:0:0:
320,192,42319,1,0,0:0:0:0:
448,192,42449,1,0,0:0:0:0:
192,192,42580,1,0,0:0:0:0:
320,192,42580,1,0,0:0:0:0:
64,192,42710,1,0,0:0:0:0:
192,192,42841,1,0,0:0:0:0:
448,192,43102,1,0,0:0:0:0:
320,192,43102,1,0,0:0:0:0:
64,192,43362,1,0,0:0:0:0:
192,192,43362,1,0,0:0:0:0:
448,192,43623,1,0,0:0:0:0:
320,192,43754,1,0,0:0:0:0:
192,192,43884,1,0,0:0:0:0:
448,192,44145,1,0,0:0:0:0:
320,192,44145,1,0,0:0:0:0:
64,192,44406,1,0,0:0:0:0:
192,192,44536,1,0,0:0:0:0:
320,192,44667,1,0,0:0:0:0:
448,192,44797,1,0,0:0:0:0:
64,192,44928,1,0,0:0:0:0:
192,192,44928,1,0,0:0:0:0:
320,192,45188,1,0,0:0:0:0:
448,192,45319,1,0,0:0:0:0:
192,192,45449,1,0,0:0:0:0:
320,192,45580,1,0,0:0:0:0:
64,192,45710,1,0,0:0:0:0:
448,192,45710,1,0,0:0:0:0:
320,192,45971,1,0,0:0:0:0:
64,192,46232,1,0,0:0:0:0:
192,192,46232,1,0,0:0:0:0:
448,192,46362,1,0,0:0:0:0:
320,192,46428,1,0,0:0:0:0:
192,192,46493,1,0,0:0:0:0:
64,192,46493,1,0,0:0:0:0:
320,192,46623,1,0,0:0:0:0:
448,192,46754,1,0,0:0:0:0:
192,192,46884,1,0,0:0:0:0:
64,192,47015,1,0,0:0:0:0:
320,192,47275,1,0,0:0:0:0:
448,192,47275,1,0,0:0:0:0:
192,192,47406,1,0,0:0:0:0:
64,192,47536,1,0,0:0:0:0:
320,192,47667,1,0,0:0:0:0:
192,192,47797,1,0,0:0:0:0:
448,192,47928,1,0,0:0:0:0:
320,192,48058,1,0,0:0:0:0:
64,192,48058,1,0,0:0:0:0:
192,192,48319,1,0,0:0:0:0:
320,192,48449,1,0,0:0:0:0:
448,192,48580,1,0,0:0:0:0:
64,192,48580,1,0,0:0:0:0:
192,192,48710,1,0,0:0:0:0:
320,192,48841,1,0,0:0:0:0:
448,192,48841,1,0,0:0:0:0:
192,192,48971,1,0,0:0:0:0:
64,192,49102,1,0,0:0:0:0:
320,192,49102,1,0,0:0:0:0:
448,192,49362,1,0,0:0:0:0:
192,192,49362,1,0,0:0:0:0:
320,192,49493,1,0,0:0:0:0:
64,192,49623,1,0,0:0:0:0:
192,192,49623,1,0,0:0:0:0:
448,192,49623,1,0,0:0:0:0:
320,192,49884,1,0,0:0:0:0:
192,192,49884,1,0,0:0:0:0:
64,192,50015,1,0,0:0:0:0:
192,192,50145,1,0,0:0:0:0:
320,192,50406,1,0,0:0:0:0:
448,192,50406,1,0,0:0:0:0:
64,192,50536,1,0,0:0:0:0:
192,192,50667,1,0,0:0:0:0:
448,192,50928,1,0,0:0:0:0:
64,192,51188,1,0,0:0:0:0:
192,192,51188,1,0,0:0:0:0:
448,192,51449,1,0,0:0:0:0:
192,192,51710,1,0,0:0:0:0:
64,192,51971,1,0,0:0:0:0:
448,192,51971,1,0,0:0:0:0:
192,192,52102,1,0,0:0:0:0:
320,192,52232,1,0,0:0:0:0:
64,192,52493,1,0,0:0:0:0:
192,192,52493,1,0,0:0:0:0:
448,192,52623,1,0,0:0:0:0:
320,192,52754,1,0,0:0:0:0:
192,192,52754,1,0,0:0:0:0:
64,192,53015,1,0,0:0:0:0:
192,192,53145,1,0,0:0:0:0:
320,192,53275,1,0,0:0:0:0:
64,192,53536,1,0,0:0:0:0:
448,192,53536,1,0,0:0:0:0:
320,192,53667,1,0,0:0:0:0:
192,192,53797,1,0,0:0:0:0:
64,192,53928,1,0,0:0:0:0:
320,192,54058,1,0,0:0:0:0:
448,192,54058,1,0,0:0:0:0:
64,192,54319,1,0,0:0:0:0:
192,192,54319,1,0,0:0:0:0:
320,192,54580,1,0,0:0:0:0:
448,192,54841,1,0,0:0:0:0:
192,192,55102,1,0,0:0:0:0:
64,192,55102,1,0,0:0:0:0:
320,192,55232,1,0,0:0:0:0:
448,192,55362,128,0,55623:0:0:0:0:
64,192,55623,1,0,0:0:0:0:
320,192,55623,1,0,0:0:0:0:
320,192,55884,1,0,0:0:0:0:
192,192,55884,128,0,56275:0:0:0:0:
448,192,56275,1,0,0:0:0:0:
320,192,56406,1,0,0:0:0:0:
64,192,56406,1,0,0:0:0:0:
192,192,56667,1,0,0:0:0:0:
448,192,56667,128,0,57058:0:0:0:0:
64,192,57058,1,0,0:0:0:0:
192,192,57188,1,0,0:0:0:0:
320,192,57188,1,0,0:0:0:0:
448,192,57319,1,0,0:0:0:0:
64,192,57449,1,0,0:0:0:0:
192,192,57449,128,0,57841:0:0:0:0:
320,192,57580,1,0,0:0:0:0:
448,192,57710,1,0,0:0:0:0:
64,192,57841,1,0,0:0:0:0:
320,192,57971,1,0,0:0:0:0:
64,192,58232,1,0,0:0:0:0:
320,192,58232,1,0,0:0:0:0:
448,192,58362,1,0,0:0:0:0:
192,192,58493,1,0,0:0:0:0:
320,192,58493,1,0,0:0:0:0:
64,192,58623,1,0,0:0:0:0:
320,192,58754,1,0,0:0:0:0:
448,192,58754,1,0,0:0:0:0:
192,192,58884,1,0,0:0:0:0:
64,192,59015,1,0,0:0:0:0:
320,192,59275,1,0,0:0:0:0:
448,192,59275,1,0,0:0:0:0:
64,192,59406,1,0,0:0:0:0:
192,192,59536,1,0,0:0:0:0:
320,192,59667,1,0,0:0:0:0:
448,192,59797,1,0,0:0:0:0:
64,192,59797,1,0,0:0:0:0:
192,192,59928,1,0,0:0:0:0:
320,192,60058,1,0,0:0:0:0:
448,192,60188,1,0,0:0:0:0:
64,192,60319,1,0,0:0:0:0:
320,192,60449,1,0,0:0:0:0:
192,192,60580,1,0,0:0:0:0:
448,192,60580,1,0,0:0:0:0:
320,192,60841,1,0,0:0:0:0:
448,192,60971,1,0,0:0:0:0:
192,192,61102,1,0,0:0:0:0:
320,192,61232,1,0,0:0:0:0:
64,192,61362,1,0,0:0:0:0:
448,192,61362,1,0,0:0:0:0:
192,192,61493,1,0,0:0:0:0:
320,192,61623,1,0,0:0:0:0:
448,192,61754,1,0,0:0:0:0:
192,192,61884,1,0,0:0:0:0:
320,192,61884,1,0,0:0:0:0:
64,192,62015,1,0,0:0:0:0:
320,192,62145,1,0,0:0:0:0:
448,192,62145,1,0,0:0:0:0:
192,192,62275,1,0,0:0:0:0:
448,192,62406,1,0,0:0:0:0:
320,192,62536,1,0,0:0:0:0:
192,192,62667,1,0,0:0:0:0:
64,192,62797,1,0,0:0:0:0:
320,192,62928,1,0,0:0:0:0:
192,192,62928,1,0,0:0:0:0:
448,192,63058,1,0,0:0:0:0:
192,192,63188,1,0,0:0:0:0:
320,192,63319,1,0,0:0:0:0:
64,192,63449,1,0,0:0:0:0:
448,192,63580,1,0,0:0:0:0:
320,192,63710,1,0,0:0:0:0:
192,192,63710,1,0,0:0:0:0:
64,192,63841,1,0,0:0:0:0:
448,192,63971,1,0,0:0:0:0:
320,192,64102,1,0,0:0:0:0:
64,192,64232,1,0,0:0:0:0:
192,192,64362,1,0,0:0:0:0:
320,192,64493,1,0,0:0:0:0:
64,192,64493,1,0,0:0:0:0:
448,192,64623,1,0,0:0:0:0:
320,192,64754,1,0,0:0:0:0:
192,192,64884,1,0,0:0:0:0:
64,192,65015,1,0,0:0:0:0:
448,192,65015,1,0,0:0:0:0:
320,192,65145,1,0,0:0:0:0:
192,192,65275,1,0,0:0:0:0:
64,192,65275,1,0,0:0:0:0:
320,192,65406,1,0,0:0:0:0:
448,192,65536,1,0,0:0:0:0:
192,192,65667,1,0,0:0:0:0:
320,192,65797,1,0,0:0:0:0:
64,192,65928,1,0,0:0:0:0:
192,192,66058,1,0,0:0:0:0:
448,192,66058,1,0,0:0:0:0:
320,192,66188,1,0,0:0:0:0:
448,192,66319,1,0,0:0:0:0:
192,192,66449,1,0,0:0:0:0:
64,192,66580,1,0,0:0:0:0:
320,192,66710,1,0,0:0:0:0:
192,192,66841,1,0,0:0:0:0:
448,192,66841,1,0,0:0:0:0:
64,192,66971,1,0,0:0:0:0:
192,192,67102,1,0,0:0:0:0:
320,192,67232,1,0,0:0:0:0:
448,192,67362,1,0,0:0:0:0:
64,192,67493,1,0,0:0:0:0:
320,192,67623,1,0,0:0:0:0:
192,192,67623,1,0,0:0:0:0:
448,192,67754,1,0,0:0:0:0:
320,192,67884,1,0,0:0:0:0:
192,192,68015,1,0,0:0:0:0:
64,192,68145,1,0,0:0:0:0:
192,192,68275,1,0,0:0:0:0:
320,192,68406,1,0,0:0:0:0:
448,192,68406,1,0,0:0:0:0:
64,192,68406,1,0,0:0:0:0:
192,192,68667,1,0,0:0:0:0:
64,192,68797,1,0,0:0:0:0:
448,192,68928,1,0,0:0:0:0:
320,192,68928,1,0,0:0:0:0:
64,192,69188,1,0,0:0:0:0:
192,192,69188,1,0,0:0:0:0:
320,192,69449,1,0,0:0:0:0:
192,192,69580,1,0,0:0:0:0:
320,192,69710,1,0,0:0:0:0:
64,192,69710,1,0,0:0:0:0:
448,192,69841,1,0,0:0:0:0:
192,192,69971,1,0,0:0:0:0:
320,192,69971,1,0,0:0:0:0:
64,192,70232,1,0,0:0:0:0:
192,192,70362,1,0,0:0:0:0:
320,192,70493,1,0,0:0:0:0:
448,192,70493,1,0,0:0:0:0:
64,192,70754,1,0,0:0:0:0:
320,192,70754,1,0,0:0:0:0:
192,192,70754,1,0,0:0:0:0:
448,192,71015,1,0,0:0:0:0:
64,192,71015,1,0,0:0:0:0:
192,192,71015,1,0,0:0:0:0:
320,192,71275,1,0,0:0:0:0:
448,192,71275,1,0,0:0:0:0:
192,192,71536,1,0,0:0:0:0:
320,192,71536,1,0,0:0:0:0:
448,192,71536,1,0,0:0:0:0:
64,192,71797,1,0,0:0:0:0:
192,192,71928,1,0,0:0:0:0:
320,192,72058,1,0,0:0:0:0:
448,192,72188,1,0,0:0:0:0:
192,192,72319,1,0,0:0:0:0:
64,192,72319,1,0,0:0:0:0:
320,192,72449,1,0,0:0:0:0:
192,192,72580,1,0,0:0:0:0:
448,192,72710,1,0,0:0:0:0:
64,192,72841,1,0,0:0:0:0:
192,192,72971,1,0,0:0:0:0:
320,192,73102,1,0,0:0:0:0:
448,192,73102,1,0,0:0:0:0:
64,192,73362,1,0,0:0:0:0:
448,192,73493,1,0,0:0:0:0:
320,192,73623,1,0,0:0:0:0:
192,192,73754,1,0,0:0:0:0:
64,192,73884,1,0,0:0:0:0:
448,192,73884,1,0,0:0:0:0:
320,192,74015,1,0,0:0:0:0:
192,192,74145,1,0,0:0:0:0:
64,192,74275,1,0,0:0:0:0:
320,192,74406,1,0,0:0:0:0:
192,192,74406,1,0,0:0:0:0:
448,192,74536,1,0,0:0:0:0:
64,192,74667,1,0,0:0:0:0:
192,192,74667,1,0,0:0:0:0:
320,192,74928,1,0,0:0:0:0:
448,192,75058,1,0,0:0:0:0:
320,192,75188,1,0,0:0:0:0:
192,192,75319,1,0,0:0:0:0:
64,192,75449,1,0,0:0:0:0:
448,192,75449,1,0,0:0:0:0:
192,192,75580,1,0,0:0:0:0:
320,192,75710,1,0,0:0:0:0:
448,192,75841,1,0,0:0:0:0:
320,192,75971,1,0,0:0:0:0:
192,192,76102,1,0,0:0:0:0:
64,192,76232,1,0,0:0:0:0:
448,192,76232,1,0,0:0:0:0:
192,192,76493,1,0,0:0:0:0:
320,192,76623,1,0,0:0:0:0:
448,192,76754,1,0,0:0:0:0:
64,192,76884,1,0,0:0:0:0:
192,192,77015,1,0,0:0:0:0:
320,192,77015,1,0,0:0:0:0:
448,192,77275,1,0,0:0:0:0:
320,192,77406,1,0,0:0:0:0:
192,192,77536,1,0,0:0:0:0:
64,192,77536,1,0,0:0:0:0:
448,192,77667,1,0,0:0:0:0:
192,192,77797,1,0,0:0:0:0:
320,192,77797,1,0,0:0:0:0:
64,192,77928,1,0,0:0:0:0:
192,192,78058,1,0,0:0:0:0:
320,192,78188,1,0,0:0:0:0:
448,192,78319,1,0,0:0:0:0:
64,192,78449,1,0,0:0:0:0:
192,192,78580,1,0,0:0:0:0:
320,192,78580,1,0,0:0:0:0:
448,192,78710,1,0,0:0:0:0:
320,192,78841,1,0,0:0:0:0:
192,192,78971,1,0,0:0:0:0:
64,192,79102,1,0,0:0:0:0:
320,192,79232,1,0,0:0:0:0:
448,192,79362,1,0,0:0:0:0:
192,192,79362,1,0,0:0:0:0:
64,192,79493,1,0,0:0:0:0:
192,192,79623,1,0,0:0:0:0:
320,192,79754,1,0,0:0:0:0:
448,192,79884,1,0,0:0:0:0:
192,192,80015,1,0,0:0:0:0:
64,192,80145,1,0,0:0:0:0:
320,192,80145,1,0,0:0:0:0:
192,192,80406,1,0,0:0:0:0:
320,192,80536,1,0,0:0:0:0:
448,192,80667,1,0,0:0:0:0:
64,192,80667,1,0,0:0:0:0:
192,192,80928,1,0,0:0:0:0:
320,192,80928,1,0,0:0:0:0:
448,192,81188,1,0,0:0:0:0:
320,192,81319,1,0,0:0:0:0:
192,192,81319,1,0,0:0:0:0:
64,192,81449,1,0,0:0:0:0:
448,192,81449,1,0,0:0:0:0:
320,192,81710,1,0,0:0:0:0:
448,192,81710,1,0,0:0:0:0:
192,192,81841,1,0,0:0:0:0:
64,192,81971,1,0,0:0:0:0:
320,192,82102,1,0,0:0:0:0:
448,192,82102,1,0,0:0:0:0:
192,192,82232,1,0,0:0:0:0:
64,192,82232,1,0,0:0:0:0:
64,192,82493,1,0,0:0:0:0:
320,192,82493,1,0,0:0:0:0:
192,192,82754,1,0,0:0:0:0:
320,192,82884,1,0,0:0:0:0:
448,192,83015,1,0,0:0:0:0:
64,192,83015,1,0,0:0:0:0:
192,192,83275,1,0,0:0:0:0:
320,192,83275,1,0,0:0:0:0:
448,192,83536,1,0,0:0:0:0:
64,192,83536,1,0,0:0:0:0:
192,192,83797,1,0,0:0:0:0:
320,192,83928,1,0,0:0:0:0:
448,192,84058,128,0,84319:0:0:0:0:
64,192,84058,1,0,0:0:0:0:
320,192,84319,128,0,84580:0:0:0:0:
64,192,84580,128,0,84841:0:0:0:0:
192,192,84841,128,0,85102:0:0:0:0:
448,192,84841,1,0,0:0:0:0:
320,192,85102,128,0,85493:0:0:0:0:
448,192,85493,1,0,0:0:0:0:
192,192,85623,1,0,0:0:0:0:
64,192,85623,128,0,86015:0:0:0:0:
192,192,86015,1,0,0:0:0:0:
320,192,86145,1,0,0:0:0:0:
448,192,86275,1,0,0:0:0:0:
192,192,86406,128,0,86667:0:0:0:0:
64,192,86406,1,0,0:0:0:0:
320,192,86667,128,0,87188:0:0:0:0:
64,192,86928,1,0,0:0:0:0:
448,192,87188,128,0,87710:0:0:0:0:
192,192,87188,1,0,0:0:0:0:
320,192,87710,1,0,0:0:0:0:
192,192,87841,1,0,0:0:0:0:
64,192,87971,128,0,88362:0:0:0:0:
320,192,87971,1,0,0:0:0:0:
320,192,88362,1,0,0:0:0:0:
192,192,88493,1,0,0:0:0:0:
448,192,88493,128,0,88754:0:0:0:0:
192,192,88754,128,0,89536:0:0:0:0:
64,192,88754,1,0,0:0:0:0:
320,192,89145,1,0,0:0:0:0:
448,192,89275,1,0,0:0:0:0:
448,192,89536,1,0,0:0:0:0:
320,192,89667,1,0,0:0:0:0:
192,192,89797,1,0,0:0:0:0:
64,192,89928,1,0,0:0:0:0:
320,192,90058,128,0,90319:0:0:0:0:
64,192,90580,1,0,0:0:0:0:
192,192,90580,1,0,0:0:0:0:
320,192,90710,1,0,0:0:0:0:
448,192,90841,1,0,0:0:0:0:
64,192,91102,1,0,0:0:0:0:
192,192,91102,1,0,0:0:0:0:
320,192,91232,1,0,0:0:0:0:
448,192,91232,1,0,0:0:0:0:
192,192,91362,1,0,0:0:0:0:
64,192,91362,1,0,0:0:0:0:
448,192,91493,1,0,0:0:0:0:
192,192,91558,1,0,0:0:0:0:
320,192,91623,1,0,0:0:0:0:
64,192,91623,1,0,0:0:0:0:
448,192,91754,1,0,0:0:0:0:
192,192,91754,1,0,0:0:0:0:
64,192,91884,1,0,0:0:0:0:
320,192,91884,1,0,0:0:0:0:
448,192,91884,128,0,92406:0:0:0:0:
192,192,92275,1,0,0:0:0:0:
64,192,92406,128,0,92667:0:0:0:0:
320,192,92406,1,0,0:0:0:0:
448,192,92536,1,0,0:0:0:0:
320,192,92667,128,0,93188:0:0:0:0:
192,192,92667,1,0,0:0:0:0:
64,192,92928,1,0,0:0:0:0:
448,192,93188,128,0,93449:0:0:0:0:
192,192,93188,1,0,0:0:0:0:
192,192,93449,128,0,93971:0:0:0:0:
64,192,93449,1,0,0:0:0:0:
448,192,93710,1,0,0:0:0:0:
320,192,93841,1,0,0:0:0:0:
64,192,93971,128,0,94232:0:0:0:0:
448,192,93971,1,0,0:0:0:0:
320,192,94232,128,0,94754:0:0:0:0:
448,192,94232,1,0,0:0:0:0:
192,192,94362,1,0,0:0:0:0:
64,192,94493,1,0,0:0:0:0:
192,192,94623,1,0,0:0:0:0:
448,192,94754,128,0,95015:0:0:0:0:
64,192,94754,1,0,0:0:0:0:
192,192,95015,128,0,95536:0:0:0:0:
64,192,95015,1,0,0:0:0:0:
320,192,95145,1,0,0:0:0:0:
448,192,95406,1,0,0:0:0:0:
64,192,95536,128,0,95797:0:0:0:0:
320,192,95536,1,0,0:0:0:0:
448,192,95797,128,0,96319:0:0:0:0:
320,192,95797,1,0,0:0:0:0:
64,192,96058,1,0,0:0:0:0:
192,192,96319,128,0,96580:0:0:0:0:
320,192,96319,1,0,0:0:0:0:
64,192,96580,1,0,0:0:0:0:
320,192,96710,1,0,0:0:0:0:
448,192,96841,1,0,0:0:0:0:
192,192,96841,128,0,97102:0:0:0:0:
448,192,97102,128,0,97362:0:0:0:0:
64,192,97102,1,0,0:0:0:0:
192,192,97362,128,0,97623:0:0:0:0:
320,192,97362,1,0,0:0:0:0:
320,192,97493,1,0,0:0:0:0:
64,192,97623,128,0,97884:0:0:0:0:
448,192,97623,1,0,0:0:0:0:
320,192,97754,1,0,0:0:0:0:
320,192,97884,128,0,98145:0:0:0:0:
192,192,97884,1,0,0:0:0:0:
448,192,98145,128,0,98667:0:0:0:0:
192,192,98145,1,0,0:0:0:0:
64,192,98406,1,0,0:0:0:0:
192,192,98536,1,0,0:0:0:0:
64,192,98667,128,0,98928:0:0:0:0:
320,192,98667,1,0,0:0:0:0:
192,192,98797,1,0,0:0:0:0:
320,192,98928,128,0,99449:0:0:0:0:
448,192,98928,1,0,0:0:0:0:
64,192,99188,1,0,0:0:0:0:
192,192,99449,128,0,99710:0:0:0:0:
448,192,99710,128,0,100232:0:0:0:0:
64,192,99710,1,0,0:0:0:0:
320,192,99971,1,0,0:0:0:0:
192,192,100102,1,0,0:0:0:0:
64,192,100232,128,0,100493:0:0:0:0:
320,192,100232,1,0,0:0:0:0:
192,192,100493,128,0,101015:0:0:0:0:
320,192,100493,1,0,0:0:0:0:
448,192,100623,1,0,0:0:0:0:
320,192,100754,1,0,0:0:0:0:
64,192,100884,1,0,0:0:0:0:
448,192,101015,128,0,101275:0:0:0:0:
320,192,101015,1,0,0:0:0:0:
320,192,101275,128,0,101797:0:0:0:0:
192,192,101275,1,0,0:0:0:0:
64,192,101406,1,0,0:0:0:0:
448,192,101667,1,0,0:0:0:0:
64,192,101797,128,0,102058:0:0:0:0:
192,192,101797,1,0,0:0:0:0:
448,192,101928,1,0,0:0:0:0:
192,192,102058,128,0,102841:0:0:0:0:
448,192,102058,128,0,102841:0:0:0:0:
320,192,102058,1,0,0:0:0:0:
64,192,102841,1,0,0:0:0:0:
320,192,102971,1,0,0:0:0:0:
192,192,103102,1,0,0:0:0:0:
320,192,103232,1,0,0:0:0:0:
192,192,103362,1,0,0:0:0:0:
448,192,103362,1,0,0:0:0:0:
64,192,103623,1,0,0:0:0:0:
320,192,103623,1,0,0:0:0:0:
192,192,103884,1,0,0:0:0:0:
448,192,103884,1,0,0:0:0:0:
64,192,104145,1,0,0:0:0:0:
320,192,104145,1,0,0:0:0:0:
192,192,104275,1,0,0:0:0:0:
320,192,104406,1,0,0:0:0:0:
448,192,104406,1,0,0:0:0:0:
64,192,104667,128,0,104928:0:0:0:0:
192,192,104667,1,0,0:0:0:0:
448,192,104928,1,0,0:0:0:0:
320,192,105058,1,0,0:0:0:0:
192,192,105188,1,0,0:0:0:0:
64,192,105188,1,0,0:0:0:0:
448,192,105449,128,0,105710:0:0:0:0:
320,192,105449,1,0,0:0:0:0:
64,192,105580,1,0,0:0:0:0:
192,192,105710,128,0,105971:0:0:0:0:
320,192,105710,1,0,0:0:0:0:
64,192,105841,1,0,0:0:0:0:
448,192,105971,1,0,0:0:0:0:
64,192,106232,128,0,106493:0:0:0:0:
192,192,106232,1,0,0:0:0:0:
448,192,106362,1,0,0:0:0:0:
320,192,106493,128,0,106754:0:0:0:0:
192,192,106493,1,0,0:0:0:0:
448,192,106623,1,0,0:0:0:0:
192,192,106754,1,0,0:0:0:0:
64,192,106884,1,0,0:0:0:0:
448,192,107015,128,0,107536:0:0:0:0:
320,192,107015,1,0,0:0:0:0:
64,192,107145,1,0,0:0:0:0:
192,192,107275,1,0,0:0:0:0:
320,192,107406,1,0,0:0:0:0:
192,192,107536,1,0,0:0:0:0:
64,192,107797,128,0,108058:0:0:0:0:
448,192,107797,1,0,0:0:0:0:
192,192,107928,1,0,0:0:0:0:
320,192,108058,128,0,108319:0:0:0:0:
448,192,108058,1,0,0:0:0:0:
192,192,108188,1,0,0:0:0:0:
64,192,108319,1,0,0:0:0:0:
448,192,108580,128,0,108841:0:0:0:0:
192,192,108580,1,0,0:0:0:0:
320,192,108710,1,0,0:0:0:0:
192,192,108841,128,0,109102:0:0:0:0:
64,192,108841,1,0,0:0:0:0:
320,192,108971,1,0,0:0:0:0:
448,192,109102,1,0,0:0:0:0:
320,192,109232,1,0,0:0:0:0:
64,192,109362,128,0,109884:0:0:0:0:
192,192,109362,1,0,0:0:0:0:
448,192,109623,1,0,0:0:0:0:
320,192,109884,1,0,0:0:0:0:
192,192,110015,1,0,0:0:0:0:
448,192,110145,128,0,110667:0:0:0:0:
64,192,110145,1,0,0:0:0:0:
320,192,110275,1,0,0:0:0:0:
192,192,110406,1,0,0:0:0:0:
64,192,110536,1,0,0:0:0:0:
320,192,110667,1,0,0:0:0:0:
64,192,110797,1,0,0:0:0:0:
192,192,110928,128,0,111188:0:0:0:0:
320,192,110928,1,0,0:0:0:0:
448,192,111058,1,0,0:0:0:0:
64,192,111188,128,0,111449:0:0:0:0:
320,192,111188,1,0,0:0:0:0:
448,192,111319,1,0,0:0:0:0:
192,192,111449,1,0,0:0:0:0:
320,192,111710,128,0,111971:0:0:0:0:
192,192,111710,1,0,0:0:0:0:
64,192,111841,1,0,0:0:0:0:
448,192,111971,128,0,112232:0:0:0:0:
192,192,111971,1,0,0:0:0:0:
64,192,112102,1,0,0:0:0:0:
320,192,112232,1,0,0:0:0:0:
64,192,112493,128,0,112754:0:0:0:0:
448,192,112493,1,0,0:0:0:0:
192,192,112623,1,0,0:0:0:0:
320,192,112754,128,0,113015:0:0:0:0:
448,192,112754,1,0,0:0:0:0:
192,192,112884,1,0,0:0:0:0:
64,192,113015,1,0,0:0:0:0:
448,192,113145,1,0,0:0:0:0:
192,192,113275,128,0,113536:0:0:0:0:
320,192,113275,1,0,0:0:0:0:
64,192,113406,1,0,0:0:0:0:
448,192,113536,128,0,113797:0:0:0:0:
320,192,113536,1,0,0:0:0:0:
64,192,113667,1,0,0:0:0:0:
192,192,113797,1,0,0:0:0:0:
64,192,114058,128,0,114319:0:0:0:0:
320,192,114058,1,0,0:0:0:0:
448,192,114188,1,0,0:0:0:0:
192,192,114319,128,0,114580:0:0:0:0:
320,192,114319,1,0,0:0:0:0:
448,192,114449,1,0,0:0:0:0:
64,192,114580,1,0,0:0:0:0:
448,192,114841,128,0,115102:0:0:0:0:
192,192,114841,1,0,0:0:0:0:
64,192,114971,1,0,0:0:0:0:
320,192,115102,128,0,115362:0:0:0:0:
192,192,115102,1,0,0:0:0:0:
64,192,115232,1,0,0:0:0:0:
448,192,115362,1,0,0:0:0:0:
192,192,115623,1,0,0:0:0:0:
64,192,115754,1,0,0:0:0:0:
320,192,115884,1,0,0:0:0:0:
448,192,115884,1,0,0:0:0:0:
192,192,116015,1,0,0:0:0:0:
320,192,116145,1,0,0:0:0:0:
64,192,116275,1,0,0:0:0:0:
320,192,116406,1,0,0:0:0:0:
448,192,116536,1,0,0:0:0:0:
320,192,116602,1,0,0:0:0:0:
192,192,116667,1,0,0:0:0:0:
64,192,116732,1,0,0:0:0:0:
320,192,116797,1,0,0:0:0:0:
448,192,116797,1,0,0:0:0:0:
192,192,116928,1,0,0:0:0:0:
64,192,116928,1,0,0:0:0:0:
448,192,117188,1,0,0:0:0:0:
320,192,117319,1,0,0:0:0:0:
192,192,117449,1,0,0:0:0:0:
64,192,117710,1,0,0:0:0:0:
320,192,117971,1,0,0:0:0:0:
192,192,118232,1,0,0:0:0:0:
448,192,118493,1,0,0:0:0:0:
320,192,118493,1,0,0:0:0:0:
64,192,119015,1,0,0:0:0:0:
192,192,119275,1,0,0:0:0:0:
320,192,119406,1,0,0:0:0:0:
448,192,119536,1,0,0:0:0:0:
64,192,119797,1,0,0:0:0:0:
192,192,119928,1,0,0:0:0:0:
320,192,120058,1,0,0:0:0:0:
448,192,120254,1,0,0:0:0:0:
320,192,120319,1,0,0:0:0:0:
192,192,120449,1,0,0:0:0:0:
64,192,120580,1,0,0:0:0:0:
448,192,120710,1,0,0:0:0:0:
320,192,120841,1,0,0:0:0:0:
192,192,120971,1,0,0:0:0:0:
64,192,121102,1,0,0:0:0:0:
320,192,121232,1,0,0:0:0:0:
448,192,121362,1,0,0:0:0:0:
192,192,121493,1,0,0:0:0:0:
320,192,121623,1,0,0:0:0:0:
64,192,121623,1,0,0:0:0:0:
448,192,121884,1,0,0:0:0:0:
192,192,122145,1,0,0:0:0:0:
64,192,122275,1,0,0:0:0:0:
320,192,122406,1,0,0:0:0:0:
448,192,122406,1,0,0:0:0:0:
192,192,122536,1,0,0:0:0:0:
64,192,122667,1,0,0:0:0:0:
320,192,122667,128,0,123188:0:0:0:0:
448,192,122928,1,0,0:0:0:0:
192,192,123058,1,0,0:0:0:0:
64,192,123188,1,0,0:0:0:0:
448,192,123449,1,0,0:0:0:0:
192,192,123580,1,0,0:0:0:0:
320,192,123710,1,0,0:0:0:0:
64,192,123971,1,0,0:0:0:0:
192,192,124232,1,0,0:0:0:0:
448,192,124493,1,0,0:0:0:0:
320,192,124688,1,0,0:0:0:0:
192,192,124754,1,0,0:0:0:0:
64,192,124754,1,0,0:0:0:0:
448,192,125015,1,0,0:0:0:0:
64,192,125275,1,0,0:0:0:0:
192,192,125406,1,0,0:0:0:0:
320,192,125471,1,0,0:0:0:0:
448,192,125536,1,0,0:0:0:0:
64,192,125536,1,0,0:0:0:0:
320,192,125667,1,0,0:0:0:0:
192,192,125797,1,0,0:0:0:0:
64,192,125797,128,0,126319:0:0:0:0:
448,192,126058,1,0,0:0:0:0:
320,192,126188,1,0,0:0:0:0:
192,192,126319,1,0,0:0:0:0:
448,192,126319,1,0,0:0:0:0:
320,192,126580,1,0,0:0:0:0:
64,192,126710,1,0,0:0:0:0:
448,192,126710,1,0,0:0:0:0:
192,192,126841,1,0,0:0:0:0:
448,192,126971,1,0,0:0:0:0:
320,192,126971,1,0,0:0:0:0:
64,192,127102,1,0,0:0:0:0:
192,192,127102,1,0,0:0:0:0:
448,192,127493,1,0,0:0:0:0:
320,192,127493,1,0,0:0:0:0:
64,192,127623,1,0,0:0:0:0:
192,192,127623,1,0,0:0:0:0:
320,192,127754,1,0,0:0:0:0:
448,192,127884,1,0,0:0:0:0:
192,192,127884,1,0,0:0:0:0:
64,192,128145,1,0,0:0:0:0:
192,192,128275,1,0,0:0:0:0:
320,192,128406,1,0,0:0:0:0:
448,192,128406,1,0,0:0:0:0:
64,192,128667,1,0,0:0:0:0:
320,192,128667,1,0,0:0:0:0:
192,192,128928,1,0,0:0:0:0:
448,192,128928,1,0,0:0:0:0:
64,192,129188,1,0,0:0:0:0:
192,192,129188,1,0,0:0:0:0:
320,192,129449,1,0,0:0:0:0:
448,192,129449,1,0,0:0:0:0:
64,192,129710,1,0,0:0:0:0:
192,192,129841,1,0,0:0:0:0:
320,192,129971,1,0,0:0:0:0:
448,192,130102,1,0,0:0:0:0:
64,192,130232,1,0,0:0:0:0:
192,192,130232,1,0,0:0:0:0:
320,192,130362,1,0,0:0:0:0:
192,192,130493,1,0,0:0:0:0:
448,192,130623,1,0,0:0:0:0:
320,192,130754,1,0,0:0:0:0:
192,192,130884,1,0,0:0:0:0:
64,192,131015,1,0,0:0:0:0:
448,192,131015,1,0,0:0:0:0:
192,192,131275,1,0,0:0:0:0:
320,192,131406,1,0,0:0:0:0:
448,192,131536,1,0,0:0:0:0:
64,192,131667,1,0,0:0:0:0:
192,192,131797,1,0,0:0:0:0:
320,192,131797,1,0,0:0:0:0:
448,192,131928,1,0,0:0:0:0:
320,192,132058,1,0,0:0:0:0:
192,192,132188,1,0,0:0:0:0:
64,192,132319,1,0,0:0:0:0:
320,192,132319,1,0,0:0:0:0:
192,192,132449,1,0,0:0:0:0:
448,192,132580,1,0,0:0:0:0:
320,192,132580,1,0,0:0:0:0:
64,192,132841,1,0,0:0:0:0:
192,192,132971,1,0,0:0:0:0:
320,192,133102,1,0,0:0:0:0:
448,192,133232,1,0,0:0:0:0:
64,192,133362,1,0,0:0:0:0:
192,192,133362,1,0,0:0:0:0:
320,192,133493,1,0,0:0:0:0:
448,192,133623,1,0,0:0:0:0:
192,192,133754,1,0,0:0:0:0:
64,192,133884,1,0,0:0:0:0:
320,192,134015,1,0,0:0:0:0:
192,192,134145,1,0,0:0:0:0:
448,192,134145,1,0,0:0:0:0:
64,192,134406,1,0,0:0:0:0:
448,192,134536,1,0,0:0:0:0:
320,192,134667,1,0,0:0:0:0:
192,192,134797,1,0,0:0:0:0:
64,192,134928,1,0,0:0:0:0:
448,192,134928,1,0,0:0:0:0:
320,192,135058,1,0,0:0:0:0:
192,192,135188,1,0,0:0:0:0:
64,192,135319,1,0,0:0:0:0:
320,192,135449,1,0,0:0:0:0:
448,192,135580,1,0,0:0:0:0:
192,192,135710,1,0,0:0:0:0:
64,192,135710,1,0,0:0:0:0:
320,192,135841,1,0,0:0:0:0:
448,192,135971,1,0,0:0:0:0:
192,192,136102,1,0,0:0:0:0:
64,192,136232,1,0,0:0:0:0:
320,192,136362,1,0,0:0:0:0:
448,192,136493,1,0,0:0:0:0:
192,192,136493,1,0,0:0:0:0:
64,192,136623,1,0,0:0:0:0:
192,192,136754,1,0,0:0:0:0:
320,192,136884,1,0,0:0:0:0:
448,192,137015,1,0,0:0:0:0:
64,192,137015,1,0,0:0:0:0:
192,192,137145,1,0,0:0:0:0:
320,192,137210,1,0,0:0:0:0:
448,192,137275,1,0,0:0:0:0:
64,192,137536,1,0,0:0:0:0:
320,192,137667,1,0,0:0:0:0:
192,192,137797,1,0,0:0:0:0:
448,192,137928,1,0,0:0:0:0:
320,192,138058,1,0,0:0:0:0:
192,192,138188,1,0,0:0:0:0:
64,192,138319,1,0,0:0:0:0:
320,192,138449,1,0,0:0:0:0:
448,192,138580,1,0,0:0:0:0:
192,192,138580,1,0,0:0:0:0:
64,192,138710,1,0,0:0:0:0:
320,192,138841,1,0,0:0:0:0:
192,192,138841,1,0,0:0:0:0:
192,192,139102,1,0,0:0:0:0:
64,192,139232,1,0,0:0:0:0:
320,192,139362,1,0,0:0:0:0:
448,192,139362,1,0,0:0:0:0:
64,192,139623,1,0,0:0:0:0:
192,192,139623,1,0,0:0:0:0:
320,192,139884,1,0,0:0:0:0:
64,192,140015,1,0,0:0:0:0:
192,192,140145,1,0,0:0:0:0:
448,192,140145,1,0,0:0:0:0:
320,192,140406,1,0,0:0:0:0:
64,192,140406,1,0,0:0:0:0:
448,192,140667,1,0,0:0:0:0:
320,192,140797,1,0,0:0:0:0:
192,192,140928,1,0,0:0:0:0:
64,192,140928,1,0,0:0:0:0:
448,192,141188,1,0,0:0:0:0:
320,192,141188,128,0,141449:0:0:0:0:
64,192,141449,1,0,0:0:0:0:
192,192,141449,128,0,141710:0:0:0:0:
448,192,141710,1,0,0:0:0:0:
64,192,141971,1,0,0:0:0:0:
192,192,141971,128,0,142232:0:0:0:0:
320,192,142232,128,0,142493:0:0:0:0:
448,192,142493,128,0,142754:0:0:0:0:
64,192,142754,128,0,143015:0:0:0:0:
192,192,142754,1,0,0:0:0:0:
320,192,143015,128,0,143406:0:0:0:0:
448,192,143275,1,0,0:0:0:0:
192,192,143406,1,0,0:0:0:0:
64,192,143536,128,0,143928:0:0:0:0:
448,192,143536,1,0,0:0:0:0:
192,192,143928,1,0,0:0:0:0:
320,192,144058,1,0,0:0:0:0:
448,192,144188,1,0,0:0:0:0:
64,192,144319,128,0,144580:0:0:0:0:
192,192,144319,1,0,0:0:0:0:
320,192,144580,128,0,144971:0:0:0:0:
192,192,144841,1,0,0:0:0:0:
448,192,144971,1,0,0:0:0:0:
64,192,145102,128,0,145623:0:0:0:0:
192,192,145102,1,0,0:0:0:0:
448,192,145623,1,0,0:0:0:0:
320,192,145754,1,0,0:0:0:0:
192,192,145884,128,0,146275:0:0:0:0:
64,192,145884,1,0,0:0:0:0:
320,192,146275,1,0,0:0:0:0:
448,192,146406,1,0,0:0:0:0:
64,192,146536,1,0,0:0:0:0:
320,192,146667,128,0,147449:0:0:0:0:
192,192,146667,1,0,0:0:0:0:
64,192,147058,1,0,0:0:0:0:
448,192,147188,1,0,0:0:0:0:
192,192,147449,1,0,0:0:0:0:
64,192,147580,1,0,0:0:0:0:
448,192,147710,1,0,0:0:0:0:
320,192,147841,1,0,0:0:0:0:
192,192,147971,128,0,148232:0:0:0:0:
448,192,148232,1,0,0:0:0:0:
320,192,148362,1,0,0:0:0:0:
64,192,148493,1,0,0:0:0:0:
192,192,148623,1,0,0:0:0:0:
320,192,148754,1,0,0:0:0:0:
448,192,148884,1,0,0:0:0:0:
192,192,149015,1,0,0:0:0:0:
320,192,149015,1,0,0:0:0:0:
64,192,149275,128,0,152406:0:0:0:0:
192,192,149667,1,0,0:0:0:0:
320,192,149732,1,0,0:0:0:0:
448,192,149797,128,0,152406:0:0:0:0:
320,192,150841,128,0,152406:0:0:0:0:
